#TITLE:Ha・lle・lu・jah (Ryu☆ Remix);
#SUBTITLE:;
#ARTIST:SOUND HOLIC feat. Nana Takahashi;
#TITLETRANSLIT:;
#SUBTITLETRANSLIT:;
#ARTISTTRANSLIT:;
#GENRE:DDR;
#CREDIT:;
#BANNER:;
#BACKGROUND:;
#LYRICSPATH:;
#CDTITLE:;
#MUSIC:Ha-lle-lu-jah (Ryu Remix).ogg;
#OFFSET:1.462000;
#SAMPLESTART:64.321960;
#SAMPLELENGTH:15.000000;
#LASTBEATHINT:1.100242;
#SELECTABLE:YES;
#DISPLAYBPM:155.000000;
#BPMS:0.000000=155.000000
;
#STOPS:
;
#BGCHANGES:;
#KEYSOUNDS:;
#ATTACKS:;

//---------------dance-single - ----------------
#NOTES:
     dance-single:
     :
     Medium:
     10:
     0.434686,0.480747,0.285745,0.339805,0.000000,394.000000,357.000000,37.000000,44.000000,0.000000,0.000000,0.434686,0.480747,0.285745,0.339805,0.000000,394.000000,357.000000,37.000000,44.000000,0.000000,0.000000:
0000
0000
0000
0000
,
0000
0000
0000
0000
,
0000
0000
0000
0000
,
0000
0000
0000
0000
,
0000
0000
0000
0000
,
1000
0000
0010
0000
1000
0001
0100
0000
,
0010
0000
0100
0000
0010
1000
0001
0000
,
0100
0000
0001
0000
0100
0001
0010
0000
,
1000
0010
2002
0000
,
0000
0000
0000
3003
,
0001
1000
0010
0000
1000
0000
1001
0000
,
1000
0010
0100
0000
0001
0000
1001
0000
,
0010
0100
0001
0000
1000
0000
1010
0000
,
0010
1000
0001
0000
0010
0000
0110
0000
,
0001
1000
0010
0000
0001
0000
1001
0000
,
0010
1000
0001
0000
1000
0000
1001
0000
,
0010
0100
0001
0000
0100
0000
0101
0000
,
1000
0010
0100
0001
0100
0000
0000
0000
,
0001
0100
0010
0000
1001
0000
0100
0000
,
0010
1000
0001
0000
1001
0000
0010
1000
,
0100
0000
0010
0100
0001
0000
0100
0000
,
0001
0100
0010
1000
0001
0000
1001
0000
,
0010
1000
0001
0000
1001
0000
0100
0010
,
1000
0000
0011
0000
0001
0100
1000
0000
,
0010
1000
0100
0010
0001
0100
1000
0000
,
0020
0000
0000
0000
,
0130
0001
1000
0000
0010
0000
1001
0000
,
0100
0001
1000
0000
0010
0000
1001
0000
,
1000
0010
0100
0000
0001
0000
0100
0000
,
0020
0000
2030
0000
,
3001
0100
0010
0000
1000
0000
1001
0000
,
0010
0100
1000
0000
0001
0000
0101
0000
,
0001
0100
1000
0000
0010
1000
0001
0000
,
0020
0000
0100
0130
,
0002
0100
0010
0100
,
0203
0010
1000
0010
,
0320
0100
0001
0100
,
2030
0010
0100
0010
,
3010
0100
0001
0000
1000
0000
1001
0000
,
1000
0010
0100
0000
0001
0000
1001
0000
,
0020
0000
0230
0000
,
0301
0100
0010
0000
1000
0010
0100
0000
,
2002
0000
3003
0000
0001
1000
0010
0100
,
0001
0000
1001
0000
0010
1000
0100
0000
,
0010
0100
0001
0000
0100
0000
0010
1000
,
0001
0000
1001
0000
0010
1000
0100
0000
,
0101
0000
1000
0100
0100
0010
1000
0000
,
0001
0000
1001
0000
0010
0100
0001
0000
,
0001
0100
1000
0000
0010
1000
0001
0100
,
0010
0000
0110
0000
0100
0010
1000
0001
,
1000
0000
1001
0000
0010
0000
1000
0010
,
0100
0000
0010
0100
0002
0000
0100
0000
,
2000
0000
0000
3003
0010
1000
0001
0000
,
1000
0000
1001
0000
0100
0010
1000
0000
,
0001
0000
1001
0000
0010
1000
0010
0000
,
0001
0010
0100
0000
0010
1000
0001
0000
,
0220
0000
0330
0000
0001
0100
1000
0000
,
0010
1001
0100
0010
,
0220
0000
0330
0000
0001
0100
1000
0000
,
0010
0000
1001
0000
1000
0010
0001
0000
,
0001
0100
1000
0000
0010
1000
0001
0100
,
0010
0000
0110
0000
0100
0010
1000
0001
,
1000
0000
1001
0000
0010
0000
1000
0010
,
0100
0000
0101
0000
0100
0010
1000
0000
,
0001
0100
0010
0000
1000
0010
0100
0001
,
1000
0000
1001
0000
0001
0100
0010
1000
,
0001
1001
1000
0010
,
1000
0001
0100
0000
0010
0000
0100
0000
,
0010
0100
0001
0000
1000
0000
0010
0000
,
1000
0001
0100
0000
0010
0000
1000
0000
,
0001
0100
0010
0000
0002
0000
0103
0000
,
0010
1000
0001
0000
0200
0000
1300
0000
,
0010
1000
0001
0000
0200
0000
0320
0000
,
1030
0001
0100
0000
0020
0000
0230
0000
,
0301
1000
0010
0000
0200
0000
0000
0000
,
0320
0000
2030
0000
,
3002
0203
0320
0000
,
2030
0000
3020
0000
,
0230
0000
0302
0000
,
0203
0000
0320
0000
,
2030
3002
0203
0000
,
0320
0000
2030
0000
,
0002
0000
0000
0000
,
3003
0000
0000
0000
;

//---------------dance-single - ----------------
#NOTES:
     dance-single:
     :
     Easy:
     6:
     0.293468,0.352548,0.123565,0.401588,0.000000,266.000000,250.000000,16.000000,52.000000,0.000000,0.000000,0.293468,0.352548,0.123565,0.401588,0.000000,266.000000,250.000000,16.000000,52.000000,0.000000,0.000000:
0000
0000
0000
0000
,
0000
0000
0000
0000
,
0000
0000
0000
0000
,
0000
0000
0000
0000
,
0000
0000
0000
0000
,
0010
1000
0100
1000
,
0010
0001
1001
0000
,
0001
0100
0001
0010
,
0001
0100
2002
0000
,
0000
0000
0000
3003
,
0001
1000
0010
0100
,
0001
0100
0010
1000
,
0001
1000
0010
0100
,
0001
0100
0010
1000
,
1000
0001
0100
0010
,
1000
0010
0100
0001
,
1000
0001
0100
0010
,
2000
0000
0002
3003
,
0001
0100
1001
0000
,
1000
0100
1001
0000
,
0010
1000
0001
0100
,
0010
0010
0110
0000
,
0001
0010
1001
0000
,
1000
0010
1001
0000
,
1000
0010
0100
0001
,
1000
1000
1001
0000
,
0100
1000
0100
0001
,
0100
1000
0100
0001
,
0010
0010
0100
0100
,
0002
0000
2000
3003
,
0001
0010
1000
0010
,
0001
0010
1000
0010
,
0001
0001
0100
0100
,
0220
0000
0330
0000
,
2000
0000
3200
0000
,
0320
0000
0032
0000
,
0203
0000
0320
0000
,
2030
0000
3002
0000
,
0103
1000
0100
1000
,
0100
0001
0100
0001
,
0020
0000
0230
0000
,
0301
1000
0010
0100
,
0220
0330
0001
1000
,
0010
0100
0001
0001
,
1000
0010
1000
0010
,
0100
0001
0200
0000
,
0320
0000
1030
0001
,
0100
0010
1000
0001
,
1000
0100
0010
0010
,
1000
0001
0020
0000
,
0230
0000
0301
1000
,
0010
1000
0001
0001
,
2002
3003
0100
0100
,
1000
0000
0100
0100
,
0001
0000
0010
1000
,
0001
0100
0010
0010
,
2002
3003
0010
1000
,
0001
0010
2000
0000
,
3002
0000
0103
0010
,
1000
0001
0100
0100
,
0010
1000
0001
0100
,
1000
0010
0001
0001
,
2002
3003
0010
1000
,
0010
0100
0001
0001
,
1000
1000
0010
1000
,
0010
0001
0100
0100
,
0220
0330
0001
0100
,
1000
0100
0010
1000
,
0001
1001
0010
1000
,
0010
0001
0100
0010
,
1000
1001
0010
1000
,
0100
0010
0001
0010
,
0100
0010
0100
0001
,
1000
0010
0200
0000
,
0320
0000
2030
0000
,
3002
0000
0203
0000
,
2300
0000
3020
0000
,
0032
0000
0203
0000
,
2300
0000
3020
0000
,
0230
0000
0302
0000
,
2003
0000
3200
0000
,
0320
0000
0032
0000
,
2000
0000
0000
0000
,
3003
0000
0000
0000
;

//---------------dance-single - ----------------
#NOTES:
     dance-single:
     :
     Beginner:
     2:
     0.110326,0.172606,0.015446,0.015446,0.000000,100.000000,98.000000,2.000000,2.000000,0.000000,0.000000,0.110326,0.172606,0.015446,0.015446,0.000000,100.000000,98.000000,2.000000,2.000000,0.000000,0.000000:
0000
0000
0000
0000
,
0000
0000
0000
0000
,
0000
0000
0000
0000
,
0000
0000
0000
0000
,
0000
0000
0000
0000
,
1000
0000
0100
0000
,
0010
0000
0001
0000
,
1000
0000
0100
0000
,
0010
0000
0001
0000
,
2002
0000
0000
3003
,
1000
0000
0000
0000
,
0100
0000
0000
0000
,
1000
0000
0000
0000
,
0100
0000
0000
0000
,
0010
0000
0000
0000
,
0001
0000
0000
0000
,
0010
0000
0000
0000
,
0001
0000
0000
0000
,
0100
0000
0100
0000
,
0010
0000
0000
0000
,
1000
0000
1000
0000
,
0001
0000
0000
0000
,
0010
0000
0010
0000
,
0100
0000
0000
0000
,
0001
0000
0001
0000
,
1000
0000
0000
0000
,
0100
0000
1000
0000
,
0100
0000
0000
0000
,
0010
0000
0001
0000
,
0010
0000
0000
0000
,
0100
0000
0001
0000
,
0100
0000
0000
0000
,
0010
0000
1000
0000
,
0010
0000
0000
0000
,
1000
0000
0100
0000
,
1000
0000
0000
0000
,
0001
0000
0100
0000
,
0001
0000
0000
0000
,
1000
0000
0010
0000
,
1000
0000
0000
0000
,
0001
0000
0010
0000
,
0001
0000
0000
0000
,
0000
0000
1000
0000
,
0100
0000
1000
0000
,
0010
0000
1000
0000
,
0100
0000
0010
0000
,
0000
0000
0001
0000
,
0100
0000
0001
0000
,
0010
0000
0001
0000
,
0010
0000
0100
0000
,
0000
0000
1000
0000
,
0000
0000
0100
0000
,
0000
0000
1000
0000
,
0000
0000
0010
0000
,
0000
0000
0001
0000
,
0000
0000
0100
0000
,
0000
0000
0001
0000
,
0000
0000
0010
0000
,
0000
0000
1000
0000
,
0100
0000
1000
0000
,
0010
0000
1000
0000
,
0100
0000
0010
0000
,
0000
0000
0001
0000
,
0100
0000
0001
0000
,
0010
0000
0001
0000
,
0100
0000
0010
0000
,
0000
0000
1000
0000
,
0000
0000
0100
0000
,
0000
0000
1000
0000
,
0000
0000
0100
0000
,
0000
0000
0001
0000
,
0000
0000
0010
0000
,
0000
0000
0001
0000
,
0000
0000
0010
0000
,
0000
0000
1001
0000
;

//---------------dance-single - ----------------
#NOTES:
     dance-single:
     :
     Hard:
     13:
     0.588039,0.608946,0.316637,0.216240,0.127427,533.000000,492.000000,41.000000,28.000000,0.000000,0.000000,0.588039,0.608946,0.316637,0.216240,0.127427,533.000000,492.000000,41.000000,28.000000,0.000000,0.000000:
// measure 0
0000
0000
0000
0000
,  // measure 1
0000
0000
0000
0000
,  // measure 2
0000
0000
0000
0000
,  // measure 3
0000
0000
0000
0000
,  // measure 4
0000
0000
0000
0000
,  // measure 5
1000
0000
0010
0000
0100
0000
0001
0000
1000
0000
0010
0100
0010
0000
0001
0000
,  // measure 6
1000
1001
1100
0000
,  // measure 7
0010
0000
1000
0000
0001
0000
0010
0000
0100
0000
0001
1000
0001
0000
0100
0000
,  // measure 8
0010
1000
0001
0000
2002
0000
0000
0000
,  // measure 9
0000
0000
0000
3003
,  // measure 10
0001
0100
0010
0000
1000
0000
1001
0000
,  // measure 11
1000
0010
0100
0000
0001
0000
1001
0000
,  // measure 12
0001
0100
1000
0000
1000
0010
0001
0000
,  // measure 13
1000
0010
0100
0001
1000
0000
1001
0000
,  // measure 14
0010
1000
0001
0000
1000
0000
1010
0000
,  // measure 15
1000
0001
0100
0000
0001
0000
0011
0000
,  // measure 16
0100
0001
1000
0000
0010
0100
0001
0000
,  // measure 17
0100
0000
0010
0000
1000
0000
0001
0000
0100
0000
0010
0000
0100
0010
0100
0000
,  // measure 18
0001
0010
0100
1000
1100
0000
1000
0010
,  // measure 19
0100
0001
0011
0000
0001
0100
0010
1000
,  // measure 20
0100
0010
0100
0001
0010
0100
1000
0010
,  // measure 21
1000
0001
0100
0010
0110
0000
1001
0000
,  // measure 22
0010
1000
0001
0100
1001
0000
0001
0100
,  // measure 23
0010
1000
1001
0000
0010
1000
0100
0010
,  // measure 24
0001
0100
0010
0100
1000
0010
0100
0001
,  // measure 25
0020
0100
0100
0130
,  // measure 26
0001
0000
0100
0000
0010
0000
1000
0000
0010
0000
0100
0010
0000
0000
0001
0000
,  // measure 27
1000
0000
0010
0000
0100
0000
0010
0000
1000
0000
0001
1000
0000
0000
0010
0000
,  // measure 28
1000
0000
0100
0000
0001
0000
0010
0000
0100
0000
0010
0100
0000
0000
0001
0000
,  // measure 29
0010
0000
0000
1000
0000
0000
0100
0000
0010
0000
0000
0001
0000
0000
0010
0000
,  // measure 30
0100
0000
0010
0000
1000
0000
0001
0000
0010
0000
1000
0010
0000
0000
0001
0000
,  // measure 31
0010
0000
1000
0000
0100
0000
0010
0000
0001
0000
0010
0100
0000
0000
0001
0000
,  // measure 32
0010
0000
0000
1000
0000
0000
1100
0000
0100
0000
0000
0010
0000
0000
0001
0000
,  // measure 33
0011
0000
0000
0001
0100
1000
0010
0100
,  // measure 34
0002
0100
0010
0100
,  // measure 35
0203
0010
1000
0010
,  // measure 36
0320
0001
0100
0001
,  // measure 37
2030
0000
0000
0000
0010
0000
0000
0000
0100
0000
0000
0000
0010
0000
0000
3000
,  // measure 38
0010
0100
0001
1000
0010
0100
0001
1000
,  // measure 39
0010
1000
0100
0001
0010
0100
1000
0010
,  // measure 40
1000
0100
0010
0001
1000
0100
0010
0001
,  // measure 41
0100
0010
1000
0001
0100
0001
0010
1000
,  // measure 42
1002
0000
0000
0000
1003
0010
0100
0001
,  // measure 43
1000
0010
1010
0000
0010
0001
0011
0000
,  // measure 44
0001
1000
1001
0001
0010
1000
0100
0010
,  // measure 45
0100
0001
0010
0100
1000
0010
0100
0010
,  // measure 46
0110
0001
0100
0000
0001
0010
0100
1000
,  // measure 47
0100
0001
1001
0000
0001
0010
0110
0000
,  // measure 48
0100
0010
1010
1000
0010
0001
0100
0010
,  // measure 49
1000
0100
0010
0100
1000
0010
0001
0100
,  // measure 50
0101
0000
1100
0000
1000
0100
0001
0100
,  // measure 51
0010
0000
0100
0010
0100
0000
0001
0000
0010
0000
0000
0000
0011
0000
0000
0000
,  // measure 52
2010
0000
3010
0000
1000
0001
0010
0100
,  // measure 53
1000
0000
0010
1000
0000
0000
0010
0000
1000
0000
0001
0000
0100
0000
0010
0000
,  // measure 54
1000
0000
0001
0010
0000
0000
0000
0000
0010
0000
0100
0000
1000
0000
0010
0000
,  // measure 55
0100
0000
0001
1000
0001
0000
0010
0000
0100
0000
0000
0000
1100
0000
0000
0000
,  // measure 56
0102
0000
0103
0000
0010
1000
0010
0100
,  // measure 57
0001
0000
1000
0010
0000
0000
0010
0000
1000
0000
0001
0000
0100
0000
0010
0000
,  // measure 58
1001
0000
1001
0000
0010
1000
0010
0100
,  // measure 59
0001
0010
0011
0000
0010
0100
0110
0000
,  // measure 60
0100
1000
1100
1000
0010
0100
0001
0010
,  // measure 61
0100
1000
0010
1000
0001
0100
0010
1000
,  // measure 62
1001
0001
1000
0000
0010
1000
0001
0100
,  // measure 63
0010
0100
0110
0000
0001
1000
1001
0000
,  // measure 64
0001
0010
0011
0001
0100
0001
0010
1000
,  // measure 65
0100
0010
0100
0001
0010
0100
1000
0010
,  // measure 66
0110
0000
0110
0000
0001
0010
0100
1000
,  // measure 67
0010
0000
1000
0010
0000
1000
0010
0000
0001
0000
0010
0000
1000
0000
0100
0000
,  // measure 68
0010
0000
0001
0100
0000
0001
0100
0000
0001
0000
0010
0000
0100
0000
1000
0000
,  // measure 69
0010
0000
0100
0001
0000
1000
0001
0000
0100
0000
0010
0000
1000
0000
0001
0000
,  // measure 70
0100
0000
0010
0100
0000
0010
1000
0000
0001
0000
0010
0000
0100
0000
1000
0000
,  // measure 71
0010
0000
0001
0010
0000
0010
0100
0000
1000
0000
0010
0000
0100
0000
0001
0000
,  // measure 72
0010
0000
1000
0010
0000
0010
0100
0000
0001
0000
0010
0000
0100
0000
1000
0000
,  // measure 73
0010
0000
1000
0100
0000
0010
0001
0000
0001
0000
0100
0000
0010
0000
1000
0000
,  // measure 74
0001
0000
0100
0001
0000
0001
1000
0000
0020
0000
0000
0000
0000
0000
0000
0000
,  // measure 75
0230
0000
0302
0000
,  // measure 76
2003
3020
0230
0000
,  // measure 77
0302
0000
2003
0000
,  // measure 78
3020
0000
0032
0000
,  // measure 79
0203
0000
0320
0000
,  // measure 80
2030
3002
0203
0000
,  // measure 81
0320
0000
2030
0000
,  // measure 82
0002
0000
0000
0000
,  // measure 83
3003
0000
0000
0000
;
