#TITLE:НУМЛ;
#SUBTITLE:;
#ARTIST:Zutt;
#TITLETRANSLIT:HYMN;
#SUBTITLETRANSLIT:;
#ARTISTTRANSLIT:;
#GENRE:pop'n music;
#CREDIT:;
#BANNER:;
#BACKGROUND:;
#LYRICSPATH:;
#CDTITLE:;
#MUSIC:HYMN.ogg;
#OFFSET:-0.840000;
#SAMPLESTART:12.820039;
#SAMPLELENGTH:15.000000;
#SELECTABLE:YES;
#BPMS:0.000000=200.000000
,191.500000=158.000000
,243.000000=200.000000
,368.000000=197.139999
,368.500000=196.139999
,369.000000=193.960007
,369.500000=192.100006
,370.000000=189.919998
,370.500000=190.539993
,371.000000=192.179993
,371.500000=190.399994
,372.000000=188.380005
,372.500000=187.179993
,373.000000=191.119995
,387.000000=190.000000
,391.000000=188.998993
;
#STOPS:191.500000=0.715000,
211.750000=0.200000,
242.500000=0.900000
;
#BGCHANGES:;
#KEYSOUNDS:;
#ATTACKS:;

//---------------dance-single - ----------------
#NOTES:
     dance-single:
     :
     Easy:
     9:
     0.431333,0.622165,0.259235,0.274484,0.083870,326.000000,34.000000,36.000000,0.000000,0.000000,0.000000,0.431333,0.622165,0.259235,0.274484,0.083870,326.000000,34.000000,36.000000,0.000000,0.000000,0.000000:
0000
0000
0000
0000
,
0000
0000
0000
0000
,
0000
0000
0000
0000
,
0000
0000
0000
0000
,
0000
0000
0000
0000
,
0000
0000
0000
0000
,
0002
0000
0203
0000
,
2300
0000
3020
0000
,
0032
0000
0000
0000
0000
0203
0000
0000
0000
0000
0000
2300
0000
0000
0000
0000
,
0000
3020
0000
0000
0000
0000
0000
0000
,
1030
0010
0100
0001
,
0010
1000
0100
0001
,
0010
1000
1001
0000
,
0001
0100
1000
0000
0010
0000
1000
0000
,
0001
1000
0100
0010
,
0001
1000
0010
1000
,
0001
1000
1001
0000
,
1000
0010
0001
0000
1000
0000
0010
0000
,
0001
0100
0010
1000
,
0100
0001
0010
1000
,
0100
0001
1001
0000
,
1000
0010
0001
0000
0100
0000
0001
0000
,
1000
0001
0010
0100
,
1000
0001
0100
0001
,
1000
0001
1001
0000
,
0001
0100
1000
0000
0001
0000
0100
0000
,
0001
1000
0100
0010
,
0100
1000
0010
0100
,
0001
0100
0010
1000
,
0100
0001
1100
0000
,
1000
0001
0010
0100
,
0010
0001
0100
0010
,
1000
0010
0100
0001
,
0010
1000
0011
0000
,
0001
0001
0001
0001
,
0200
0000
0300
0000
,
0010
0000
1010
0000
,
0001
0000
0101
0000
,
0001
0000
1001
0000
,
1100
0000
0001
0000
,
0101
0000
0001
0000
,
1010
0000
0010
0000
,
0011
0000
0101
0000
,
1100
0000
0010
0000
,
1010
0000
0011
0000
,
1001
0000
0110
0000
,
1001
0000
0001
0100
,
1000
0100
0001
0020
,
1030
0100
0010
1000
,
0001
0010
0100
0001
,
1001
0010
1000
0100
,
0010
1000
0100
1100
,
0020
0000
0000
0000
0000
0000
0130
0000
0000
0001
0000
0000
2000
0000
0000
0000
,
3020
0000
0000
0000
0000
0000
0130
0000
0000
0001
0000
0000
2000
0000
0000
0000
,
0000
0000
0000
0000
3001
0000
0000
1000
0000
0000
0001
0000
0000
0100
0000
0000
,
0010
0000
0000
1000
0000
0000
0100
0000
0000
0010
0000
0000
0100
0000
0000
0001
,
0000
0000
0001
0000
0000
0010
0000
0000
0100
0000
0000
1000
0000
0000
0010
0000
,
0000
1000
0000
0000
0100
0000
0000
0001
0000
0010
0000
0000
0100
0000
0000
1000
,
0000
0000
0001
0000
0000
0100
0000
0000
1000
0000
0000
0010
0000
0000
1000
0000
,
0000
1001
0000
0000
0000
0000
0000
0000
0000
0000
0000
0000
0000
0000
1000
0000
,
0000
0100
0000
0000
0001
0000
0000
0010
0000
0000
0110
0000
1001
0000
0000
0000
,
0000
0000
0000
1000
,
0000
0000
0000
0001
,
0000
0000
0000
1000
,
0000
0000
0000
0000
0000
0000
0100
1000
,
0000
0010
0000
0001
0000
0000
0100
0001
,
0000
0100
0000
1000
0000
0000
0010
1000
,
0000
0100
0000
0001
0000
0000
0010
0001
,
0000
0100
0000
1000
0000
0000
0001
0010
,
0000
0100
0000
1000
0000
0000
0001
0100
,
0000
0010
0000
1000
0000
0000
0001
0010
,
0000
1000
0000
0100
0000
0001
0020
0000
,
0130
0000
0200
0000
0310
0000
0010
0001
,
0000
0100
0000
1000
0000
0000
0010
1000
,
0000
0010
0000
0001
0000
0000
0100
0001
,
0000
0010
0000
1000
0000
0000
0100
1000
,
0000
0010
0000
0001
0000
0000
1000
0100
,
0000
0010
0000
0001
0000
0000
1000
0010
,
0000
0100
0000
0001
0000
0000
1000
0100
,
0000
0001
0000
0010
0000
1000
0010
0000
,
0010
0110
0000
1100
,
0100
0010
0100
0010
,
0001
0010
0000
0001
,
0100
0010
1000
0100
,
1000
1100
0000
1010
,
0001
0100
0010
0001
,
0010
0011
0001
0100
,
1000
0010
0100
0100
,
1000
1100
0010
0100
,
0000
0000
0000
2000
,
3020
0032
0203
2300
,
3020
0032
0023
2030
,
3200
0320
0032
0023
,
0230
2300
3002
0103
,
0001
0010
0000
0010
,
0100
0001
0010
0100
,
0000
1001
0000
0220
,
0000
0000
0330
1000
,
0010
0100
0000
0001
,
0010
0000
0000
1000
0000
0100
0000
0010
0000
0001
0000
0000
,
0000
2002
0000
0000
,
0000
0000
0000
0000
,
3003
0000
0000
0000
;

//---------------dance-single - ----------------
#NOTES:
     dance-single:
     :
     Beginner:
     6:
     0.206953,0.272197,0.060997,0.121993,0.003812,166.000000,8.000000,16.000000,0.000000,0.000000,0.000000,0.206953,0.272197,0.060997,0.121993,0.003812,166.000000,8.000000,16.000000,0.000000,0.000000,0.000000:
// measure 0
0000
0000
0000
0000
,  // measure 1
0000
0000
0000
0000
,  // measure 2
0000
0000
0000
0000
,  // measure 3
0000
0000
0000
0000
,  // measure 4
0000
0000
0000
0000
,  // measure 5
0000
0000
0000
0000
,  // measure 6
2000
0000
0000
0000
,  // measure 7
0000
0000
0000
0000
,  // measure 8
0000
0000
0000
0000
,  // measure 9
0000
0000
0000
0000
,  // measure 10
3001
0000
0001
0000
,  // measure 11
0010
0000
0010
0000
,  // measure 12
1000
0100
0001
0000
,  // measure 13
1000
0100
1000
0000
,  // measure 14
0001
0000
0010
0000
,  // measure 15
1000
0000
0001
0000
,  // measure 16
0001
0010
0001
0000
,  // measure 17
0001
0010
0001
0000
,  // measure 18
1000
0000
0010
0000
,  // measure 19
0100
0000
0001
0000
,  // measure 20
1000
1000
0010
0000
,  // measure 21
0001
0000
1001
0000
,  // measure 22
0010
0000
1000
0000
,  // measure 23
0010
0000
0100
0000
,  // measure 24
0001
0001
0010
0000
,  // measure 25
1000
0000
1001
0000
,  // measure 26
1000
0000
0100
0000
,  // measure 27
0010
0000
0001
0000
,  // measure 28
0100
0000
0010
0000
,  // measure 29
1000
0000
0010
0000
,  // measure 30
0100
0000
0001
0000
,  // measure 31
0010
0000
0100
0000
,  // measure 32
1000
0000
0100
0000
,  // measure 33
0010
0000
0001
0000
,  // measure 34
1000
0000
0100
0000
,  // measure 35
1000
0000
0100
0100
,  // measure 36
0020
0000
0000
0000
,  // measure 37
0130
0000
2001
0000
,  // measure 38
0000
0000
3001
0000
,  // measure 39
0120
0000
0000
0000
,  // measure 40
0130
0000
2001
0000
,  // measure 41
0000
0000
3001
0000
,  // measure 42
0010
0000
1000
0000
,  // measure 43
0010
0000
0001
0000
,  // measure 44
0010
0000
0001
0000
,  // measure 45
0100
0000
1000
0000
,  // measure 46
0100
0000
0001
0000
,  // measure 47
0100
0000
0001
0000
,  // measure 48
1000
0000
0000
0000
,  // measure 49
0100
0000
0010
0000
,  // measure 50
0001
0000
0000
0000
,  // measure 51
0001
0000
0010
0000
,  // measure 52
2000
0000
0000
0000
,  // measure 53
3002
0000
0000
0000
,  // measure 54
0000
0203
0000
0000
,  // measure 55
0000
0000
0000
0320
0000
0000
0000
0000
,  // measure 56
0000
0000
0032
0000
,  // measure 57
0000
0000
0000
0000
0000
0000
0000
0000
0000
0003
0000
0000
0020
0000
0000
0000
,  // measure 58
0000
0000
0000
0030
,  // measure 59
0000
0000
0000
0000
0000
0000
0000
1000
,  // measure 60
0000
0001
0000
0000
2000
0000
0000
0000
0000
0000
0000
0000
3001
0000
0000
0000
,  // measure 61
0000
0000
0000
1000
,  // measure 62
0000
0000
0000
0001
,  // measure 63
0000
0000
0000
1000
,  // measure 64
0000
0000
0000
0100
,  // measure 65
0000
0100
0000
0000
0000
0000
0010
0000
,  // measure 66
0000
0010
0000
0000
0000
0000
0001
0000
,  // measure 67
0000
0001
0000
0000
0000
0000
1000
0000
,  // measure 68
0000
1000
0000
0000
0000
0000
1000
0000
,  // measure 69
0000
0100
0000
0000
0000
0000
0001
0000
,  // measure 70
0000
0010
0000
0000
0000
0000
1000
0000
,  // measure 71
0000
0010
0000
0000
0000
0000
0001
0000
,  // measure 72
0000
0010
0000
0100
,  // measure 73
0000
1000
0000
0000
0000
0000
0100
0000
,  // measure 74
0000
0001
0000
0000
0000
0000
1000
0000
,  // measure 75
0000
0010
0000
0000
0000
0000
0001
0000
,  // measure 76
0000
0010
0000
0000
0000
0000
1000
0000
,  // measure 77
0000
0100
0000
0000
0000
0000
0010
0000
,  // measure 78
0000
0001
0000
0000
0000
0000
0100
0000
,  // measure 79
0000
0010
0000
1001
,  // measure 80
0000
0110
0000
0001
,  // measure 81
0100
0010
1000
0100
,  // measure 82
0000
0100
0000
0001
,  // measure 83
0100
0010
1000
0100
,  // measure 84
0000
0100
0000
1000
,  // measure 85
0010
0100
0001
0100
,  // measure 86
0000
0100
0000
1000
,  // measure 87
0010
0100
0001
0100
,  // measure 88
0000
0100
0000
2002
,  // measure 89
0000
0000
0000
0000
,  // measure 90
0000
0000
0000
0000
,  // measure 91
0000
0000
0000
0000
,  // measure 92
0000
0000
0000
0000
,  // measure 93
3003
0000
0000
0010
,  // measure 94
0000
0000
0000
0100
,  // measure 95
0000
0000
0000
0010
,  // measure 96
0100
0020
0000
0000
,  // measure 97
0000
0030
0000
1000
,  // measure 98
0000
0000
0000
0001
,  // measure 99
0000
0000
0000
1000
,  // measure 100
0001
2000
0000
0000
,  // measure 101
0000
0000
0000
0000
,  // measure 102
3000
0000
0000
0000
;

//---------------dance-single - ----------------
#NOTES:
     dance-single:
     :
     Medium:
     13:
     0.599073,0.699935,0.304983,0.129618,0.217300,493.000000,40.000000,17.000000,0.000000,0.000000,0.000000,0.599073,0.699935,0.304983,0.129618,0.217300,493.000000,40.000000,17.000000,0.000000,0.000000,0.000000:
0000
0000
0000
0000
,
0000
0000
0000
0000
,
0000
0000
0000
0000
,
0000
0000
0000
0000
,
0000
0000
0000
0000
,
0000
0000
0000
0000
,
1000
0000
0000
0000
0100
0000
0000
0000
0010
0000
0000
0000
,
1000
0000
0000
0000
0001
0000
0000
0000
0010
0000
0000
0000
,
0100
0000
0000
0000
0001
0000
0000
0000
0010
0000
0000
0000
,
1000
0000
0000
0000
0010
0000
0000
0000
1001
0000
0000
0000
,
0010
1000
0010
1000
,
1000
0100
0010
0001
0100
0001
0010
0100
,
1000
0100
0001
0010
,
0001
0010
0100
1000
0000
1000
0100
0010
,
0001
1000
0010
0100
,
0001
0010
0100
1000
0010
1000
0100
0010
,
0001
0100
0010
1000
,
1000
0100
0010
0001
0000
0001
0010
0100
,
1000
0001
0100
0001
,
0011
0000
0000
0110
0000
0000
0010
0000
1000
0000
0100
0000
,
0001
0010
1000
0100
,
1000
0100
0010
0001
0000
0001
0010
0100
,
0001
1000
0010
1000
,
1100
0000
0000
0110
0000
0000
0100
0000
0001
0000
0010
0000
,
1000
0100
0001
0010
,
0001
0101
1000
1100
,
0001
0010
0100
1000
0100
0010
0001
0010
,
0100
0101
0001
0101
,
1000
0100
0010
0001
0010
0100
1000
0100
,
0010
1010
1000
1010
,
0100
0001
1000
0010
1000
0001
0100
0001
,
1000
1100
0100
1100
,
0010
1000
0001
0100
0001
1000
0010
1000
,
0001
0010
0100
1000
0001
0010
0100
1000
,
0001
0010
0100
1000
0001
0010
0100
1000
,
0001
0100
0010
1000
0002
0000
0003
0000
,
1000
0010
0000
0010
0001
0000
1000
0100
,
0010
0001
0010
0000
0001
0100
0000
0100
,
1000
0000
0001
0010
0100
1000
0100
0000
,
0010
0001
0000
0001
0100
0000
0010
1000
,
0001
0100
0001
0000
0100
1000
0000
1000
,
0010
0000
0100
0001
1000
0010
1000
0000
,
0001
0100
0000
0100
1000
0000
0001
0010
,
0100
1000
0100
0000
1000
0010
0000
0010
,
0001
0000
1000
0100
0010
0001
0010
0000
,
0100
1000
0000
1000
0010
0000
0100
0001
,
1000
0010
1000
0000
0010
0001
0000
0001
,
0100
0000
0010
1000
0001
0100
0001
0010
,
1000
0100
0010
0001
0100
0001
0010
0100
,
1000
0001
0100
0010
,
0001
0010
0100
1000
0010
1000
0100
0010
,
0001
1000
0010
0100
,
0010
1000
0000
1000
0000
0000
0100
0001
0000
0001
0000
0000
1000
0100
1000
0000
,
0001
1000
0000
1000
0000
0000
0001
0010
0001
0000
1000
0000
0010
0000
1000
0000
,
0100
0000
0000
0000
0010
0001
0000
0001
0000
0000
1000
0000
0100
0000
0010
0000
,
0001
0000
0010
0000
0100
0000
1000
0100
0000
0100
0000
0000
0001
0000
0100
0000
,
0001
0000
1000
0100
1000
0100
0000
0000
0010
0100
0000
0100
0000
0000
0010
0000
,
0001
0000
0010
0000
0100
1000
0100
1000
0000
0000
0000
0000
0010
0001
0000
0001
,
0000
0000
0001
0000
0010
0000
0001
0000
0100
0000
1000
0100
1000
0100
1000
0000
,
0000
0220
0000
0000
0000
0000
0000
0000
0000
0330
0000
0000
0000
0000
1001
0000
,
0000
1001
0000
0000
1001
0000
0000
1001
0000
0000
1001
0000
2000
0000
0000
0000
,
0000
0000
0000
3200
,
0000
0000
0000
0320
,
0000
0000
0000
0032
,
0000
0000
0000
0000
0000
0000
1003
0100
,
0000
0010
0000
0001
0000
0000
0001
0010
,
0000
0100
0000
1000
0000
0000
0010
1000
,
0000
0001
0000
0100
0000
0000
0100
0001
,
0000
1000
0000
0010
0000
0000
0101
0000
,
0000
1000
0000
1100
0000
0000
1100
0000
,
0000
0001
0000
0101
0000
0000
0001
0100
,
0000
1000
0000
0010
0000
0100
0020
0000
,
0230
0000
0302
0000
2003
0000
3100
0010
,
0000
1000
0000
0100
0010
0000
0010
0100
,
0000
0001
0000
0100
0010
0000
1000
0100
,
0000
0001
0000
0010
1000
0000
0001
0010
,
0000
1000
0000
0100
0001
0000
0001
0010
,
0000
0101
0000
1100
0000
0000
1000
0100
,
0000
1010
0000
0011
0000
0000
0001
0100
,
0010
0000
1000
0100
0010
0000
0001
0100
,
0010
1000
0100
0000
1100
0000
1001
0000
,
0001
0000
0000
0100
0010
0100
0010
0000
0000
0001
0000
0000
,
1000
0000
0000
0001
1000
0001
1000
0000
0000
0001
0000
0000
,
1000
0000
0000
0001
0010
0001
0010
0000
0000
0001
0000
0000
,
1000
0000
0000
1000
0100
1000
0100
0000
0000
1000
0100
0010
,
0100
0000
0000
0100
0000
0000
1001
0000
0000
0001
0010
0100
,
0010
0000
0000
0100
0000
0000
1001
0000
0000
1000
0100
0010
,
0001
0000
0000
0001
0000
0000
0101
0000
0000
0001
0010
0100
,
1000
1000
1001
2200
,
0000
0000
0000
0000
3300
0000
1000
0010
,
0001
0000
0001
0010
0100
0000
1000
0100
,
0010
0000
0001
0100
0010
0000
1000
0100
,
0010
0000
0001
0010
0100
0000
0010
1000
,
0100
0000
0001
0010
0100
0000
0001
0000
,
0100
1100
0000
1000
,
0010
0000
0000
0100
0000
1000
0000
0001
0000
1001
0000
0000
,
0100
0220
0000
0000
,
0000
0000
0330
0001
,
0010
1010
0000
0001
,
1000
0000
0000
0010
0000
0001
0000
1000
0000
1001
0000
0000
,
0100
0220
0000
0000
,
0000
0000
0000
0000
,
0330
0000
0000
0000
;

//---------------dance-single - ----------------
#NOTES:
     dance-single:
     :
     Hard:
     16:
     0.820186,1.000000,0.594716,0.091495,0.556593,663.000000,78.000000,12.000000,0.000000,0.000000,0.000000,0.820186,1.000000,0.594716,0.091495,0.556593,663.000000,78.000000,12.000000,0.000000,0.000000,0.000000:
0000
0000
0000
0000
,
0000
0000
0000
0000
,
0000
0000
0000
0000
,
0000
0000
0000
0000
,
0000
0000
0000
0000
,
0000
0000
0000
0000
,
1100
0000
0100
0000
0010
0000
0001
0000
0100
0000
1000
0000
,
0100
0000
0001
0000
0110
0000
0100
0000
1000
0000
0001
0000
,
1000
0000
0010
0000
1000
0000
0100
0000
0011
0000
0001
0000
,
0100
0000
0000
0000
0000
0000
0000
0000
0010
0000
0000
0000
0000
0000
0000
0000
1000
0000
0000
0000
0000
0000
0000
0000
0010
0000
0000
0100
0000
0000
0010
0000
0000
1000
0000
0000
0100
0000
0000
0010
0000
0000
0001
0000
0000
0100
0000
0000
,
0010
0001
0100
1000
0010
0100
1000
0010
,
0100
0001
0101
0100
,
1100
0000
1000
0010
0100
0000
0001
0000
,
0001
0010
0100
1000
0000
1000
0100
0010
,
0100
1000
0010
0001
0100
0010
0001
0100
,
0010
1000
1010
0010
,
0011
0000
0001
0100
0010
0000
1000
0000
,
1000
0100
0010
0001
0000
0001
0010
0100
,
1000
0010
1000
0100
0001
0010
0100
1000
,
0010
0000
0000
1000
0000
0000
0001
0000
0000
0100
0000
0000
0001
0000
0000
0000
0100
0000
0000
0000
1000
0000
0000
0000
,
0010
0100
0001
0010
0100
1000
0010
0000
,
1001
0010
1000
0100
0000
0010
1000
0100
,
0001
0100
0001
0010
1000
0100
0010
0001
,
0100
0000
0000
0001
0000
0000
1000
0000
0000
0010
0000
0000
1000
0000
0000
0000
0010
0000
0000
0000
0001
0000
0000
0000
,
0100
0010
1000
0100
0010
0001
0100
0000
,
1001
0100
0001
0010
0000
0100
0001
0010
,
0011
0100
0010
0100
0001
0010
0100
1000
,
0100
0101
0001
0011
,
1100
0010
0100
0010
1000
0100
0010
0001
,
0010
1010
1000
1100
,
0011
0100
0010
0100
0001
0010
0100
1000
,
0100
0101
0001
0011
,
1100
0010
0100
0010
1000
0100
0010
0001
,
0010
1000
0010
0100
1000
0010
1000
0001
,
0100
0010
0100
1000
0100
0010
0001
0100
,
0010
0100
1000
0000
0100
0010
0001
0000
0202
0000
0000
0000
0303
0000
0000
0000
,
0010
1000
0001
0000
0100
0000
0001
0000
0010
0000
1000
0000
0010
0000
0001
0000
,
0100
0000
0001
0000
0010
0000
0000
0000
1000
0100
0010
0000
1000
0000
0100
0000
,
0001
0100
1000
0010
0001
0100
0001
0000
,
0100
0001
1000
0000
0010
0000
1000
0000
0100
0000
0001
0000
0100
0000
1000
0000
,
0010
0000
1000
0000
0100
0000
0000
0000
0001
0010
0100
0000
0001
0000
0010
0000
,
1000
0010
0001
0100
1000
0010
1000
0000
,
0100
0010
1000
0010
0100
0000
0001
0100
0010
0000
0001
0000
0100
0000
0010
0000
,
1000
0000
0100
0000
0010
0000
0000
0000
0010
0100
0001
0100
0010
0000
1000
0001
,
0100
0010
0100
1000
0001
0010
0100
1000
,
0010
0100
0001
0100
0010
0000
1000
0010
0100
0000
1000
0000
0010
0000
0100
0000
,
0001
0000
0010
0000
0100
0000
0000
0000
0100
0010
1000
0010
0100
0000
0001
1000
,
0010
0100
0010
0001
1000
0100
0010
0001
,
0100
0000
1000
0100
0010
0000
0001
0010
0100
0000
1000
0000
0010
0000
0100
0000
,
0010
0000
0001
0010
0100
0000
1000
0100
0010
0000
0100
0000
0100
0000
0000
0000
,
1000
0000
0100
0010
0001
0000
0100
0010
1000
0000
0100
0000
0010
0000
1000
0000
,
0001
0000
1000
0100
0010
0000
0010
0100
0001
0000
1000
0000
1001
0000
0000
0000
,
1000
0010
1000
0010
0000
0000
0001
1000
0001
0100
1000
0010
0001
0010
1000
0100
,
0001
0100
0001
0100
0000
0001
0010
0001
0100
0010
1000
0010
0001
0100
0010
0100
,
1000
0000
0000
0000
0010
0100
1000
0100
0000
0000
0010
1000
0100
0010
0001
0010
,
0100
0010
1000
0100
0010
0000
0001
0010
0100
1000
0000
0000
1000
0100
0010
0001
,
0010
0001
0010
0100
1000
0001
0000
0000
0100
0010
1000
0100
0000
0000
0100
0010
,
0001
0010
0100
1000
0100
0010
0001
0010
0200
0000
0000
0000
1300
0010
0100
0001
,
0000
0000
0100
1000
0010
0100
0010
0001
0010
0100
1000
0100
0001
0010
0100
0000
,
0000
2200
0000
0000
0000
0000
0000
0000
3300
0000
0000
0000
0000
0000
1001
0000
,
0000
0101
0000
0000
0110
0000
0000
1001
0000
0000
1100
0000
1001
0000
0000
0000
,
0000
0010
0000
1001
,
0000
0100
0000
0110
,
0000
0001
0000
0110
,
0000
0000
1000
0000
0000
0000
1000
1100
,
0000
1001
0000
0101
0000
0000
0001
0011
,
0000
1001
0000
1010
0000
0000
0001
0011
,
0000
1001
0000
1010
0000
0000
1000
1100
,
0000
1001
0000
0101
0000
0000
0001
0011
,
0000
1010
0000
0011
0000
0000
1000
1010
,
0000
0011
0000
1010
0000
0000
0010
0110
,
0000
1001
0000
0110
0000
1010
0011
0000
,
0011
0000
1010
0000
1010
0000
0001
0010
,
1000
0100
0010
0100
0001
0000
0100
1000
,
0010
1000
0100
0010
0001
0000
0001
0010
,
0100
0010
1000
0100
0010
0000
0010
0100
,
1000
0010
0100
0001
0010
0000
0001
0101
,
0000
1100
0000
0101
0000
0000
1000
1100
,
0000
0101
0000
1100
0000
0000
0001
0010
,
1000
0100
0010
0100
0001
0010
0100
1000
,
0010
0000
0000
1000
0000
0000
0100
0000
0000
0010
0000
0000
0100
0000
0000
0001
0000
0000
1000
0000
0000
0000
1000
0000
,
0010
0000
0010
0001
0000
0001
0100
0010
0100
0001
0000
0001
,
0010
0000
0010
1000
0000
1000
0100
0010
0100
1000
0000
0100
,
0001
0000
0010
0100
0000
0001
0010
0100
1000
0100
0000
0001
,
0010
0000
0100
1000
0000
1000
0100
0010
0001
0010
0000
0001
,
0100
0000
0010
1000
0000
1000
0100
0001
0100
1000
0000
0010
,
0100
0000
1000
0001
0000
0001
0010
1000
0010
0001
1000
0100
,
0010
0100
0001
0010
0100
1000
0010
1000
0100
0010
0001
0010
,
0100
1000
0010
0100
0010
0001
0100
0001
0010
2000
0000
0000
,
0000
0000
0000
0000
3000
0000
1000
0010
,
0100
0000
0001
0010
0100
0000
0001
0010
,
1000
0000
0010
1000
0100
0000
0010
0100
,
0001
0000
0001
0010
0100
0000
0001
1000
,
0100
0000
0001
1000
0100
1000
0010
0000
,
1100
0202
0303
0001
,
0100
0000
0000
1000
0000
0110
0000
0010
0000
0011
0000
0000
,
0101
0000
0000
0000
1002
0000
0000
0000
0000
0000
0000
0020
0000
0000
0000
0000
,
0000
0000
0033
1100
,
0101
1001
0000
0001
,
1000
0000
0000
0011
0000
0110
0000
1100
0000
1001
0000
0000
,
1010
2200
0000
0000
,
0000
0000
0000
0000
,
3300
0000
0000
0000
;
