#TITLE:ギョギョっと人魚 爆婚ブライダル;
#SUBTITLE:;
#ARTIST:海の底からマーメイド Prim by ARMx狐夢想;
#TITLETRANSLIT:Gyogyotto ningyo bakkon bridal;
#SUBTITLETRANSLIT:;
#ARTISTTRANSLIT:Umi no soko kara maumeido Prim by ARMxkitsune musOU;
#GENRE:beatmania IIDX;
#CREDIT:;
#BANNER:;
#BACKGROUND:;
#LYRICSPATH:;
#CDTITLE:;
#MUSIC:Gyogyotto ningyo bakkon bridal.ogg;
#OFFSET:0.480000;
#SAMPLESTART:65.131935;
#SAMPLELENGTH:15.000000;
#SELECTABLE:YES;
#DISPLAYBPM:*;
#BPMS:0.000000=169.000000
;
#STOPS:
;
#BGCHANGES:0.000=Gyogyotto ningyo bakkon bridal.avi=1.000=0=0=1=====,
99999=-nosongbg-=1.000=0=0=0 // don't automatically add -songbackground-
;
#KEYSOUNDS:;
#ATTACKS:;

//---------------dance-single - ----------------
#NOTES:
     dance-single:
     :
     Beginner:
     4:
     0.172631,0.203921,0.117485,0.025175,0.000000,127.000000,14.000000,3.000000,0.000000,0.000000,0.000000,0.172631,0.203921,0.117485,0.025175,0.000000,127.000000,14.000000,3.000000,0.000000,0.000000,0.000000:
0000
0000
0000
0000
,
0000
0000
0000
0000
,
0000
0000
0000
0000
,
0000
0000
0000
0000
,
0000
1001
0000
0000
,
0000
0010
0000
0000
,
0000
1001
0000
0000
,
0000
0100
0000
0000
,
0000
0010
0000
0010
,
0000
0100
0000
0100
,
0000
1001
0000
0000
,
0000
0010
0000
0110
,
0000
0100
0000
0100
,
0000
0100
0000
0100
,
0000
0010
0000
0010
,
0000
0010
0000
0010
,
0000
0001
0000
0001
,
0000
0001
0000
0001
,
0000
1000
0000
1000
,
0000
1000
0000
1001
,
0000
0100
0000
0000
,
0000
0100
0000
0000
,
0000
0010
0000
0000
,
0000
0001
0000
0000
,
0000
0010
0000
0000
,
0000
0010
0000
0000
,
0000
0100
0000
0000
,
0000
1000
0000
0000
,
0000
1000
0000
0100
,
0000
0001
0000
0000
,
0000
0001
0000
0100
,
0000
1000
0000
0000
,
0000
1000
0000
0100
,
0000
0001
0000
0000
,
0000
0010
0000
0010
,
0000
0100
0000
0100
,
0000
1001
0000
0000
,
0000
1001
0000
0000
,
0000
0110
0000
0000
,
0000
0110
0000
0000
,
0000
1000
0000
0100
,
0000
0001
0000
0010
,
0000
1001
0000
0000
,
0000
1001
0000
0000
,
0000
0100
0000
0100
,
0000
0010
0000
0010
,
0000
1000
0000
1000
,
0000
0100
0000
0100
,
0000
0001
0000
0001
,
0000
0010
0010
0010
,
0000
1000
0000
1000
,
0000
0100
0000
0100
,
0000
0001
0000
0001
,
0000
0010
0010
0010
,
0000
0001
0000
0001
,
0000
0100
0000
0100
,
0000
1000
0000
1000
,
0000
0010
0010
0010
,
0000
0001
0000
0001
,
0000
0100
0000
0100
,
0000
2000
0000
0000
,
0000
0000
0000
3000
,
0000
0010
0000
0010
,
0000
0020
0000
0030
,
0000
0001
0000
0001
,
0000
0001
0000
0001
,
0000
1000
0000
1000
,
0000
1000
0000
1000
,
0000
0010
0000
0010
,
0000
0010
0000
0010
,
0000
0100
0000
0100
,
0000
0100
0000
0100
,
0000
0000
0000
0000
,
0000
1001
0000
0000
,
0000
0010
0000
0000
,
0000
0200
0000
0000
,
0000
0300
0000
0000
,
0000
0010
0000
0010
,
0000
0110
0000
0000
,
0000
1000
1000
1000
,
1000
0001
0001
0001
,
1001
0000
0000
0000
;

//---------------dance-single - ----------------
#NOTES:
     dance-single:
     :
     Easy:
     7:
     0.356052,0.373855,0.360847,0.067134,0.000000,246.000000,43.000000,8.000000,0.000000,0.000000,0.000000,0.356052,0.373855,0.360847,0.067134,0.000000,246.000000,43.000000,8.000000,0.000000,0.000000,0.000000:
0000
0000
0000
0000
,
0000
0000
0000
0000
,
0000
0000
0000
0000
,
0000
0000
0000
0000
,
0000
1001
1000
1000
,
0000
1001
0001
0001
,
0000
0110
0100
0100
,
0000
0110
0010
0010
,
0000
1000
0100
0001
,
0000
0001
0100
1000
,
0000
1100
0000
1000
,
0000
1001
0000
0001
,
0000
0001
0010
0100
,
1100
1000
0100
0010
,
0011
0001
0100
0010
,
1100
1000
0010
0100
,
0001
0001
0100
0010
,
1100
1000
0010
0100
,
0011
0001
0000
0100
,
0000
1000
0010
1001
,
0000
0001
0001
0100
,
0010
1000
1000
0010
,
0100
0001
0100
1000
,
0100
0001
0010
1000
,
0010
0001
0001
0100
,
0010
1000
1000
0010
,
0100
1000
1000
0001
,
0001
0010
0010
0110
,
0000
1000
0100
0001
,
0010
1000
0100
0001
,
0010
0001
0010
1000
,
0100
0001
0010
1000
,
0100
0010
0100
0001
,
1000
0010
0100
0001
,
1000
0010
1000
0100
,
0001
0010
0100
1001
,
0000
1100
1100
0000
,
0000
0101
0101
0000
,
0000
0110
0110
0000
,
0000
1001
1001
1001
,
0000
0001
0010
1000
,
1000
0100
0001
0010
,
0000
0000
1100
0000
0000
0000
0000
1000
,
1000
0000
0101
0000
0000
0000
0000
0001
,
0001
0010
0000
0100
,
0000
0100
0010
0100
,
0010
1100
1000
0001
,
0010
0011
0100
0001
,
0010
0100
0100
0010
,
0010
1001
0110
1001
,
0000
0001
0100
0010
,
0000
1000
0010
0100
,
0000
0001
0100
1000
,
0100
0001
0010
1000
,
0010
1000
1000
0001
,
0010
0001
0001
1000
,
0100
0001
0100
1000
,
0100
0001
0011
1010
,
0000
1000
1000
0010
,
0010
0100
0100
0001
,
0001
0200
0000
0000
,
0000
0000
0000
0000
,
0000
0310
0010
0100
,
0100
2002
0000
0000
,
3003
0010
0010
1000
,
0001
0100
0100
0001
,
1000
0010
1000
0100
,
0001
0010
1000
0100
,
0001
0010
0010
0100
,
0100
0001
0001
1000
,
1000
0000
0001
0000
0000
0100
0000
0000
,
1100
0000
1000
0000
0000
0100
0000
0000
,
0101
0000
0000
0000
,
0000
0002
0000
0203
,
0000
0320
0000
2030
,
0000
0002
0000
0000
,
0000
3003
0000
0000
,
0000
0000
0010
0000
0000
0100
0000
0000
,
1000
0001
0000
0000
,
0000
1010
1100
0011
,
0101
1001
1001
0110
,
1001
0000
0000
0000
;

//---------------dance-single - ----------------
#NOTES:
     dance-single:
     :
     Medium:
     11:
     0.483128,0.543788,0.427982,0.184620,0.117485,330.000000,51.000000,22.000000,0.000000,0.000000,0.000000,0.483128,0.543788,0.427982,0.184620,0.117485,330.000000,51.000000,22.000000,0.000000,0.000000,0.000000:
0000
0000
0000
0000
,
0000
0000
0000
0000
,
0000
0000
0000
0000
,
0000
0000
0000
0000
,
0000
1001
0001
1000
,
0001
1001
0001
1000
,
0001
0110
0100
0010
,
0100
0110
0100
0010
,
0100
0000
0010
1000
0010
0000
1001
0000
,
0000
0000
0001
0100
0001
0000
1001
0000
,
0000
0000
0000
0000
0001
0000
0000
0010
0000
0000
0100
0000
1000
0000
0000
0001
,
0000
0000
0010
0000
0100
0000
0000
0000
0000
0000
0001
1000
0001
0000
0000
0000
,
0110
0000
1000
0100
1000
0000
0001
0000
,
1001
0000
0100
0010
0100
0000
0010
0000
,
0110
0000
0001
0100
0010
0000
0100
0000
,
1001
0000
0010
0100
0010
0100
0010
0000
,
1001
0000
0010
0100
0010
0000
1000
0000
,
1001
0000
0001
1000
0001
0000
0100
0000
,
0110
0000
0000
0000
1000
0000
0000
0100
0000
0000
0010
0000
0001
0000
0000
1000
,
0000
0100
0000
0000
0010
0000
0110
0000
,
0000
0001
0001
1000
,
1000
0010
0010
1001
,
0000
1000
1000
0001
,
0001
0100
0100
0110
,
0000
0001
0010
0100
,
1000
0010
0100
0110
,
0000
1000
0100
0010
,
0001
0100
0010
0110
,
0000
0001
0100
1000
,
0100
0001
0010
1001
,
0110
0010
1000
0100
,
0010
0001
0100
0011
,
0000
0001
0100
1000
,
0100
0001
0010
1000
,
0010
0000
0010
1000
0010
0000
0001
1000
,
0001
0000
0001
0100
0010
0100
1100
0000
,
0000
1000
0100
1100
,
0010
0100
0010
0110
,
0000
0010
0100
0011
,
0010
0100
0001
0110
,
0000
0000
0001
1000
0001
1000
0010
0100
,
0010
0100
0001
0010
0100
1000
0001
0000
,
1000
0000
2002
0000
0000
0000
3003
1000
,
1000
0000
2002
0000
0000
0000
3003
0001
,
0001
0000
0000
0000
0110
0000
0000
0010
0000
0000
0100
0000
0010
0000
0000
0100
,
0000
0010
0100
0000
1001
0000
2002
0000
,
3003
0000
0001
0010
0100
0000
1000
0000
,
1100
0000
1000
0100
0010
0000
0100
0000
,
0011
0000
0001
0100
0010
0000
1000
0010
,
0100
1001
0110
2002
,
3003
0000
0001
0100
1000
0000
1001
0000
,
1000
0000
1000
0100
0001
0000
1001
0000
,
0001
0000
0010
1000
0001
0000
0010
0000
,
1001
0000
0000
0000
0100
0000
0000
0010
0000
0000
0100
0000
0220
0000
0000
0000
,
0330
0000
0001
0100
0001
0000
0100
1000
,
0100
0000
1000
0010
1000
0000
0010
0001
,
0010
0000
0001
0100
1000
0000
1000
0100
,
0001
0110
1001
0220
,
0330
0000
0000
0000
0001
0000
0000
0100
0000
0000
1000
0000
0100
0000
0000
0000
,
0000
0000
0000
0000
1000
0000
0000
0100
0000
0000
0001
0000
0100
0000
0000
0000
,
0000
0220
0000
0000
,
0000
0000
0000
0330
,
0000
0000
0000
0000
0010
0000
0000
0100
0000
0000
0010
0000
0100
0000
0000
0010
,
0000
0100
2002
0000
0000
0000
0000
0000
,
3003
0000
0001
0100
1000
0000
1100
0000
,
1000
0000
1000
0100
0001
0000
1100
0000
,
1000
0000
0001
0100
0010
0000
1000
0000
,
0001
0000
1000
0001
0100
0000
0010
0000
,
0100
0000
0001
0100
0010
0000
0011
0000
,
1000
0000
0001
1000
0010
0000
1100
0000
,
0001
0000
0000
0000
0010
0000
0000
0100
0000
0000
0100
0000
0000
0010
0000
0000
,
0010
0000
0100
0000
0010
0000
0000
1000
0000
0000
1000
0000
0000
0001
0000
0000
,
0001
0000
1000
0000
0000
0000
0000
0000
0000
0000
0000
0000
1000
0001
1000
0001
,
1000
2000
0000
3200
,
0000
0320
0000
0032
,
0000
0000
0000
0000
2000
0003
0000
0000
0000
0000
0000
0000
0000
0000
0000
0000
,
0000
0002
0000
0000
,
3003
0000
0000
0000
0010
0000
0000
0010
0000
0000
0010
0000
0100
0000
0000
0100
,
0000
0100
1001
0000
0000
0000
0000
0000
,
0000
0000
0000
1000
0100
1000
0100
0000
0000
0001
0100
0001
,
0100
0000
0000
0010
0100
0010
0100
0010
0100
0010
0000
0000
,
1001
0000
0000
0000
;

//---------------dance-single - ----------------
#NOTES:
     dance-single:
     :
     Hard:
     15:
     0.808010,0.860159,0.495116,0.234970,0.826592,587.000000,59.000000,28.000000,0.000000,0.000000,0.000000,0.808010,0.860159,0.495116,0.234970,0.826592,587.000000,59.000000,28.000000,0.000000,0.000000,0.000000:
// measure 0
0000
0000
0000
0000
,  // measure 1
0000
0000
0000
0000
,  // measure 2
0000
0000
0000
0000
,  // measure 3
0000
0000
0000
0000
,  // measure 4
0000
0000
0000
0000
1000
0000
0010
0000
0100
0001
0000
0010
0000
0100
0000
0010
,  // measure 5
1000
0000
0001
0000
0010
0000
0100
0000
0001
0010
0000
0100
0000
0010
0000
1000
,  // measure 6
0001
0000
0010
0000
1000
0000
0010
0000
0100
0001
0000
0100
0000
0010
0000
0001
,  // measure 7
0100
0000
0010
0000
0100
0000
0001
0000
0010
1000
0000
0100
0000
0000
1100
0000
,  // measure 8
1100
0000
0000
0000
0001
0000
0100
0000
0010
1000
0000
0010
0000
0100
0000
0001
,  // measure 9
0010
0000
0100
0000
0010
0000
1000
0000
0010
1000
0000
0001
0000
0100
0000
0010
,  // measure 10
0100
0000
0001
0000
0010
0000
0000
0011
0000
0000
0010
0000
0100
0000
0000
0110
,  // measure 11
0000
0000
0010
0000
1000
0001
0100
0010
0100
0001
0100
0001
0010
0100
1000
0001
,  // measure 12
0100
0000
0000
0000
0011
0000
0100
0000
0010
0100
0000
0001
0000
1000
0000
0010
,  // measure 13
1000
0000
0011
0000
0010
0000
0100
0000
0001
1000
0000
0010
0000
0100
0000
0001
,  // measure 14
0100
0000
1010
0000
0001
0000
0100
0000
0010
1000
0000
0001
0000
0100
0000
0001
,  // measure 15
1000
0000
0110
0000
0001
0000
1000
0000
0010
0100
0000
0010
0000
0000
1001
0000
,  // measure 16
0011
0000
1000
0000
0100
0000
0010
0000
0100
0001
0000
0010
0000
0100
0000
1000
,  // measure 17
0100
0000
1100
0000
0010
0000
0100
0000
0001
0010
0000
0100
0000
0010
0000
1000
,  // measure 18
0001
0000
0011
0000
0100
0000
0000
0010
0000
0000
0100
0000
0001
0000
0000
0010
,  // measure 19
0000
0000
0000
0100
0000
0000
0000
0000
0001
0000
0010
0000
0100
0000
1000
0000
0001
0000
0010
0000
0000
0000
0000
0000
,  // measure 20
1100
0000
0000
0000
0001
0100
0000
0010
0100
0000
0001
0000
1000
0010
0000
0100
,  // measure 21
0010
0000
0100
0000
0001
0010
0000
0100
1000
0000
0010
0000
1000
0000
0100
0000
,  // measure 22
1100
0000
0000
0000
0001
1000
0000
0010
1000
0000
0100
0000
0010
0100
0000
0001
,  // measure 23
0010
0000
0100
0000
1000
0010
0000
1000
0100
0000
0010
0000
0100
0000
0001
0000
,  // measure 24
0011
0000
0000
0000
0001
0100
0000
0010
0100
0000
0001
0000
1000
0010
0000
0100
,  // measure 25
0010
0000
0100
0000
0001
0010
0000
0100
1000
0000
0010
0000
1000
0000
0100
0000
,  // measure 26
1100
0000
0000
0000
0001
0100
0001
0000
0010
1000
0010
0000
0100
0010
0100
0000
,  // measure 27
1000
0000
0001
0000
1000
0000
0000
0000
0001
0000
0010
0000
0100
0000
1000
0000
0001
0000
0010
0000
0100
0000
1000
0000
0001
0000
0000
0100
0000
1000
0000
0000
,  // measure 28
0010
0000
0000
0000
0010
0000
1000
0000
0010
0100
0010
0100
0001
0000
0010
0000
,  // measure 29
0100
0010
0100
0010
1000
0000
0010
0000
0100
0001
0010
0100
0010
0000
1000
0000
,  // measure 30
0110
0000
0000
0000
0100
0000
0001
0000
0010
1000
0010
0100
0001
0000
0100
0000
,  // measure 31
0010
0100
0001
1000
0010
0000
0100
0000
0100
1000
0100
0001
0010
0100
0000
1100
,  // measure 32
0000
0101
0000
0001
1000
0000
0010
0100
0010
0000
0100
0000
1000
0000
0100
0010
,  // measure 33
0100
0000
0010
0000
0001
0000
1000
0001
1000
0000
0001
0000
1000
0000
0000
0000
,  // measure 34
1001
0000
0000
0000
0010
0100
0010
0100
0001
1000
0001
1000
0001
0100
0001
0100
,  // measure 35
1000
0010
1000
0010
0001
0000
0010
0100
0000
1000
0001
0000
0110
0000
0000
0000
,  // measure 36
1100
2100
0000
0100
,  // measure 37
3100
0102
0000
0100
,  // measure 38
0103
2010
0000
0010
,  // measure 39
3010
0000
0000
0000
0012
0000
0000
0000
0010
0000
0000
0000
0013
0000
0000
0100
,  // measure 40
0010
0000
0010
1000
0001
0010
0100
1000
,  // measure 41
0010
0000
1000
0000
0100
0000
0010
0000
0100
0000
0001
0000
0100
0010
0100
0010
,  // measure 42
1000
0001
0100
1000
0200
0000
0000
0000
0000
0000
0000
0000
0000
0000
0010
0000
,  // measure 43
0310
0000
0002
0000
0000
0000
0000
1000
,  // measure 44
1003
0000
0000
0000
0010
0000
0000
1000
0000
0000
1100
0000
0001
0000
0000
0100
,  // measure 45
0000
0011
0010
0000
0110
0000
1001
0000
,  // measure 46
0110
0000
0000
0000
0001
0100
0001
0100
0010
1000
0010
1000
0001
0100
0010
0100
,  // measure 47
0001
0010
0100
1000
0001
0000
0000
1000
0000
0000
1100
0000
0100
0000
0000
0000
,  // measure 48
0101
0000
0010
0100
1000
0010
1000
0100
,  // measure 49
0001
0000
0100
0000
0001
0100
0001
0100
0010
1000
0010
1000
0001
1000
0001
0100
,  // measure 50
0010
0100
0010
0100
0001
0000
0000
0010
0000
0000
1100
0000
1100
0000
0000
0000
,  // measure 51
0001
0000
0000
0000
1000
0000
0000
0010
0000
0000
0011
0000
0011
0000
0000
0000
,  // measure 52
0001
0000
0000
0000
0001
0000
0100
0000
1000
0000
0010
1000
0000
0000
0100
0000
,  // measure 53
0010
0000
0000
0000
0100
0000
0000
0000
0001
0000
0000
0000
0000
0000
0011
0000
0000
0000
0000
0000
0010
0000
0000
0000
1000
0000
0000
0001
0000
1000
0000
0000
,  // measure 54
0001
0000
0010
1000
0100
0010
0100
0001
,  // measure 55
0010
0000
0100
0000
1000
0010
1000
0010
0100
0001
0100
0001
0010
0000
0000
0000
,  // measure 56
0010
0100
0001
0010
0100
1000
0010
1000
,  // measure 57
0100
0000
0001
0000
0010
0001
0010
0001
0100
1000
0100
1000
0010
0000
0000
0000
,  // measure 58
1001
0000
0010
1000
0100
0010
0100
0001
,  // measure 59
0010
0000
0000
0000
0010
0000
1000
0000
0100
0000
0010
0000
0100
0000
0000
0001
,  // measure 60
0000
0100
2100
0000
0000
0000
0000
0000
,  // measure 61
0100
0000
0100
0000
,  // measure 62
3100
0000
0000
0000
0001
0000
0000
0100
0000
0000
0010
0000
1000
0000
0000
0010
,  // measure 63
0000
0100
0002
0000
0000
0000
0000
0000
,  // measure 64
0003
0000
0000
0000
0011
0000
0010
0000
0100
0010
0000
1000
0000
0001
0000
0010
,  // measure 65
1000
0000
0110
0000
0100
0000
0001
0000
0100
0010
0000
1000
0000
0010
0000
1000
,  // measure 66
0100
0000
1001
0000
1000
0000
0010
0000
1000
0001
0000
0010
0000
0100
0000
1000
,  // measure 67
0010
0000
0011
0000
0100
0000
0010
0000
1000
0001
0000
0100
0000
0000
1100
0000
,  // measure 68
0100
0000
0001
0000
0100
0000
0010
0000
1000
0001
0000
1000
0000
0010
0000
0100
,  // measure 69
0001
0000
0110
0000
1000
0000
0010
0000
0100
0001
0000
0010
0000
0100
0000
0010
,  // measure 70
1000
0000
1001
0000
1100
0000
0000
1100
0000
0000
1001
0000
0000
0110
0000
0000
,  // measure 71
0001
0000
1000
0000
0011
0000
0000
0011
0000
0000
1001
0000
0000
0110
0000
0000
,  // measure 72
0200
0000
0020
0000
0000
0000
0000
0000
0330
0000
0000
0000
0010
0100
0010
0100
,  // measure 73
0002
0000
0000
0000
0203
0000
0000
0310
0000
0000
1000
0000
0200
0000
0000
0000
,  // measure 74
0320
0000
0000
0000
0032
0000
0000
0013
0000
0000
0100
0000
2000
0000
0000
3002
,  // measure 75
0000
0103
0020
0000
0000
0000
0000
0000
,  // measure 76
0000
2030
0000
0000
,  // measure 77
0000
0000
0000
0000
3002
0000
0000
0203
0000
0000
0320
0000
2030
0000
0000
3002
,  // measure 78
0000
0203
0020
0000
0000
0000
0000
0000
,  // measure 79
0330
0000
0000
0100
1000
0100
1100
0000
0000
0010
0100
0010
,  // measure 80
0110
0000
0000
0010
0100
0001
0010
0100
1000
1100
0000
0000
,  // measure 81
2002
0000
0000
0000
,  // measure 82
3003
0000
0000
0000
;
