#TITLE:Grimm;
#SUBTITLE:;
#ARTIST:RoughSketch feat.Aikapin;
#TITLETRANSLIT:;
#SUBTITLETRANSLIT:;
#ARTISTTRANSLIT:;
#GENRE:DDR;
#CREDIT:;
#BANNER:;
#BACKGROUND:;
#LYRICSPATH:;
#CDTITLE:;
#MUSIC:Grimm.ogg;
#OFFSET:1.629999;
#SAMPLESTART:79.928970;
#SAMPLELENGTH:15.000000;
#LASTBEATHINT:1.115660;
#SELECTABLE:YES;
#DISPLAYBPM:113.000000:170.000000;
#BPMS:0.000000=113.199997
,102.000000=114.000000
,106.000000=170.000000
;
#STOPS:
;
#BGCHANGES:0.000=Grimm.avi=1.000=0=0=0=StretchNoLoop====,
99999=-nosongbg-=1.000=0=0=0 // don't automatically add -songbackground-
;
#KEYSOUNDS:;
#ATTACKS:;

//---------------dance-single - ----------------
#NOTES:
     dance-single:
     :
     Beginner:
     2:
     0.122379,0.149187,0.024951,0.033268,0.000000,96.000000,3.000000,4.000000,0.000000,0.000000,0.000000,0.122379,0.149187,0.024951,0.033268,0.000000,96.000000,3.000000,4.000000,0.000000,0.000000,0.000000:
0000
0000
0000
0000
,
0000
0000
0000
0000
,
0000
0000
0000
0000
,
0000
0000
0000
0000
,
0000
0000
0000
0000
,
0000
0000
0000
0000
,
1000
0000
0100
0000
,
1000
0000
0100
0000
,
0001
0000
0010
0000
,
0001
0000
0010
0000
,
1000
0000
0000
0000
,
0100
0000
0000
0000
,
0010
0000
0000
0000
,
0001
0000
0000
0000
,
1000
0000
0000
0000
,
0010
0000
0000
0000
,
0100
0000
0000
0000
,
0001
0000
0000
0000
,
0001
0000
0000
0000
,
0010
0000
0000
0000
,
0100
0000
0000
0000
,
1000
0000
0000
0000
,
0001
0000
0000
0000
,
0100
0000
0000
0000
,
0010
0000
0000
0000
,
1000
0000
0000
0000
,
0000
0000
0000
1001
,
0000
0000
0000
0100
,
0000
0000
0000
0010
,
0000
0000
0000
0100
,
0000
0000
0000
1001
,
0000
0000
0000
0010
,
0000
0000
0000
0100
,
0000
0000
0000
0010
,
0000
0000
0000
1000
,
0000
0100
0000
1000
,
0000
0100
0000
0001
,
0000
0100
0000
0001
,
0000
0100
0000
1000
,
0000
0010
0000
1000
,
0000
0010
0000
0001
,
0000
0010
0000
0001
,
0000
0010
0000
0000
,
0000
0000
0000
0000
,
0000
0000
0000
1000
,
0000
0100
0000
0010
,
0000
0100
0000
1000
,
0000
0100
0000
0020
,
0000
0030
0000
0001
,
0000
0010
0000
0100
,
0000
0010
0000
0001
,
0000
0010
0000
0200
,
0000
0300
0000
1000
,
0000
0100
0000
0001
,
0000
0100
0000
1000
,
0000
0100
0000
0002
,
0000
0003
0000
0001
,
0000
0010
0000
1000
,
0000
0010
0000
0001
,
0000
0010
0000
2000
,
0000
3000
0000
0100
,
0000
0010
0000
0100
,
0000
0010
0000
1000
,
0000
0001
0000
1000
,
0000
0001
0000
0100
,
0000
1000
0000
0100
,
0000
1000
0000
0010
,
0000
0001
0000
0010
,
0000
0001
0000
1001
,
0000
0000
0000
0100
,
0000
0000
0000
1000
,
0000
0000
0000
0001
;

//---------------dance-single - ----------------
#NOTES:
     dance-single:
     :
     Easy:
     5:
     0.278027,0.299414,0.108122,0.207926,0.000000,196.000000,13.000000,25.000000,0.000000,0.000000,0.000000,0.278027,0.299414,0.108122,0.207926,0.000000,196.000000,13.000000,25.000000,0.000000,0.000000,0.000000:
0000
0000
0000
0000
,
0000
0000
0000
0000
,
0000
0000
0000
0000
,
0000
0000
0000
0000
,
0000
0000
0000
0000
,
0000
0000
0000
0000
,
2000
0000
3200
0000
,
2300
0000
3020
0000
,
0032
0000
0023
0000
,
0032
0000
0203
0000
,
1300
0000
0010
0000
,
0100
0000
0101
0000
,
0001
0000
0100
0000
,
0010
0000
1010
0000
,
2000
0000
3100
0000
,
0020
0000
0031
0000
,
2000
0000
3010
0000
,
0200
0000
0301
0000
,
0010
0000
0100
0000
,
0001
0000
1001
0000
,
0100
0000
0010
0000
,
1000
0000
1001
0000
,
0002
0000
0013
0000
,
0200
0000
1300
0000
,
0002
0000
0203
0000
,
0320
0000
2000
0000
,
0000
3030
0000
0010
,
0100
0010
0000
1000
,
0001
1000
0000
0010
,
1000
0010
0000
0001
,
0010
0001
0000
1000
,
0001
1000
0000
0100
,
0010
0100
0000
1000
,
0100
1000
0000
0001
,
0100
0001
0000
1000
,
0010
0100
0001
1000
,
0010
0100
0001
0100
,
0010
1000
0001
0100
,
0010
1000
0001
0100
,
0010
0100
0010
1000
,
0001
1000
0001
1000
,
0010
0100
0001
1000
,
0001
2002
0000
0000
,
0000
0000
0000
3003
,
0000
0000
0010
0100
,
0010
0100
1000
0100
,
0010
0100
0010
0001
,
0010
0100
1000
0001
,
0100
0010
1000
0001
,
0100
1000
0100
0001
,
0010
1000
0010
1000
,
0100
0001
0010
1000
,
1100
0101
0001
1000
,
0010
1000
0001
1000
,
0010
0100
0001
0010
,
0100
1000
0010
0100
,
0001
0010
1000
0001
,
0100
0010
1000
1001
,
0010
1000
0001
0101
,
1000
0010
1000
1100
,
1000
0002
0000
1003
,
0010
1000
0001
0100
,
0010
1000
0001
1001
,
0010
1000
0001
0100
,
0010
1000
0001
1001
,
0010
1000
0010
0100
,
0001
0010
1000
1001
,
0010
1000
0001
0200
,
0010
0010
0010
0302
,
0000
0000
0000
2003
,
0000
0000
0000
3020
,
0000
0000
0000
0100
,
0130
0000
0000
0000
;

//---------------dance-single - ----------------
#NOTES:
     dance-single:
     :
     Medium:
     8:
     0.362386,0.419179,0.166341,0.166341,0.133073,265.000000,20.000000,20.000000,0.000000,0.000000,0.000000,0.362386,0.419179,0.166341,0.166341,0.133073,265.000000,20.000000,20.000000,0.000000,0.000000,0.000000:
0000
0000
0000
0000
,
0000
0000
0000
0000
,
0000
0000
0000
0000
,
0000
0000
0000
0000
,
0000
0000
0000
0000
,
0000
0000
0000
0000
,
1000
0000
0100
0000
0000
0000
0010
0000
0001
0000
0000
0000
,
1000
0000
0100
0000
0000
0000
0010
0000
0001
0000
0000
0000
,
0100
0000
0010
0000
0000
0000
0001
0000
1000
0000
0000
0000
,
0010
0000
0100
0000
0000
0000
1000
0000
0001
0000
0000
0000
,
1000
0000
0010
0000
0100
0000
0001
0000
0000
0000
0000
0000
,
0001
0000
0100
0000
0010
0000
1000
0000
0000
0000
0000
0000
,
0100
0000
0010
0000
1000
0000
0001
0000
0000
0000
0000
0000
,
0010
0000
0100
0000
0001
0000
1000
0000
0000
0000
0000
0000
,
2000
0000
0000
0000
0010
0000
0020
0000
0000
3030
0000
0000
,
0002
0000
0000
0000
0100
0000
0200
0000
0000
0303
0000
0000
,
2000
0000
0000
0000
0100
0000
0200
0000
0000
0000
3300
0000
,
0002
0000
0000
0000
0010
0000
0020
0000
0000
0003
0030
0000
,
0001
0000
1000
0000
0010
0000
1000
0000
0000
0000
0000
0000
,
1000
0000
0001
0000
0010
0000
0001
0000
0000
0000
0000
0000
,
0100
0000
0010
0000
1000
0000
0100
0000
0000
0000
0000
0000
,
0010
0000
0001
0000
0100
0000
0010
0000
0000
0000
0000
0000
,
0200
0000
0000
0000
0010
0000
0020
0000
0000
0330
0000
0000
,
0002
0000
0000
0000
0010
0000
0020
0000
0000
0033
0000
0000
,
2000
0000
0000
0100
0000
0200
0000
0000
0000
3300
0000
0000
,
0002
0000
0000
0000
0010
0000
0020
0000
0000
0000
0000
0000
,
0000
0000
0000
0000
0033
0000
0000
0000
0000
0000
0000
0000
1000
0000
0000
0001
0000
0000
1001
0000
0000
0000
0000
0000
,
0000
0010
0100
0001
,
0000
0000
1000
0000
0010
0100
0010
0000
,
0000
1000
0001
0010
,
0000
0000
0100
0000
1000
0100
1000
0000
,
0000
0010
0100
0001
,
0000
0000
0010
0000
0001
0010
0001
0000
,
0000
0000
0100
0000
0010
0000
1000
0001
,
1000
1001
0000
1000
,
0100
0010
0001
1000
,
0010
0100
0001
1000
,
0010
0100
0001
0010
,
0100
1000
1001
0010
,
1000
0000
0001
1000
0001
0000
0010
0000
,
1000
0000
0100
0001
0100
0000
0010
0000
,
1000
0000
0001
0010
1000
0000
0010
0000
,
0001
2002
3003
0100
,
0010
1000
0001
0100
,
0010
0100
0010
0000
0000
0000
1000
0000
,
0010
0100
0001
1000
,
0010
1000
0010
0000
1000
0000
0010
0000
,
0100
0001
0010
1000
,
0001
0010
0001
0000
1000
0000
0010
0000
,
1001
0010
1000
0001
,
0100
0010
0100
0000
1000
0000
0010
0000
,
0001
0000
0100
0000
0010
0000
1000
0001
,
1000
0101
0000
0010
,
1000
0001
0010
1000
,
0010
0001
0010
0000
0100
0000
0010
0000
,
1000
0001
0010
0100
,
1000
0100
1000
0000
0010
0000
1000
0000
,
0001
0100
0010
1000
,
0001
1000
0001
0000
0010
0000
1000
0000
,
0001
0000
0010
0000
1000
0000
0001
0010
,
0100
1000
0001
0000
0000
0000
1001
0000
,
1000
0000
0010
0000
1000
0000
0001
0100
,
0001
1010
1001
0010
,
0100
0000
0001
0000
0010
0000
1000
0100
,
1000
1001
0110
0001
,
0010
0000
1000
0000
0100
0000
0001
1000
,
0001
0110
1100
0101
,
1001
0000
0010
0100
0001
0000
0010
1000
,
0001
0220
0330
1000
,
0001
0110
0010
0001
,
1000
0110
0100
1000
,
0010
0100
0001
0110
,
0110
0000
0000
0000
;

//---------------dance-single - ----------------
#NOTES:
     dance-single:
     :
     Hard:
     11:
     0.538232,0.509003,0.424169,0.149707,0.282780,384.000000,51.000000,18.000000,0.000000,0.000000,0.000000,0.538232,0.509003,0.424169,0.149707,0.282780,384.000000,51.000000,18.000000,0.000000,0.000000,0.000000:
// measure 0
0000
0000
0000
0000
,  // measure 1
0000
0000
0000
0000
,  // measure 2
0000
0000
0000
0000
,  // measure 3
0000
0000
0000
0000
,  // measure 4
0000
0000
0000
0000
,  // measure 5
0000
0000
0000
0000
,  // measure 6
1000
0000
0010
0000
0100
0000
0001
0000
0010
0000
0100
0000
,  // measure 7
1000
0000
0010
0000
0100
0000
0101
0000
1100
0000
0000
0000
,  // measure 8
0010
0000
1000
0000
0001
0000
0010
0000
1000
0000
0100
0000
,  // measure 9
0010
0000
0001
0000
0010
0000
1010
0000
0011
0000
0000
0000
,  // measure 10
0011
0000
1000
0000
0010
0000
0100
0000
0001
0000
0010
0000
,  // measure 11
1100
0000
1000
0000
0001
0000
0100
0000
0220
0030
0300
0000
,  // measure 12
0001
0000
1000
0000
0010
0000
1000
0000
0001
0000
0100
0000
,  // measure 13
1000
0000
0010
0000
0100
0000
0001
0000
2002
3000
0003
0000
,  // measure 14
0010
0000
1000
0000
0100
0000
2200
0000
0000
3300
0000
0000
,  // measure 15
0001
0000
0100
0000
0010
0000
0022
0000
0000
0033
0000
0000
,  // measure 16
0001
0000
1000
0000
0010
0000
0220
0000
0000
0330
0000
0000
,  // measure 17
1000
0000
0001
0000
0100
0000
2002
0000
0000
3003
0000
0000
,  // measure 18
0010
0000
1000
0000
0001
1000
0001
0000
0010
0000
1000
0000
,  // measure 19
0100
0000
0001
0000
0010
0100
0010
0000
1001
0000
0000
0000
,  // measure 20
0100
0000
0010
0000
1000
0001
1000
0000
0010
0000
1000
0000
,  // measure 21
0001
0000
0100
0000
0010
0100
0010
0000
1001
0000
0000
0000
,  // measure 22
1100
0000
0100
0000
0001
0100
0020
0000
1030
0000
0000
0000
,  // measure 23
0100
0000
0001
0000
0100
1000
0020
0000
0000
0030
0000
0000
,  // measure 24
0001
0000
1000
0000
0100
1000
0002
0000
0103
0000
0000
0000
,  // measure 25
1000
0000
0010
0000
0100
0001
2000
0000
0000
0000
0000
0000
,  // measure 26
0000
0000
3000
0000
0010
0100
0110
0000
,  // measure 27
0001
0000
1000
0000
0010
1000
0001
0000
,  // measure 28
0001
1000
0100
0000
0001
1000
0010
0000
,  // measure 29
0010
0000
0100
0010
0001
1000
0010
0000
,  // measure 30
0001
1000
0100
0000
0110
0000
0010
0000
,  // measure 31
1001
0000
0010
1000
0100
0001
0100
0000
,  // measure 32
0010
1000
0001
0000
0010
0100
1000
0000
,  // measure 33
0101
0000
0010
0100
1000
0001
0100
0000
,  // measure 34
0010
0100
1000
0000
0100
1000
1100
0000
,  // measure 35
0101
0000
1001
0000
0001
1000
0010
0000
,  // measure 36
0010
1000
0001
0000
0010
0100
1000
0000
,  // measure 37
0011
0000
1010
0000
1001
0000
0010
1000
,  // measure 38
0001
0100
0010
0000
1000
0010
0011
0000
,  // measure 39
1001
0000
1100
0000
0010
1000
0100
0000
,  // measure 40
0001
0100
0010
0000
1000
0010
0100
0000
,  // measure 41
0001
0000
1001
0001
1000
0010
0100
0000
,  // measure 42
1000
0010
0200
0000
0000
0000
0301
0000
,  // measure 43
0010
0000
1000
0010
1000
0001
0100
0010
,  // measure 44
1000
0100
0001
0000
1100
1000
0100
0000
,  // measure 45
0101
0000
1001
1000
0010
0100
0001
0000
,  // measure 46
0010
0010
0010
0000
0100
0001
1001
0000
,  // measure 47
0010
0000
1000
0010
0100
0001
0010
0000
,  // measure 48
0100
0100
0100
0000
1001
0010
0100
0000
,  // measure 49
1000
0000
0010
1000
0001
0100
0010
0000
,  // measure 50
0001
0001
0001
0000
0010
0100
1001
0000
,  // measure 51
0010
0000
1000
0010
0100
0001
0010
0100
,  // measure 52
1000
1000
1000
0000
1001
0010
0100
0000
,  // measure 53
1000
0000
0010
1000
0100
0001
0100
0010
,  // measure 54
1000
0001
1001
0000
0010
1000
0001
0000
,  // measure 55
1001
0000
0010
1000
0100
0010
0001
0010
,  // measure 56
0100
1000
0010
0000
0001
0010
0011
0000
,  // measure 57
0010
0000
1001
0010
1000
0100
0010
0000
,  // measure 58
0001
0010
0100
0000
1000
0100
1100
0000
,  // measure 59
1001
0000
0001
1000
0010
0100
0001
0010
,  // measure 60
0100
1000
1001
0000
0010
1000
1010
0010
,  // measure 61
0100
0001
0010
0100
1000
0010
0100
0001
,  // measure 62
1000
0010
0100
0001
0010
0001
0011
0001
,  // measure 63
0100
0010
1000
0100
0001
0010
1000
0100
,  // measure 64
0001
0010
0100
1000
0010
0100
0110
0001
,  // measure 65
1000
0010
1000
0100
0001
0010
0100
1000
,  // measure 66
0010
1000
0100
0001
0010
0100
1100
0000
,  // measure 67
0010
0000
1001
0000
0010
0000
0010
0001
,  // measure 68
0100
0010
2001
0000
3010
0000
0100
0000
,  // measure 69
0010
1000
0001
0100
,  // measure 70
0010
1000
0001
0100
,  // measure 71
0010
1000
0001
0101
,  // measure 72
1100
0000
0000
0000
;
