#TITLE:ゴーストルール;
#SUBTITLE:;
#ARTIST:DECO*27;
#TITLETRANSLIT:Ghost rule;
#SUBTITLETRANSLIT:;
#ARTISTTRANSLIT:;
#GENRE:Vocaloid;
#CREDIT:;
#BANNER:;
#BACKGROUND:Ghost rule-bg.png;
#LYRICSPATH:;
#CDTITLE:;
#MUSIC:Ghost rule.ogg;
#OFFSET:0.970000;
#SAMPLESTART:48.130032;
#SAMPLELENGTH:15.000000;
#SELECTABLE:YES;
#BPMS:0.000000=210.000000
;
#STOPS:
;
#BGCHANGES:3.000=Ghost rule.avi=1.000=0=0=0=StretchNoLoop====,
99999=-nosongbg-=1.000=0=0=0 // don't automatically add -songbackground-
;
#KEYSOUNDS:;
#ATTACKS:;

//---------------dance-single - ----------------
#NOTES:
     dance-single:
     :
     Beginner:
     4:
     0.145341,0.174819,0.000000,0.028659,0.000000,142.000000,142.000000,0.000000,4.000000,0.000000,0.000000,0.145341,0.174819,0.000000,0.028659,0.000000,142.000000,142.000000,0.000000,4.000000,0.000000,0.000000:
0000
0000
0000
0000
,
0000
0000
0000
0000
,
0000
0000
0000
0000
,
0000
0000
0000
0000
,
0000
0000
0000
0000
,
0001
0000
0000
0000
,
1000
0000
0000
0000
,
0001
0000
0000
0000
,
1000
0000
0000
0000
,
0100
0000
0000
0000
,
0100
0000
0000
0000
,
0010
0000
0000
0000
,
0010
0000
0000
0000
,
0100
0000
0000
0000
,
0010
0000
0000
0000
,
0100
0000
0000
0000
,
0010
0000
0000
0000
,
1000
0000
1000
0000
,
0100
0000
0000
0000
,
0001
0000
0001
0000
,
0100
0000
0000
0000
,
1000
0000
1000
0000
,
0010
0000
0000
0000
,
0001
0000
0001
0000
,
0010
0000
0000
0000
,
1000
0000
0100
0000
,
1000
0000
0000
0000
,
0001
0000
0010
0000
,
0001
0000
0000
0000
,
0100
0000
0010
0000
,
0100
0000
0000
0000
,
0001
0000
1000
0000
,
0001
0000
0000
0000
,
1000
0000
0000
0000
,
0100
0000
0000
0000
,
0010
0000
0000
0000
,
0001
0000
0000
0000
,
1000
0000
0000
0000
,
0010
0000
0000
0000
,
0100
0000
0000
0000
,
0001
0000
0000
0000
,
1000
0000
0000
0000
,
0001
0000
0000
0000
,
1000
0000
1000
0000
,
0100
0000
0000
0000
,
0001
0000
0001
0000
,
0100
0000
0000
0000
,
1000
0000
1000
0000
,
0010
0000
0000
0000
,
0001
0000
0001
0000
,
0010
0000
0000
0000
,
1000
0000
0000
0000
,
0100
0000
0000
0000
,
0010
0000
0000
0000
,
0001
0000
0000
0000
,
1000
0000
0000
0000
,
0010
0000
0000
0000
,
0100
0000
0000
0000
,
0001
0000
0000
0000
,
1000
0000
0000
0000
,
0100
0000
0000
0000
,
1000
0000
0000
0000
,
0010
0000
0000
0000
,
0001
0000
0000
0000
,
0100
0000
0000
0000
,
0001
0000
0000
0000
,
0010
0000
0000
0000
,
1000
0000
1000
0000
,
0100
0000
0000
0000
,
0001
0000
0001
0000
,
0100
0000
0000
0000
,
1000
0000
1000
0000
,
0010
0000
0000
0000
,
0001
0000
0001
0000
,
0010
0000
0000
0000
,
0100
0000
1000
0000
,
0010
0000
0000
0000
,
0010
0000
0001
0000
,
0100
0000
0000
0000
,
0100
0000
0001
0000
,
1000
0000
0000
0000
,
1000
0000
0001
0000
,
0010
0000
0000
0000
,
0200
0000
0000
0000
,
0300
0000
0000
0000
,
0020
0000
0000
0000
,
0030
0000
0000
0000
,
2000
0000
0000
0000
,
3000
0000
0000
0000
,
0002
0000
0000
0000
,
0003
0000
0000
0000
,
1000
0000
1000
0000
,
0100
0000
0000
0000
,
0001
0000
0001
0000
,
0100
0000
0000
0000
,
1000
0000
1000
0000
,
0010
0000
0000
0000
,
0001
0000
0001
0000
,
0010
0000
0000
0000
,
1000
0000
0100
0000
,
0010
0000
0000
0000
,
0001
0000
0010
0000
,
0100
0000
0000
0000
,
1000
0000
0010
0000
,
0100
0000
0000
0000
,
0001
0000
0100
0000
,
0010
0000
0000
0000
,
1000
0000
0000
0000
,
0100
0000
0000
0000
,
0010
0000
0000
0000
,
0001
0000
0000
0000
,
1000
0000
0000
0000
,
0010
0000
0000
0000
,
0100
0000
0000
0000
,
0001
0000
0000
0000
,
0001
0000
0000
0000
,
0010
0000
0000
0000
,
0100
0000
0000
0000
,
1000
0000
0000
0000
,
0001
0000
0000
0000
,
0100
0000
0000
0000
,
0010
0000
0000
0000
,
1000
0000
0000
0000
;

//---------------dance-single - ----------------
#NOTES:
     dance-single:
     :
     Easy:
     6:
     0.331624,0.439734,0.071647,0.386894,0.000000,324.000000,314.000000,10.000000,54.000000,0.000000,0.000000,0.331624,0.439734,0.071647,0.386894,0.000000,324.000000,314.000000,10.000000,54.000000,0.000000,0.000000:
0000
0000
0000
0000
,
0000
0000
0000
0000
,
0000
0000
0000
0000
,
0000
0000
0000
0000
,
0000
0000
0000
0000
,
1000
0000
0100
0000
,
0010
0000
0000
0000
,
0001
0000
0010
0000
,
0100
0000
0000
0000
,
1000
0000
0100
0000
,
0002
0000
1003
0000
,
0001
0000
0010
0000
,
2000
0000
3001
0000
,
0100
0000
1000
0000
,
0020
0000
0130
0000
,
0010
0000
0100
0000
,
0002
0000
0103
0000
,
0100
0000
1000
0000
,
0100
0000
1000
0000
,
0001
0000
0100
0000
,
0001
0000
0100
0000
,
1000
0000
0010
0000
,
1000
0000
0010
0000
,
0010
0000
0001
0000
,
0010
0000
0001
0000
,
0100
0000
1000
0000
,
0010
0000
0100
0000
,
0001
0000
0100
0000
,
0010
0000
0001
0000
,
0100
0000
0010
0000
,
1000
0000
0100
0000
,
0010
0000
0100
0000
,
0001
0000
0010
0000
,
2000
0000
0000
0000
,
3002
0000
0000
0000
,
0203
0000
0000
0000
,
0320
0000
0000
0000
,
1030
0000
1000
0000
,
0001
0000
0001
0000
,
1000
0000
1000
0000
,
0001
0000
0001
0000
,
0200
0000
0000
0000
,
0320
0000
0000
0000
,
1030
1000
0100
0010
,
0001
0001
0002
0000
,
0013
0010
0100
0100
,
0001
1000
1001
0000
,
0001
0001
0010
0100
,
1000
1000
2000
0000
,
3001
0100
0010
1000
,
0010
0010
0110
0000
,
1000
0100
0020
0030
,
0001
0010
0100
0000
,
1000
0100
0001
0001
,
0001
0010
2000
3000
,
0010
1000
0002
0003
,
0100
0010
2000
3000
,
0010
0100
0002
0003
,
0100
1000
0002
1003
,
0010
0000
0010
0000
,
0100
0000
0100
0000
,
1000
0000
1000
0000
,
0001
0000
0001
0000
,
1000
0000
0100
0000
,
0010
0000
0100
0000
,
0001
0000
0010
0000
,
0100
0000
0010
0000
,
1000
0100
0010
0000
,
0010
0000
0110
0000
,
0001
0010
0100
0000
,
0100
0000
0110
0000
,
1000
0100
0002
0003
,
0010
0100
2000
3000
,
0001
0100
0010
1000
,
0002
0000
2003
0000
,
3010
0100
0020
0030
,
0001
1000
0020
0030
,
0001
1000
0200
0300
,
1000
0001
0200
0300
,
0010
1000
0002
0003
,
0010
0100
2000
3000
,
0010
0100
0002
0003
,
1000
0010
0200
0300
,
0002
0000
0000
0000
,
2003
0000
0000
0000
,
3020
0000
0000
0000
,
0230
0000
0000
0000
,
0302
0000
0000
0000
,
0023
0000
0000
0000
,
0200
0000
0000
0000
,
0330
0000
0000
1001
,
0010
0010
1000
0100
,
0001
0001
2001
3000
,
0001
0100
0010
1000
,
0100
0100
0120
0030
,
0001
0100
1000
0010
,
1000
1000
1002
0003
,
0010
1000
0010
0100
,
0001
0001
0210
0300
,
0010
0100
1000
0010
,
0200
0010
1000
0310
,
0001
1000
0010
1000
,
0020
0100
0001
0130
,
0001
0100
1000
0010
,
0200
0001
1000
0301
,
0010
1000
0001
0100
,
0020
1000
0001
1030
,
0200
0001
1000
0001
,
1000
1000
0001
0301
,
0010
1000
0010
1000
,
0001
0100
0010
1000
,
0020
0001
1000
0001
,
1000
1000
0001
0031
,
0100
0001
0100
0010
,
1000
0001
2002
3003
,
0010
0100
1000
0010
,
0100
0001
0001
0100
,
0020
1000
0100
0001
,
0230
0001
0010
1300
,
0001
0100
0010
1000
,
0010
0100
0001
1000
,
0002
0100
0010
1003
,
2000
0010
0200
3300
;

//---------------dance-single - ----------------
#NOTES:
     dance-single:
     :
     Medium:
     9:
     0.461612,0.526606,0.085977,0.379730,0.000000,451.000000,439.000000,12.000000,53.000000,0.000000,0.000000,0.461612,0.526606,0.085977,0.379730,0.000000,451.000000,439.000000,12.000000,53.000000,0.000000,0.000000:
0000
0000
0000
0000
,
0000
0000
0000
0000
,
0000
0000
0000
0000
,
0000
0000
0000
0000
,
0000
0000
0000
0000
,
0001
0100
0010
0000
,
1000
0010
0100
0000
,
1000
0001
0100
0000
,
0001
0000
1000
0000
0020
0000
0000
0030
,
1000
0001
0100
0100
,
0010
1000
0002
1003
,
0010
0100
0001
0001
,
0100
0010
2000
3001
,
0010
1000
0100
0100
,
0001
1000
0020
0130
,
0001
0100
1000
1000
,
0010
0100
0002
1003
,
0010
0000
1000
0000
0001
0100
0001
0000
,
0010
1000
0100
0010
,
0001
0000
0100
0000
1000
0100
1000
0000
,
0010
1000
0100
1001
,
0010
0000
0100
0000
0001
0100
0001
0000
,
0010
1000
0010
0100
,
0001
0000
0010
0000
1000
0100
1000
0000
,
0010
1000
0001
1001
,
0010
0000
0100
1000
0000
1000
0100
0000
,
0010
1000
0001
0100
,
0010
0000
0001
0010
0000
0010
0001
0000
,
0100
0010
1000
1010
,
0001
0000
1000
0010
0000
0110
0000
0000
,
0001
1000
0010
0001
,
1000
0000
0010
0100
0000
0100
0001
0000
,
0010
1000
0010
0100
,
0002
0000
0000
0003
0100
0000
0000
0000
,
2000
0000
3100
0000
,
0002
0000
0013
0000
,
2000
0000
3010
0000
,
0002
0000
0023
0000
,
0230
0000
2300
0000
,
3002
0000
0000
0003
2000
0000
0000
0000
,
3020
0000
0230
0000
,
0302
0000
0000
0000
,
2000
0000
0000
3003
,
0001
0001
1000
0010
,
0100
0000
0010
0100
0000
0100
0010
0000
,
0001
1000
0010
0100
,
0001
0000
1000
0001
0000
0001
1000
0000
,
0010
1000
0100
0001
,
0010
0000
0100
0010
0000
0010
0100
0000
,
0001
0100
0010
1000
,
0010
0000
0001
1000
0000
1000
0001
0000
,
2000
0000
0010
0000
0100
0000
0010
3000
,
0001
0001
0100
0100
,
0010
1000
0010
0100
,
0001
0010
0220
0330
,
0002
0100
0010
0100
,
1000
1000
1003
0010
,
1000
0010
0100
0001
,
0100
0100
0110
0001
,
0002
0000
0000
0013
,
0020
0000
0000
0130
,
0200
0000
0000
1300
,
2000
0000
3020
0000
,
0032
0000
0000
0103
,
0200
0000
0000
0310
,
0020
0000
0000
1030
,
2000
0000
3020
0000
,
0130
0000
0001
0000
0100
0010
0100
0000
,
0001
0100
0010
1000
,
0100
0000
0010
0000
0001
1000
0001
0000
,
0010
1000
0100
0010
,
0001
0000
0010
0000
1000
0001
1000
0000
,
0100
0010
1000
0100
,
0001
0000
0010
0100
0000
0100
0010
0000
,
0002
0000
2000
3003
,
0001
1000
0100
0010
,
1000
0010
1000
0000
0001
0000
1000
0000
,
0010
1000
0100
0001
,
0010
0001
0010
0000
0100
0000
0010
0000
,
1000
0010
0100
0001
,
0010
0001
0100
0000
0010
0000
1000
0000
,
0100
0001
0010
0100
,
1000
0010
0100
0000
0020
0000
0000
0000
,
0230
0000
0000
0001
,
0302
0000
0000
0010
,
0023
0000
0000
1000
,
2030
0000
3200
0000
,
0320
0000
0000
0100
,
0230
0000
0000
1000
,
2300
0000
0000
0000
,
0002
0000
0000
3003
,
0001
0001
0100
0010
,
1000
0000
0010
0100
0000
0100
0010
0000
,
0001
1000
0010
0100
,
0001
0000
1000
0001
0000
0001
1000
0000
,
0010
1000
0100
0010
,
0001
0000
0100
0010
0000
0010
0100
0000
,
0001
0100
0001
0000
1000
0100
1000
0000
,
0010
0100
2002
3003
,
0010
0000
0010
0000
1000
0010
1000
0010
,
0100
0001
1000
0010
,
1000
0000
0001
0000
0100
0001
0100
0001
,
0010
0100
0001
1000
,
0010
0000
0010
0000
0001
1000
0001
1000
,
0010
1000
0100
0010
,
0001
0000
1000
0000
0001
1000
0001
1000
,
0100
0010
1000
0001
,
0210
0010
0010
1000
,
1000
0001
0002
0303
,
0001
0100
0010
1000
,
0010
0000
0010
0100
0000
0100
0010
0000
,
2001
0001
0100
0100
,
0010
0010
0020
3030
,
0001
0100
0010
1000
,
0010
0000
0001
1000
0000
1000
0001
0000
,
0200
0010
1000
0010
,
0001
0001
1000
1300
,
0010
1000
0010
0100
,
0001
0100
0110
1100
,
0002
0100
0010
0100
,
1000
1000
0100
0103
,
0010
0100
1000
0010
,
0100
0000
0010
0100
0110
0000
0000
0000
;

//---------------dance-single - ----------------
#NOTES:
     dance-single:
     :
     Hard:
     12:
     0.587506,0.702142,0.100306,0.207777,0.000000,574.000000,560.000000,14.000000,29.000000,0.000000,0.000000,0.587506,0.702142,0.100306,0.207777,0.000000,574.000000,560.000000,14.000000,29.000000,0.000000,0.000000:
// measure 0
0000
0000
0000
0000
,  // measure 1
0000
0000
0000
0000
,  // measure 2
0000
0000
0000
0000
,  // measure 3
0000
0000
0000
0000
,  // measure 4
0000
0000
0000
0000
,  // measure 5
2000
0000
0000
3020
0000
0000
0230
0000
,  // measure 6
0000
0302
0000
0000
0013
0000
0100
0000
,  // measure 7
0002
0000
0000
0203
0000
0000
0320
0000
,  // measure 8
0000
2030
0000
0000
3001
1000
1001
0000
,  // measure 9
0010
0000
1000
0010
0000
0010
0100
0000
,  // measure 10
0100
0001
0000
0001
1000
0000
1001
0000
,  // measure 11
0001
0000
0001
0100
0000
0100
0010
0000
,  // measure 12
0010
1000
0000
1000
0001
0000
1001
0000
,  // measure 13
0010
0000
1000
0010
0000
0010
0100
0000
,  // measure 14
0100
0001
0000
0001
0010
0000
0011
0000
,  // measure 15
0001
0000
0001
0100
0000
0100
0010
0000
,  // measure 16
0010
0100
0000
0100
1000
0000
1100
0000
,  // measure 17
1000
0000
0100
0010
0000
0010
0100
0000
,  // measure 18
0001
0100
0010
0000
1000
0010
0100
0000
,  // measure 19
0001
0000
1000
0001
0000
0001
1000
0000
,  // measure 20
0010
1000
0001
0000
0100
0010
1000
0000
,  // measure 21
0001
0000
0100
0001
0000
0001
1000
0000
,  // measure 22
0010
0100
0001
0000
0010
0100
1000
0000
,  // measure 23
0010
0000
1000
0001
0000
0001
0010
0000
,  // measure 24
1000
0010
0100
0000
0001
0100
0010
1000
,  // measure 25
0001
0000
0100
0010
0000
0010
0100
0000
,  // measure 26
0001
1000
0010
0000
0010
1000
0001
0100
,  // measure 27
0010
0000
1000
0001
0000
0001
1000
0000
,  // measure 28
0010
0100
0001
0000
0001
1000
0010
0100
,  // measure 29
0001
0000
1000
0100
0000
0100
0010
0000
,  // measure 30
0001
0100
0010
0000
1000
0010
0100
0001
,  // measure 31
0010
0000
0100
1000
0000
1000
0100
0000
,  // measure 32
0001
0100
0010
1000
0010
0100
0001
0000
,  // measure 33
0200
0000
1000
0000
,  // measure 34
0001
0000
1300
0000
,  // measure 35
0020
0000
1000
0000
,  // measure 36
0001
0000
1030
0000
,  // measure 37
0200
0000
0001
0000
,  // measure 38
1000
0000
0310
0000
,  // measure 39
0002
0000
1000
0000
,  // measure 40
0100
0000
0013
0000
,  // measure 41
0100
0000
0010
1000
0000
1000
0001
0000
,  // measure 42
0001
0100
0000
0100
0010
0000
0110
0000
,  // measure 43
0001
0000
0100
0000
0010
1000
0010
1000
,  // measure 44
0100
0000
0001
0010
0000
0010
1000
0100
,  // measure 45
0001
0000
0100
0000
0001
0100
0010
1000
,  // measure 46
0100
0000
0010
1000
0000
1000
0100
0001
,  // measure 47
0100
0000
0010
0000
0100
0001
0010
0100
,  // measure 48
1000
0000
1000
0100
0000
0001
0100
0010
,  // measure 49
1000
0100
0010
0100
0001
0010
0100
1000
,  // measure 50
0010
0000
0010
1000
0000
1000
0001
0000
,  // measure 51
1001
0010
0100
1000
,  // measure 52
0010
0000
0100
0000
0010
0100
0000
0100
,  // measure 53
0001
1000
0010
0100
0001
0000
0001
0100
,  // measure 54
1000
0000
1000
0100
0000
0010
0001
0000
,  // measure 55
0210
0010
1000
1000
,  // measure 56
0010
0000
0010
0000
0301
1000
0000
0000
,  // measure 57
0001
1000
0010
1000
0100
0000
0010
0100
,  // measure 58
0001
0000
0001
0100
0010
0000
2000
0000
,  // measure 59
0001
0000
0000
0010
,  // measure 60
0010
0000
0000
0100
,  // measure 61
0100
0000
0000
0010
,  // measure 62
0010
0000
0001
3000
,  // measure 63
0002
0000
0000
0100
,  // measure 64
0100
0000
0000
0010
,  // measure 65
0010
0000
0000
0100
,  // measure 66
0100
0000
1000
0003
,  // measure 67
1000
0000
0010
0000
1000
0001
0100
0000
,  // measure 68
0010
0000
1000
0001
0010
0000
1000
0000
,  // measure 69
0001
0000
0100
0000
0001
0100
0010
0000
,  // measure 70
1000
0000
0010
1000
0100
0000
0001
0000
,  // measure 71
0100
0000
0010
0000
1000
0100
0001
0000
,  // measure 72
0010
0000
0001
0010
1000
0000
0010
1000
,  // measure 73
0001
0000
0001
0010
0000
0100
1000
0010
,  // measure 74
0100
0000
0001
1000
0010
0000
0100
0000
,  // measure 75
0020
0000
0100
0000
0031
0000
0100
0001
,  // measure 76
1000
0000
0010
0100
0000
1000
0001
0000
,  // measure 77
0100
0010
1000
0000
0001
0100
0010
0000
,  // measure 78
1000
0000
0010
1000
0000
0100
0001
0000
,  // measure 79
2000
0000
0010
0000
3100
0000
0001
0100
,  // measure 80
0010
0000
1000
0100
0000
0010
0100
0000
,  // measure 81
0001
0010
0100
1000
0000
1000
0100
0010
,  // measure 82
0100
0001
0100
0000
,  // measure 83
0020
0000
0100
0000
,  // measure 84
0001
0000
0130
0000
,  // measure 85
0200
0000
1000
0000
,  // measure 86
0010
0000
1300
0000
,  // measure 87
0002
0000
1000
0000
,  // measure 88
0100
0000
0013
0000
,  // measure 89
2000
0000
0001
0000
,  // measure 90
0010
0000
3100
0000
,  // measure 91
0011
0000
0001
0000
1000
0010
0100
0001
,  // measure 92
0010
0000
0100
1000
0000
1000
0100
0001
,  // measure 93
0010
0100
1000
0010
0100
0001
0010
0100
,  // measure 94
1000
0000
0010
0100
0000
0100
0010
0000
,  // measure 95
0001
0000
1000
0000
0010
1000
0100
0010
,  // measure 96
0001
0000
0001
0100
0000
0100
0010
0000
,  // measure 97
1000
0010
0001
0100
0001
0010
0100
1000
,  // measure 98
0010
0000
1000
0100
0000
0001
0010
0000
,  // measure 99
0011
0000
0011
0000
0010
0100
1000
0010
,  // measure 100
0100
0000
0001
0010
0000
1000
0100
0010
,  // measure 101
0100
0001
0010
0100
1000
0010
1000
0100
,  // measure 102
0010
0000
0001
0010
0000
0100
1000
0000
,  // measure 103
1100
0000
1100
0000
1000
0100
0010
0100
,  // measure 104
0001
0000
0001
0010
0000
1000
0100
0010
,  // measure 105
0100
0001
0010
0100
1000
0010
1000
0100
,  // measure 106
0010
0000
0001
0010
0000
0100
1000
0000
,  // measure 107
0020
0100
0001
0130
,  // measure 108
0200
0001
1000
0301
,  // measure 109
0010
1000
0010
0100
0001
0010
0100
1000
,  // measure 110
0010
0000
0010
0100
0000
0100
0010
0000
,  // measure 111
0020
0100
0001
0130
,  // measure 112
0200
0001
1000
0301
,  // measure 113
0010
1000
0100
0001
0010
0100
1000
0010
,  // measure 114
0100
0000
0001
0010
0000
1000
0100
0000
,  // measure 115
0002
0100
0010
0103
,  // measure 116
2000
0010
0100
3010
,  // measure 117
0001
0100
0010
1000
0100
0010
0001
0100
,  // measure 118
0010
0000
0001
0010
0000
1000
0100
0000
,  // measure 119
0200
0001
0010
1300
,  // measure 120
0002
1000
0100
0013
,  // measure 121
0001
0100
0010
1000
0100
0010
0001
0100
,  // measure 122
0010
0100
0001
1000
1001
0000
0000
0000
;
