#TITLE:ジオメトリック∮ティーパーティー;
#SUBTITLE:;
#ARTIST:The Chattering Hatter;
#TITLETRANSLIT:;
#SUBTITLETRANSLIT:;
#ARTISTTRANSLIT:;
#GENRE:pop'n music;
#CREDIT:;
#BANNER:;
#BACKGROUND:;
#LYRICSPATH:;
#CDTITLE:;
#MUSIC:Geometric tea party.ogg;
#OFFSET:-0.830000;
#SAMPLESTART:22.387444;
#SAMPLELENGTH:12.000000;
#SELECTABLE:YES;
#DISPLAYBPM:132.000000:188.000000;
#BPMS:0.000000=188.000000
,131.500000=129.000000
,137.000000=132.000000
,149.000000=138.000000
,158.000000=188.000000
,285.000000=206.000000
,288.000000=188.000000
;
#STOPS:
;
#BGCHANGES:;
#KEYSOUNDS:;
#ATTACKS:;

//---------------dance-single - ----------------
#NOTES:
     dance-single:
     :
     Easy:
     8:
     0.386571,0.631530,0.289370,0.281549,0.023462,346.000000,309.000000,37.000000,36.000000,0.000000,0.000000,0.386571,0.631530,0.289370,0.281549,0.023462,346.000000,309.000000,37.000000,36.000000,0.000000,0.000000:
// measure 0
0000
0000
0000
0000
,  // measure 1
0000
0000
0000
0000
,  // measure 2
0000
0000
0000
0000
,  // measure 3
0000
0000
0000
0000
,  // measure 4
0000
0000
0000
0000
,  // measure 5
1000
0100
1000
0100
,  // measure 6
0001
0010
0001
0010
,  // measure 7
1000
0001
1000
0001
,  // measure 8
0100
0010
0100
0000
0010
0100
0010
0000
,  // measure 9
2001
0000
0000
0000
,  // measure 10
3002
0000
0000
0000
0000
2003
0000
0000
,  // measure 11
0000
0000
3002
0000
0000
0000
0000
1003
,  // measure 12
0000
0100
0000
0010
0000
0001
0000
1000
,  // measure 13
0000
0010
0000
0100
0000
0001
0000
0001
,  // measure 14
0000
0100
0000
0010
0000
1000
0000
0001
,  // measure 15
0000
0100
0000
0010
0000
1000
0000
0001
,  // measure 16
0000
1000
0000
0001
0000
1000
0000
0110
,  // measure 17
0000
0000
0000
0110
0000
0000
0000
1000
,  // measure 18
0001
1000
0000
1001
0000
0000
0000
0010
,  // measure 19
0000
0100
0000
1000
0000
0001
0000
0100
,  // measure 20
0000
0010
0100
0020
0000
0000
0000
1030
,  // measure 21
0000
0000
0000
1001
0000
0000
0000
1000
,  // measure 22
0001
1000
0000
1001
0000
0000
0000
0100
,  // measure 23
0000
1000
0000
0010
0000
0001
0000
0100
,  // measure 24
0000
0010
0100
0020
0000
0000
0000
0130
,  // measure 25
0000
0001
0000
0100
0000
1000
0000
1001
,  // measure 26
0000
0100
0010
0100
0000
0000
0000
0001
,  // measure 27
0000
1000
0000
0100
0000
0010
0000
0001
,  // measure 28
0000
1000
0000
0000
0000
0001
0000
0000
0000
1000
0000
0000
0000
0000
0000
0000
0000
0000
0000
0000
0000
0010
0000
0000
,  // measure 29
0100
0010
0100
0000
0000
0000
0000
1000
,  // measure 30
0001
1000
0001
0000
0000
0000
0000
0001
,  // measure 31
0000
0010
0000
0000
0100
0000
1000
0000
0000
0000
0000
0000
0000
0000
1001
0000
,  // measure 32
0001
1000
0000
0110
0100
0010
0000
2002
,  // measure 33
0000
0000
0000
0000
,  // measure 34
3003
2000
0000
3100
,  // measure 35
0200
0000
0310
0001
,  // measure 36
0010
0100
2000
0000
,  // measure 37
3001
1000
0010
0100
,  // measure 38
0001
0100
0010
1000
,  // measure 39
0001
1000
0001
1001
,  // measure 40
0000
0100
0000
0110
0000
0000
0000
0000
,  // measure 41
1000
0001
1000
0010
,  // measure 42
0100
0000
0000
0001
0000
0000
1000
0000
0000
0000
0000
0000
0000
0000
0000
0000
,  // measure 43
0010
0100
0001
0100
,  // measure 44
1000
0100
0001
0010
,  // measure 45
1000
0010
0001
1000
,  // measure 46
0000
0001
0000
1000
0000
0000
0001
0000
,  // measure 47
1000
1001
0001
1000
,  // measure 48
0010
0100
0002
1000
,  // measure 49
0000
0013
2000
0100
,  // measure 50
0000
3010
0200
0010
,  // measure 51
0000
1300
0020
0001
,  // measure 52
0000
0000
1000
1000
1030
0000
0010
0000
,  // measure 53
0100
0000
0001
0001
0001
0000
0100
0000
,  // measure 54
0010
0000
1000
1000
1000
0000
0010
0000
,  // measure 55
0100
0000
0001
0001
0001
0000
0100
0000
,  // measure 56
0010
0100
0220
0000
,  // measure 57
0000
0000
0000
0000
,  // measure 58
0300
0000
0000
0000
0000
0000
0100
0100
,  // measure 59
0130
0000
0000
0110
0000
0000
0000
0000
,  // measure 60
0001
0000
0000
1001
0000
0000
0000
0000
,  // measure 61
0001
0000
0000
1100
0000
0000
0000
0000
,  // measure 62
1000
0000
0000
0011
0000
0000
0000
0000
,  // measure 63
1000
0001
0100
0110
,  // measure 64
0001
0100
0010
1000
,  // measure 65
0001
1000
0010
0110
,  // measure 66
0001
0000
0100
1000
0000
0010
0001
0000
,  // measure 67
1002
0000
0000
0000
,  // measure 68
2003
0000
0000
0000
0000
3002
0000
0000
,  // measure 69
0000
2003
0000
3002
,  // measure 70
0000
2003
3002
2003
,  // measure 71
3001
0000
0000
2002
0000
0000
0000
0000
0000
3003
0000
0001
,  // measure 72
0000
0000
0000
1000
0000
0000
0000
0000
0001
0000
0000
0000
1000
0000
0000
0000
0000
0000
0001
0000
0000
0000
0000
0000
,  // measure 73
0001
0001
0010
0100
,  // measure 74
0010
0010
0010
0100
2001
0000
0000
0000
,  // measure 75
0000
0000
0001
0000
,  // measure 76
0000
0000
0100
0000
,  // measure 77
0000
0000
0010
0000
,  // measure 78
3000
0000
1001
0000
,  // measure 79
1001
0000
0010
0100
,  // measure 80
0220
0330
0001
0100
,  // measure 81
1000
0010
0001
1000
,  // measure 82
0022
0000
0033
0000
1100
0000
0000
0001
,  // measure 83
1000
0000
0000
0010
0100
0000
0001
0000
,  // measure 84
1000
0010
0100
0000
0001
0100
0010
0100
,  // measure 85
0001
0100
0010
0000
1000
0010
0100
0010
,  // measure 86
1000
0010
0100
0000
0001
0100
0101
0000
,  // measure 87
1000
0100
1100
0000
0001
0010
0011
0000
,  // measure 88
1000
0010
1010
0000
0001
0100
1000
0000
,  // measure 89
0010
0000
1001
0000
1000
0010
0001
0000
,  // measure 90
0100
0110
2002
0000
,  // measure 91
0000
0000
0000
0000
,  // measure 92
3003
0010
0100
0010
,  // measure 93
1000
0001
1000
0001
1001
0000
0220
0000
,  // measure 94
0000
0000
0000
0000
,  // measure 95
0330
0000
0000
0000
;

//---------------dance-single - ----------------
#NOTES:
     dance-single:
     :
     Beginner:
     6:
     0.223452,0.482935,0.148595,0.320653,0.000000,200.000000,181.000000,19.000000,41.000000,0.000000,0.000000,0.223452,0.482935,0.148595,0.320653,0.000000,200.000000,181.000000,19.000000,41.000000,0.000000,0.000000:
// measure 0
0000
0000
0000
0000
,  // measure 1
0000
0000
0000
0000
,  // measure 2
0000
0000
0000
0000
,  // measure 3
0000
0000
0000
0000
,  // measure 4
0000
0000
0000
0000
,  // measure 5
0001
0010
0000
0010
,  // measure 6
0000
0100
0000
0100
,  // measure 7
0000
1000
0000
1000
,  // measure 8
0000
0001
0000
0001
,  // measure 9
2000
0000
0000
0000
,  // measure 10
3002
0000
0000
0000
0000
2000
0000
0000
,  // measure 11
0000
0000
0003
0000
0000
0000
0000
3001
,  // measure 12
0000
0000
0000
0001
0000
0000
0000
1000
,  // measure 13
0000
0000
0000
1000
0000
0000
0000
0010
,  // measure 14
0000
0000
0000
0010
0000
0000
0000
0100
,  // measure 15
0000
0000
0000
0100
0000
0000
0000
0010
,  // measure 16
0000
0000
0000
0010
0000
0000
0000
1001
,  // measure 17
0000
0000
0000
0001
0000
0000
0000
1000
,  // measure 18
0000
0001
0000
1000
0000
0000
0000
0010
,  // measure 19
0000
0000
0000
0100
0000
0000
0000
0010
,  // measure 20
0000
0100
0000
0010
0000
0000
0000
1000
,  // measure 21
0000
0000
0000
0001
0000
0000
0000
1000
,  // measure 22
0000
0001
0000
1000
0000
0000
0000
0010
,  // measure 23
0000
0000
0000
0100
0000
0000
0000
0010
,  // measure 24
0000
0100
0000
0010
0000
0000
0000
2002
,  // measure 25
0000
0000
0000
3003
0000
0000
0000
0220
,  // measure 26
0000
0000
0000
0330
0000
0000
0000
1000
,  // measure 27
0000
0000
0000
0100
0000
0000
0000
0010
,  // measure 28
0000
0010
0000
0010
0000
0000
0000
0001
,  // measure 29
0000
0100
0000
0000
0000
0000
0000
1000
,  // measure 30
0000
0010
0000
0000
0000
0000
0000
0002
,  // measure 31
0000
0000
0000
2003
0000
0000
0000
3002
,  // measure 32
0000
0000
0000
2003
0000
0000
0000
3020
,  // measure 33
0000
0000
0000
0000
,  // measure 34
0000
0130
0000
0100
,  // measure 35
0010
0000
0000
0010
,  // measure 36
0001
1000
0001
0000
,  // measure 37
1000
0001
1000
0010
,  // measure 38
1000
0001
0100
0010
,  // measure 39
0010
0010
2002
0000
,  // measure 40
0000
0000
3003
0000
,  // measure 41
0000
0000
0220
0000
,  // measure 42
0000
0000
0330
0000
,  // measure 43
0000
0000
1000
0100
,  // measure 44
0100
0010
0001
0010
,  // measure 45
0010
0100
0002
0000
,  // measure 46
0000
2003
0000
0000
0000
0000
3002
0000
,  // measure 47
0000
0000
1003
0010
,  // measure 48
0100
0001
0020
0000
,  // measure 49
0000
0000
0230
0000
,  // measure 50
0000
0000
0302
0000
,  // measure 51
0000
0000
2003
0000
,  // measure 52
0000
0000
3001
0100
,  // measure 53
1000
0100
0001
0010
,  // measure 54
1000
0010
0001
1000
,  // measure 55
0001
1000
0010
0100
,  // measure 56
0010
0100
0020
0000
,  // measure 57
0000
0000
0000
0000
,  // measure 58
0000
0000
0000
0000
,  // measure 59
0130
0000
0000
0000
,  // measure 60
0100
0000
0000
0000
,  // measure 61
0010
0000
0000
0000
,  // measure 62
0010
0000
0000
0000
,  // measure 63
1000
0000
0001
0000
,  // measure 64
1000
0000
0001
0000
,  // measure 65
0100
0000
0010
0000
,  // measure 66
0100
0000
0010
0000
,  // measure 67
2002
0000
0000
3003
,  // measure 68
0220
0000
0000
0330
,  // measure 69
0000
2002
0000
0000
,  // measure 70
3003
0220
0000
0000
,  // measure 71
0330
0002
0000
0000
,  // measure 72
1003
0000
1000
0000
,  // measure 73
0010
0000
0100
0000
,  // measure 74
0001
0000
1001
0000
,  // measure 75
0000
0000
0000
0000
,  // measure 76
0000
0000
0000
0000
,  // measure 77
0000
0000
0000
0000
,  // measure 78
0000
0000
1001
0000
,  // measure 79
0100
0000
1001
0000
,  // measure 80
0010
0000
2002
0000
,  // measure 81
0000
3003
0220
0000
,  // measure 82
0000
0330
0001
0000
,  // measure 83
0100
0000
1000
0010
,  // measure 84
0001
0100
0010
0100
,  // measure 85
0001
1000
0010
0100
,  // measure 86
0001
1000
0001
1001
,  // measure 87
1000
1001
0010
0110
,  // measure 88
0100
0110
0100
0001
,  // measure 89
1000
0010
0100
0001
,  // measure 90
1000
0010
0200
0000
,  // measure 91
0000
0000
0020
0000
,  // measure 92
0330
0001
0100
1000
,  // measure 93
0010
1000
0001
2002
,  // measure 94
0000
0000
0000
0000
,  // measure 95
3003
0000
0000
0000
;

//---------------dance-single - ----------------
#NOTES:
     dance-single:
     :
     Medium:
     13:
     0.534050,0.705828,0.195520,0.265908,0.156416,478.000000,453.000000,25.000000,34.000000,0.000000,0.000000,0.534050,0.705828,0.195520,0.265908,0.156416,478.000000,453.000000,25.000000,34.000000,0.000000,0.000000:
// measure 0
0000
0000
0000
0000
,  // measure 1
0000
0000
0000
0000
,  // measure 2
0000
0000
0000
0000
,  // measure 3
0000
0000
0000
0000
,  // measure 4
0000
0000
0000
0000
,  // measure 5
1000
0010
0100
0000
0001
1000
0011
0000
,  // measure 6
0001
0100
1000
0000
1000
0010
0001
0000
,  // measure 7
0001
0100
0010
0000
1000
0001
1010
0000
,  // measure 8
0001
0100
1000
1000
1000
0010
0001
0000
,  // measure 9
0002
1000
1000
1000
,  // measure 10
1003
0000
0010
0000
0100
0000
0001
0100
,  // measure 11
0010
1000
0000
0010
0100
0001
1000
0210
,  // measure 12
0000
0000
0000
0010
0000
0000
0000
0320
,  // measure 13
0000
0000
0000
1030
0000
0001
0000
0200
,  // measure 14
0000
0000
0000
0320
0000
0000
0000
1030
,  // measure 15
0000
0001
0000
1000
0000
0001
0000
0100
,  // measure 16
0000
0010
0000
0100
0000
0010
0000
0200
,  // measure 17
0000
0000
0000
0320
0000
0000
0000
0031
,  // measure 18
0010
0100
1000
0100
0000
1000
0000
1000
,  // measure 19
0100
0010
0001
0100
1000
0010
0100
0001
,  // measure 20
0000
1000
0010
0100
0000
1001
0000
2000
,  // measure 21
0000
0000
0000
3002
0000
0000
0000
1003
,  // measure 22
0010
0100
0001
1000
0000
0010
0000
0001
,  // measure 23
0010
0100
1000
0001
0100
0010
1000
0002
,  // measure 24
0000
2003
0000
3020
0000
0230
0000
0302
,  // measure 25
0000
0000
0000
1003
0000
0010
0000
0100
,  // measure 26
0000
0001
1000
0200
0000
0010
0000
0320
,  // measure 27
0000
0000
0000
2030
0000
3002
0000
1003
,  // measure 28
0000
0000
0010
0000
0000
0000
0000
0000
0000
0000
0100
0000
0000
0000
0000
0000
0000
0000
0002
0000
0000
0000
0000
0000
0000
0000
0000
0000
0000
0000
0000
0000
0000
0000
0000
0000
0000
0000
0000
0003
0000
0000
0100
0000
0000
0000
0000
0000
,  // measure 29
0010
1000
0200
0000
0000
0000
0000
0310
,  // measure 30
0100
0001
0020
0000
0000
0000
0000
1030
,  // measure 31
0000
0001
0000
0000
1000
0000
0001
0000
0000
0000
0100
0000
0000
0000
0010
0000
,  // measure 32
0000
0100
0000
0001
1000
0001
1000
0002
,  // measure 33
0000
0000
0000
0000
,  // measure 34
0000
0000
0000
0003
1000
0000
0100
0000
0010
0000
0001
0000
1000
0000
0000
0000
,  // measure 35
0001
0010
0100
1000
0001
0000
1000
0010
,  // measure 36
0100
0001
1000
0010
0100
0001
0010
0000
,  // measure 37
1001
0000
0001
1000
0010
0100
0001
1000
,  // measure 38
0010
0100
0001
0010
0100
1000
0010
1000
,  // measure 39
0100
0001
0100
0010
2000
0000
3010
0000
,  // measure 40
0000
1001
0000
0010
0002
0000
0103
0000
,  // measure 41
0010
0000
0010
0000
0100
0001
1001
0000
,  // measure 42
0010
0000
0000
1000
0000
0000
0001
0000
0000
0000
1000
0000
0010
0000
0100
0000
,  // measure 43
0001
0000
1000
0000
1001
0000
0010
1000
,  // measure 44
0000
1000
0010
0000
0001
0100
0000
0100
,  // measure 45
0001
1000
0010
1010
,  // measure 46
0000
0001
0000
0101
0000
0000
1000
0000
,  // measure 47
1100
1000
0002
1000
,  // measure 48
1003
0000
0000
0000
1001
0000
0000
0000
0010
0000
0000
1000
0000
0000
0010
0000
,  // measure 49
0000
1000
0000
0000
0010
0000
0000
0000
0100
0000
0000
0001
0000
0000
0100
0000
,  // measure 50
0000
0001
0000
0000
0100
0000
0000
0000
0001
0000
0000
1000
0000
0000
0001
0000
,  // measure 51
0000
1000
0000
0000
0001
0000
0000
0000
0010
0000
0000
0100
0000
0000
0010
0000
,  // measure 52
0000
0100
0000
0000
0010
0000
0000
0000
0001
0000
0000
0010
0000
0000
0100
0000
,  // measure 53
0000
0010
0000
0000
0001
0000
0000
0000
1000
0000
0000
0100
0000
0000
0010
0000
,  // measure 54
0000
0100
0000
0000
1000
0000
0000
0000
0001
0000
0000
0100
0000
0000
0010
0000
,  // measure 55
0000
0000
0000
0100
0000
0000
0000
0000
0000
0000
0000
0000
0001
0000
0000
0000
0000
0000
0000
0000
0000
0000
0000
0000
1000
0000
0000
0000
0000
0000
0000
0000
0010
0000
0000
0000
0000
0000
0000
0000
0100
0000
0000
0000
0000
0000
0000
0000
,  // measure 56
0010
0000
1000
0000
0010
0000
0200
0000
0000
0000
0000
0000
,  // measure 57
0000
0000
0000
0000
0000
0000
0000
0000
0000
0000
0000
0000
0000
0000
0000
0300
0001
0000
0000
0000
1000
0000
0000
0000
,  // measure 58
0001
0000
0000
0000
1000
0000
0000
0000
0001
0000
0000
0000
1000
0000
0000
0001
0000
0000
1000
0000
0000
1000
0000
0000
,  // measure 59
1000
0001
0000
1001
0000
0000
0000
0000
,  // measure 60
0010
0100
0000
0110
0000
0000
0000
0000
,  // measure 61
1000
0001
0000
1001
0000
0000
0000
0000
,  // measure 62
0010
0100
0000
0110
0000
0000
0000
0000
,  // measure 63
1000
0100
0010
0001
0000
1000
1001
0000
,  // measure 64
0001
0010
0100
1000
0000
0001
1001
0000
,  // measure 65
1000
0010
0100
0001
0000
0001
1001
0000
,  // measure 66
0001
0100
0010
1000
0000
1000
1001
0000
,  // measure 67
0200
0010
0010
0310
,  // measure 68
0010
0100
0010
0100
0010
0000
1000
0001
,  // measure 69
1000
0001
1000
0000
0010
0100
0001
0000
,  // measure 70
0001
1000
0010
0100
0001
1000
0010
0100
,  // measure 71
0001
1000
0020
0000
0000
0000
0000
0030
,  // measure 72
0100
0000
0000
0000
0100
0000
0000
0000
0100
0000
0000
0000
0100
0000
0000
1000
0000
0000
0001
0000
0000
0100
0000
0000
,  // measure 73
0010
1000
0001
0100
0010
1000
0100
0010
,  // measure 74
0001
0000
1000
0001
1000
0001
1000
0000
0002
0000
0000
0000
0000
0000
0000
0000
,  // measure 75
1000
0000
1000
0000
,  // measure 76
1003
0000
0200
0000
,  // measure 77
0010
0000
0010
0000
,  // measure 78
0310
0000
1001
0000
,  // measure 79
0110
0000
0000
0000
0001
0010
0100
1000
,  // measure 80
0001
0000
1001
0000
1000
0010
0100
0001
,  // measure 81
1000
0010
0100
0001
2000
0000
0000
0000
,  // measure 82
0001
0000
0000
0000
3001
0000
0000
0000
1001
0000
0000
0000
0000
0000
0001
1000
,  // measure 83
0001
0000
0000
0000
0000
0000
0100
0010
0100
0000
0000
0000
0001
0000
0000
0000
,  // measure 84
1000
0010
0100
0001
0010
0100
1000
0010
,  // measure 85
1000
0100
0010
1000
0001
0100
0010
1000
,  // measure 86
0001
1000
0001
1000
0001
0000
0000
0000
0100
0000
0010
0100
0010
0000
0000
0000
,  // measure 87
0001
0000
1000
0001
1000
0000
0000
0000
0010
0000
1000
0010
1000
0000
0000
0000
,  // measure 88
0100
0000
0001
0100
0001
0000
0000
0000
0001
0000
0100
0000
1000
0000
0010
0000
,  // measure 89
1000
0001
0100
0010
1000
0100
0001
0010
,  // measure 90
0100
1000
0010
0100
0002
0000
0000
0000
,  // measure 91
1003
0000
0000
0000
1000
0001
0100
0010
,  // measure 92
1000
0000
1000
0010
0100
0001
0010
0000
,  // measure 93
0001
0000
1000
0000
0001
1000
0001
1000
0001
0000
0000
0000
2002
0000
0000
0000
,  // measure 94
0000
0000
0000
0000
,  // measure 95
3003
0000
0000
0000
;

//---------------dance-single - ----------------
#NOTES:
     dance-single:
     :
     Hard:
     17:
     0.791019,1.151614,0.563098,0.250266,0.523994,708.000000,636.000000,72.000000,32.000000,0.000000,0.000000,0.791019,1.151614,0.563098,0.250266,0.523994,708.000000,636.000000,72.000000,32.000000,0.000000,0.000000:
// measure 0
0000
0000
0000
0000
,  // measure 1
0000
0000
0000
0000
,  // measure 2
0000
0000
0000
0000
,  // measure 3
0000
0000
0000
0000
,  // measure 4
0000
0000
0000
0000
,  // measure 5
1000
0000
0100
0000
0010
0000
0100
0001
0100
0000
0001
0000
0010
0000
0000
0000
,  // measure 6
0001
0000
0010
0000
0100
0000
0010
1000
0010
0000
1000
0000
0100
0000
0000
0000
,  // measure 7
0010
0000
1000
0000
0001
0000
0100
0010
0100
0000
0001
0000
1000
0000
0000
0000
,  // measure 8
0001
1000
0010
0100
0001
1000
0010
0100
,  // measure 9
1001
1100
0011
0110
,  // measure 10
0001
0100
1000
0100
0001
0000
0001
0010
,  // measure 11
1000
0000
0010
0000
0001
0000
1000
0000
0010
0000
0100
0000
0001
0100
0020
0000
,  // measure 12
0000
1000
0000
0100
0000
0031
0000
0010
,  // measure 13
1000
0001
0100
0010
1000
0001
0010
0200
,  // measure 14
0000
0301
0000
1000
0000
0000
0000
0000
0000
0100
0000
0010
0000
0100
0000
0010
0000
0100
0000
0010
0000
0110
0000
0000
,  // measure 15
0000
1001
0000
1010
0000
0101
0000
0011
,  // measure 16
0000
1100
0000
1010
0000
0101
0000
0210
,  // measure 17
0000
0301
0000
1002
0000
0103
0000
0010
,  // measure 18
1000
0001
0100
0110
0000
0011
0000
0001
,  // measure 19
0100
0010
1000
0100
0010
0001
0010
0011
,  // measure 20
0000
0001
0100
0110
0000
1001
0000
1020
,  // measure 21
0000
1030
0000
2001
0000
3001
0000
0101
,  // measure 22
0010
0100
1000
1100
0000
1001
0000
0001
,  // measure 23
0100
0010
0100
0001
1000
0010
1000
0101
,  // measure 24
0000
0010
0100
1100
0010
0100
0001
2001
,  // measure 25
0000
0000
0000
0001
0000
3001
0000
0110
,  // measure 26
0000
1000
0010
0200
0000
0310
0000
0020
,  // measure 27
0000
0000
0000
1030
0000
0001
0000
0100
,  // measure 28
0000
0010
0000
0000
0000
1000
0000
0000
0000
0001
0000
0000
0000
0000
0000
1001
0000
0000
0000
0000
0000
0001
0000
0000
,  // measure 29
1000
0100
0020
0100
0000
0030
0000
1000
,  // measure 30
0001
0010
0200
0010
0000
0300
0000
0110
,  // measure 31
0000
0001
0000
0000
1000
0000
2002
0000
0000
0000
3003
0000
0000
0000
1000
0000
,  // measure 32
0001
0000
1000
0000
0010
0000
0001
0010
0100
1000
0001
0100
0010
1000
0002
0000
,  // measure 33
0000
0000
0000
0000
,  // measure 34
0000
0000
1003
0100
0010
0100
0001
1000
,  // measure 35
0010
0100
0001
0010
0100
1000
0010
1000
,  // measure 36
0100
0010
0001
0100
0010
1000
0100
0010
,  // measure 37
0001
0100
0010
1000
0100
0010
0001
0100
,  // measure 38
0010
1000
0100
0001
0010
0100
1000
0010
,  // measure 39
1000
0100
0001
0100
0001
0000
0101
0000
,  // measure 40
0000
1000
0000
1100
1000
0000
0000
0010
,  // measure 41
0110
0000
1000
0000
0001
0000
0100
0000
0000
1001
0000
0000
,  // measure 42
0110
0000
0000
1001
0000
0000
0110
0000
0000
0000
0000
0001
0000
0000
1001
0000
,  // measure 43
0000
0000
0010
0000
1000
0000
0001
0000
0100
0000
0010
0000
1000
0010
1000
0010
,  // measure 44
1000
0000
0100
0000
0001
0000
1000
0000
0010
0000
0100
0000
0001
0100
0001
0100
,  // measure 45
0001
0000
0100
0000
0010
0000
1000
0000
0001
1000
0010
1000
0001
0000
0000
0000
,  // measure 46
0000
0000
1000
0001
0100
0001
1000
0000
0000
0000
0000
0000
0001
0010
0100
1000
,  // measure 47
0001
0000
0000
0000
0100
0010
0100
0010
2002
0000
0000
0000
0000
0000
0000
0000
,  // measure 48
0003
0000
0000
0000
3001
0000
0000
0000
0010
0000
1000
0010
0000
1000
0010
0000
,  // measure 49
1000
0010
0000
1000
0010
0000
0100
0000
0001
0000
0100
0001
0000
0100
0001
0000
,  // measure 50
0100
0001
0000
0100
0001
0000
1000
0000
0001
0000
1000
0001
0000
1000
0001
0000
,  // measure 51
1000
0001
0000
1000
0001
0000
0100
0000
0010
0000
0100
0010
0000
0100
0010
0000
,  // measure 52
0100
0010
0000
0100
0010
0000
1000
0000
0001
0000
0100
0001
0000
0100
0010
0000
,  // measure 53
0100
0001
0000
0100
0010
0000
1000
0000
0010
0000
0100
0010
0000
1000
0010
0000
,  // measure 54
0100
0010
0000
1000
0010
0000
0100
0000
0001
0000
1000
0010
0000
1000
0001
0000
,  // measure 55
1000
0000
0000
0010
0000
0000
0000
0000
0000
1000
0000
0000
0001
0000
0000
0000
0000
0000
0100
0000
0000
0000
0000
0000
0001
0000
0000
0000
0000
0000
0000
0000
1000
0000
0000
0000
0000
0000
0000
0000
1001
0000
0000
0000
0000
0000
0000
0000
,  // measure 56
0010
0000
0100
0000
0110
0000
1000
0000
0001
0000
1000
0000
,  // measure 57
0001
0000
1000
0000
0001
0000
1000
0000
0001
0000
1000
0000
,  // measure 58
0001
0000
0000
0000
1000
0000
0000
0000
0001
0000
0000
0000
1000
0000
0000
0001
0000
0000
1000
0000
0000
1000
0000
0000
,  // measure 59
1002
0000
0000
1000
0000
0000
1003
0000
,  // measure 60
0120
0000
0000
0100
0000
0000
0130
0000
,  // measure 61
0210
0000
0000
0010
0000
0000
0310
0000
,  // measure 62
2001
0000
0000
0001
0000
0000
3001
0000
,  // measure 63
0001
0000
0010
0000
0100
0000
1000
0010
1000
0000
0010
0000
0100
0000
0001
0000
,  // measure 64
0010
0000
1000
0000
0100
0000
0001
0100
0001
0000
0100
0000
0010
0000
1000
0000
,  // measure 65
0100
0000
0010
0000
0001
0000
1000
0001
1000
0000
0010
0000
0100
0000
0001
0000
,  // measure 66
1000
0010
1000
0100
0001
0010
0100
0001
,  // measure 67
1001
1100
0101
1001
,  // measure 68
0110
0100
0010
0100
0010
1001
1000
0001
,  // measure 69
1000
0000
0001
0000
1000
0000
0010
0100
0001
0000
1000
0000
0010
0000
0100
0010
,  // measure 70
1000
0001
1000
1010
1000
1001
0001
0101
,  // measure 71
0001
0000
0000
1001
0000
0000
0010
0000
0000
0000
0100
0000
0010
0000
0100
0000
0010
0000
0100
0000
0010
0000
0100
0000
,  // measure 72
0110
0000
0000
0000
1001
0000
0000
0000
0110
0000
0000
0000
1001
0000
0000
0100
0000
0000
0010
0000
0000
1000
0000
0000
,  // measure 73
0010
0000
0100
0000
0001
0000
1000
0000
0010
0000
0100
0010
0100
0000
0001
1000
,  // measure 74
0001
0000
0010
0100
0010
1000
0001
0100
0020
0000
0000
0000
0000
0000
0000
0000
,  // measure 75
0230
0000
0000
0000
0301
1000
0010
0100
,  // measure 76
0001
0000
1001
0000
0010
1000
0100
0010
,  // measure 77
0001
0100
0010
1000
1001
0000
0010
0100
,  // measure 78
0110
0000
2002
3003
,  // measure 79
0220
0000
0330
0000
0001
0100
0010
1000
,  // measure 80
0100
0000
1100
0000
1000
0100
0010
0100
,  // measure 81
0001
0010
0100
1000
0010
0000
0001
1000
,  // measure 82
0001
0000
1000
0000
0010
0000
0100
0000
0110
0000
0000
0000
0000
0000
0001
1000
,  // measure 83
0010
0000
0000
0000
0000
0000
1000
0001
0100
0000
0100
0001
1000
0000
0001
1000
,  // measure 84
0010
0100
0010
0001
1000
0100
0010
0100
0001
0010
0001
0100
0001
0000
1000
0100
,  // measure 85
1000
0010
1000
0000
0001
0100
0010
1000
0001
0010
0100
1000
0001
0100
0010
1000
,  // measure 86
0001
1000
0010
0100
1000
0001
0100
0000
0100
0010
1000
0010
0100
0000
0000
0000
,  // measure 87
0010
0100
0001
0100
0010
0000
0000
0000
0001
0010
0100
0010
0001
0000
0000
0000
,  // measure 88
1000
0100
0010
0100
1000
0000
0000
0000
0001
0010
0100
0010
1000
0100
0010
0100
,  // measure 89
0001
1000
0010
0100
0010
0000
0000
0000
1000
0100
0010
0100
0001
0010
0100
0010
,  // measure 90
1000
0001
0100
0010
0001
0000
0000
0000
2200
0000
0000
0000
3300
0000
0000
0000
,  // measure 91
0022
0000
0033
0000
1000
0010
0100
0001
,  // measure 92
1001
0000
0001
0100
0010
1000
1001
0000
,  // measure 93
1000
0100
0010
0001
1000
0010
0100
0001
1000
0000
0000
0000
0220
0000
0000
0000
,  // measure 94
0000
0000
0000
0000
,  // measure 95
0330
0000
0000
0000
;
