#TITLE:骸骨楽団とリリア;
#SUBTITLE:;
#ARTIST:トーマ;
#TITLETRANSLIT:Gaikotsu Gakudan to Riria;
#SUBTITLETRANSLIT:;
#ARTISTTRANSLIT:Tohma;
#GENRE:Anime/Game;
#CREDIT:;
#BANNER:;
#BACKGROUND:;
#LYRICSPATH:;
#CDTITLE:;
#MUSIC:Gaikotsu Gakudan to Riria.ogg;
#OFFSET:1.582000;
#SAMPLESTART:49.661812;
#SAMPLELENGTH:15.000000;
#LASTBEATHINT:1.179401;
#SELECTABLE:YES;
#BPMS:0.000000=130.000000
;
#STOPS:
;
#BGCHANGES:;
#KEYSOUNDS:;
#ATTACKS:;

//---------------dance-single - ----------------
#NOTES:
     dance-single:
     :
     Hard:
     15:
     0.768337,0.779514,0.538798,0.038486,0.707173,559.000000,503.000000,56.000000,4.000000,0.000000,0.000000,0.768337,0.779514,0.538798,0.038486,0.707173,559.000000,503.000000,56.000000,4.000000,0.000000,0.000000:
// measure 0
0000
0000
0000
0000
,  // measure 1
0000
0000
0000
0000
,  // measure 2
0000
0000
0000
0000
,  // measure 3
0010
0000
1000
0000
0010
1000
0100
0010
0001
0000
0010
0000
0100
0000
1000
0000
,  // measure 4
0010
1000
0100
0000
0001
0100
0010
0000
1000
0010
0001
0100
0010
0000
0001
0000
,  // measure 5
1001
0000
1000
0000
0010
0000
1000
0000
0010
0000
0100
0001
0000
0001
0100
0000
,  // measure 6
0010
0000
1000
0000
0001
0000
0100
0000
0010
0000
1000
0010
0000
0010
1000
0000
,  // measure 7
0001
0000
0010
0000
0100
0000
0001
0000
1000
0000
0010
0100
0000
0100
0010
0000
,  // measure 8
0001
0000
0010
0000
0100
0000
1000
0000
0010
0000
1000
0010
0000
0010
0100
0000
,  // measure 9
0001
0000
0100
0000
0000
0000
0010
0000
0000
0000
1000
0000
0000
0010
1000
0000
,  // measure 10
1001
0000
0000
0010
0000
0000
0000
0000
0000
0100
0000
0000
0001
0000
0100
0001
0000
0100
0001
0000
0000
0000
0000
0000
,  // measure 11
0010
0000
0000
1000
0000
0010
1000
0000
0000
0001
0000
0010
0000
0000
0010
1000
0000
0000
0010
0000
0000
1000
0000
0001
,  // measure 12
0010
0000
0000
0010
0000
0000
1000
0000
0000
0010
0000
1000
0000
0000
0001
0100
0000
0010
0100
0000
0000
0001
0000
0000
,  // measure 13
1000
0000
0000
0010
0000
0000
1000
0000
0001
0000
0000
1001
0000
0000
0000
0001
0000
0000
1000
0000
0000
0010
0000
0000
,  // measure 14
0101
0010
1100
0010
0101
0010
1100
1000
,  // measure 15
0100
0000
0000
0001
0000
0100
0001
0000
0000
1000
0000
0100
0000
0000
0100
0001
0000
0000
0100
0000
0000
0001
0000
1000
,  // measure 16
0100
0000
0000
0100
0000
0000
0001
0000
0000
0100
0000
0001
0000
0000
1000
0010
0000
0100
0010
0000
0000
1000
0000
0000
,  // measure 17
0001
0000
0000
0100
0000
0000
0001
0000
1000
0000
0000
1001
0000
0000
0000
1000
0000
0000
0001
0000
0000
0100
0000
0000
,  // measure 18
1010
0100
0011
0100
1010
0100
0011
0001
,  // measure 19
0100
0000
0001
0010
0000
1000
0000
0110
0000
0001
0100
0010
1000
0000
0010
0000
,  // measure 20
1000
0000
0100
0000
0001
0010
0100
1000
0000
1000
0100
0010
0001
0000
0000
0000
,  // measure 21
0001
0000
1000
0010
0000
1000
0100
0010
0000
0100
0010
0001
1000
0000
0100
0010
,  // measure 22
1000
0010
0100
0001
0010
0100
1000
0010
0000
1000
0010
0100
0001
0000
0000
0000
,  // measure 23
0010
0000
1000
0100
0000
0001
0000
0110
0000
1000
0010
0100
0001
0000
0100
0000
,  // measure 24
0001
0000
0010
0000
1000
0100
0010
0001
0000
0001
0010
0100
1000
0000
0000
0000
,  // measure 25
1000
0000
0001
0100
0000
0001
0010
0100
0000
0010
0100
1000
0001
0000
0010
0100
,  // measure 26
0001
0100
0010
1000
0100
0010
0001
0100
1000
0001
0100
0010
1000
0100
0010
0000
,  // measure 27
2100
3100
0102
0103
0220
0030
0301
1000
,  // measure 28
0110
0000
0001
0000
1000
0000
0010
1000
0000
1000
0010
0100
0001
0000
0010
0000
,  // measure 29
0100
0000
0010
0000
1000
0000
0001
0100
0000
0001
0010
0100
1000
0010
0100
0000
,  // measure 30
0001
0000
0100
0000
0010
1000
0000
1000
0010
0000
0100
0000
0001
0000
1000
0000
,  // measure 31
1100
0000
0000
0100
0000
0000
0101
0000
0011
0000
0000
0010
0000
0000
1010
0000
,  // measure 32
1000
0000
0010
0000
1000
0000
0001
0100
0000
0001
0100
0010
1000
0100
0010
0001
,  // measure 33
0010
0000
0100
0000
0010
0000
1000
0001
0000
0001
0010
1000
0100
0010
0100
0000
,  // measure 34
0001
0000
0010
0000
0100
1000
0000
0010
1000
0000
0100
0000
0001
0000
1000
0000
,  // measure 35
1001
0000
0000
0000
0000
0000
1000
0000
0000
0000
0000
0000
0001
0000
0000
0010
0000
0000
0001
0000
0000
0010
0000
0000
0001
0000
0000
0000
0100
0000
0010
0000
0000
0000
0110
0000
0000
0000
0000
0000
0000
0000
0000
0000
0000
0000
0000
0000
,  // measure 36
1001
0000
1000
0000
0010
0000
1000
0000
0010
0000
0100
0001
0000
0001
0100
1000
,  // measure 37
0010
0000
1000
0000
0001
0000
0100
0000
0010
0000
1000
0010
0000
0010
1000
0100
,  // measure 38
0001
0000
0010
0000
0100
0000
0001
0000
1000
0000
0010
0100
0000
0100
0010
1000
,  // measure 39
0001
0000
0010
0000
0100
0000
1000
0000
0010
0000
1000
0010
0000
0010
0100
0000
,  // measure 40
0110
0000
1000
0000
0001
0000
0100
0001
0000
0001
0100
0010
1000
0000
0100
0000
,  // measure 41
0010
0000
0100
0000
0001
0000
1000
0010
0000
1000
0100
0010
0001
0100
0010
0000
,  // measure 42
0001
0000
0010
0000
0100
0001
0000
0001
0100
0000
0010
0000
1000
0000
0001
0000
,  // measure 43
0011
0000
0000
0010
0000
0000
1010
0000
1100
0000
0000
0100
0000
0000
0101
0000
,  // measure 44
0001
0000
0100
0000
0001
0000
1000
0010
0000
1000
0010
0100
0001
0010
0100
1000
,  // measure 45
0100
0000
0010
0000
0100
0000
0001
1000
0000
1000
0100
0001
0010
0100
0010
0000
,  // measure 46
1000
0000
0100
0000
0010
0001
0000
0100
0001
0000
0010
0000
1000
0000
0001
0000
,  // measure 47
1001
0101
0110
1100
,  // measure 48
1100
0000
0010
0000
0100
0001
0000
0001
0010
0000
1000
0000
0010
0000
0100
0000
,  // measure 49
0101
0100
1100
1000
1010
0010
0011
0001
,  // measure 50
1001
0000
1000
0000
0001
1000
0000
1000
0010
0000
0100
0000
0001
0000
1000
0000
,  // measure 51
0011
0010
1010
1000
1100
0100
0101
0001
,  // measure 52
1001
0000
0010
0000
0100
1000
0000
0010
1000
0000
0100
0000
0001
0000
0100
0000
,  // measure 53
1100
0110
0101
0110
1010
0110
0011
0110
,  // measure 54
1100
0001
0010
1000
0010
0100
0001
1000
,  // measure 55
1001
0000
0000
0010
0000
0100
0010
0000
0100
0001
0000
0000
0010
0000
0100
1000
0000
0010
0000
0000
0000
1001
0000
0000
;

//---------------dance-single - ----------------
#NOTES:
     dance-single:
     :
     Medium:
     12:
     0.527802,0.537596,0.105835,0.202049,0.125078,384.000000,373.000000,11.000000,21.000000,0.000000,0.000000,0.527802,0.537596,0.105835,0.202049,0.125078,384.000000,373.000000,11.000000,21.000000,0.000000,0.000000:
0000
0000
0000
0000
,
0000
0000
0000
0000
,
0000
0000
0000
0000
,
0010
1000
0001
0100
0010
1000
0100
0010
,
0001
0010
0100
1000
0020
0000
0000
0000
,
0130
0000
0000
0001
0000
0000
1000
0000
0000
0010
0000
0000
0100
0000
0000
0001
0000
0100
0000
0000
0100
0001
0000
0000
,
0010
0000
0000
1000
0000
0000
0010
0000
0000
0100
0000
0000
0001
0000
0000
1000
0000
0010
0000
0000
0010
1000
0000
0000
,
0001
0000
0000
0010
0000
0000
1000
0000
0000
0100
0000
0000
0010
0000
0000
0001
0000
1000
0000
0000
1000
0001
0000
0000
,
0010
0000
0000
1000
0000
0000
0100
0000
0000
0010
0000
0000
0001
0000
0000
0100
0000
0010
0000
0000
0010
0100
0000
0000
,
1001
0000
0000
0000
0000
0000
0000
0110
,
1001
0000
0000
0000
0000
0000
0000
0000
0000
0000
0000
0000
0001
0000
1000
0001
0000
1000
0001
0000
0000
0000
0000
0000
,
0020
0000
0130
0000
0001
1000
0010
0100
,
2000
0000
3100
0000
0010
1000
0001
0100
,
0020
0000
0130
0000
0001
1000
0010
1000
,
0200
2300
3020
0032
,
0013
0000
0000
0100
0000
0000
0001
0000
0000
1000
0000
0000
0010
0000
0000
0100
0000
0001
0000
0000
0001
0100
0000
0000
,
0010
0000
0000
1000
0000
0000
0100
0000
0000
0001
0000
0000
0010
0000
0000
1000
0000
0010
0000
0000
0010
1000
0000
0000
,
0001
0000
0000
0010
0000
0000
1000
0000
0000
0100
0000
0020
0000
0000
0000
0130
0000
0000
0001
0000
0000
0010
0000
0000
,
2000
3010
0002
0103
,
0010
1000
0001
0100
0010
1000
0100
0010
,
0001
0010
0100
1000
0010
0200
0310
0000
,
0001
0010
1000
0100
0010
1000
0010
0100
,
0001
0010
1000
0100
0001
0020
0130
0000
,
0001
0010
1000
0100
0010
0100
0001
0010
,
0100
1000
0010
0100
0001
2000
3001
0000
,
0010
1000
0100
0010
0100
0001
0010
0100
,
0002
0000
0100
0000
0103
0010
1000
0001
,
0200
0000
0010
0000
0310
0001
0010
1000
,
1100
1000
0100
0010
0100
0001
0010
0000
,
0011
0010
0100
0001
0010
0100
1000
0010
,
1000
0001
0100
0010
1000
0001
0100
0010
,
1100
0000
0000
0100
0000
0000
0010
0000
0100
0000
0000
0010
0000
0000
0001
0000
,
1000
0010
0100
1000
0010
1000
0100
0001
,
0010
0100
1000
0010
1000
0100
0001
0100
,
0001
0010
0100
1000
0010
0100
0001
0010
,
0200
0010
0010
0310
,
0001
0000
0000
0100
0000
0000
0010
0000
0000
1000
0000
0000
0100
0000
0000
0010
0000
1000
0000
0000
1000
0010
0000
0000
,
0001
0000
0000
0010
0000
0000
1000
0000
0000
0100
0000
0000
0010
0000
0000
0001
0000
0100
0000
0000
0100
0001
0000
0000
,
0010
0000
0000
0100
0000
0000
1000
0000
0000
0010
0000
0000
0100
0000
0000
0001
0000
0100
0000
0000
0100
0001
0000
0000
,
0010
1000
0100
0001
0010
1000
0001
0100
,
0011
0001
0010
0100
0010
1000
0100
0000
,
1100
0100
0010
1000
0100
0010
0001
0100
,
0001
1000
0010
0100
0001
1000
0010
0100
,
0011
0000
0000
0010
0000
0000
0100
0000
0010
0000
0000
0100
0000
0000
1000
0000
,
0001
0100
0010
0001
0100
0001
0010
1000
,
0100
0010
0001
0100
0001
0010
1000
0010
,
1000
0100
0010
0001
0100
0010
1000
0100
,
0020
0100
0100
0130
,
0001
1000
0010
1000
0100
0010
0100
0001
,
0200
0010
0010
0310
,
0001
1000
0010
1000
0100
0001
0010
0100
,
0020
0100
0100
0130
,
0001
1000
0010
1000
0100
0001
0010
0100
,
2000
0001
0001
3001
,
0010
1000
0100
0010
0100
0001
0010
0100
,
1000
0000
0000
0000
0000
0000
1100
0000
0000
0000
0000
0000
0010
0000
0000
1000
0000
0001
0000
0000
0000
1001
0000
0000
;

//---------------dance-single - ----------------
#NOTES:
     dance-single:
     :
     Easy:
     8:
     0.420593,0.403197,0.307885,0.057728,0.000000,306.000000,274.000000,32.000000,6.000000,0.000000,0.000000,0.420593,0.403197,0.307885,0.057728,0.000000,306.000000,274.000000,32.000000,6.000000,0.000000,0.000000:
0000
0000
0000
0000
,
0000
0000
0000
0000
,
0000
0000
0000
0000
,
0001
1000
0010
0100
0001
0000
0110
0000
,
0001
0100
0010
1000
0100
0000
0110
0000
,
0001
0100
0010
0000
1000
0010
0100
0000
,
0001
0100
1000
0000
1000
0010
0001
0000
,
0001
0100
0010
0000
0100
0010
1000
0000
,
0001
0010
1000
0000
1000
0010
0001
0000
,
1001
0000
0000
0000
0000
0000
0000
0100
,
0010
0000
0000
0000
0001
0010
1000
0000
,
0010
1000
0001
0000
0100
0000
1001
0000
,
0001
1000
0010
0000
0100
0000
1001
0000
,
0010
1000
0100
0000
0010
0100
0001
0000
,
0010
0100
1100
0101
,
0001
1000
0010
0000
0100
0001
1000
0000
,
0010
1000
0100
0000
0001
0100
0010
0000
,
1000
0001
0010
0100
1000
0000
0010
0000
,
1100
0101
0011
1010
,
0001
1000
0010
0000
0010
1000
0001
0000
,
0001
0100
0010
1000
0100
0010
0001
0000
,
1000
0010
0100
0000
0100
0001
0010
0000
,
0001
0010
0100
0000
1000
0000
1100
0000
,
0010
1000
0001
0000
0001
0100
1000
0000
,
0010
0100
0001
0100
0010
1000
0100
0000
,
0010
1000
0001
0000
0100
1000
0001
0000
,
0010
0000
0100
0000
1000
0010
0100
0000
,
0001
0000
0100
0000
0010
0000
0011
0100
,
1000
0010
0100
0000
0001
0000
1001
0000
,
0001
0100
0010
0000
1000
0000
1001
0000
,
0010
0100
0001
0000
0100
0010
1000
0000
,
1100
0001
0011
1000
,
0010
1000
0001
0000
0100
0000
0110
0000
,
0001
0100
1000
0000
0010
0000
0110
0000
,
0001
1000
0010
0000
0100
0001
1000
0000
,
0020
0100
0100
0130
,
0001
0100
0010
0000
1000
0000
1001
0000
,
1000
0010
0100
0000
0001
0000
1001
0000
,
0010
0100
0001
0000
0100
0000
0110
0000
,
0100
0010
1000
0000
0010
0000
0110
0000
,
0001
0100
0010
0000
1000
0000
1001
0000
,
1000
0010
0100
0000
0001
0000
1001
0000
,
0100
0010
1000
0000
0010
0100
0001
0000
,
0011
1000
1100
0001
,
0100
0001
1000
0000
0010
0000
0110
0000
,
1000
0010
0001
0000
0100
0000
0110
0000
,
1000
0001
0100
0000
0010
1000
0001
0000
,
0200
0010
0010
0310
,
0001
0000
1000
0010
0100
0000
0001
0000
,
0200
0010
0010
0310
,
0001
0000
1000
0001
0100
0000
0010
0000
,
0002
1000
1000
1003
,
0010
0000
1000
0001
0100
0000
0010
0000
,
2000
0100
0010
3100
,
0001
0100
0010
1000
0010
0000
0101
0000
,
2100
0000
0100
0000
3100
0000
0000
1001
;

//---------------dance-single - ----------------
#NOTES:
     dance-single:
     :
     Beginner:
     5:
     0.180058,0.211671,0.086593,0.000000,0.000000,131.000000,122.000000,9.000000,0.000000,0.000000,0.000000,0.180058,0.211671,0.086593,0.000000,0.000000,131.000000,122.000000,9.000000,0.000000,0.000000,0.000000:
0000
0000
0000
0000
,
0000
0000
0000
0000
,
0000
0000
0000
0000
,
0000
0000
0000
0000
,
0000
0000
0000
0000
,
0010
0010
0010
0000
,
0100
0100
0100
0000
,
0010
0010
0010
0000
,
0100
0100
0100
0000
,
1001
0000
0000
0000
,
1001
0000
0000
0000
,
1000
0100
1000
0000
,
0100
0001
0100
0000
,
0010
0000
1000
0000
,
0001
0000
0100
0000
,
0010
0001
0010
0000
,
0010
0100
0010
0000
,
0001
0000
0100
0000
,
0010
0000
1000
0000
,
0100
0000
1000
0000
,
0010
0000
0001
0000
,
0100
0000
1000
0000
,
0010
0000
0001
0000
,
0001
0000
0010
0000
,
1000
0000
0100
0000
,
0001
0000
0010
0000
,
1000
0000
0100
0000
,
0010
0000
0001
0000
,
1000
0100
1000
0000
,
0001
0100
0001
0000
,
1000
0010
1000
0000
,
1001
0000
1001
0000
,
0001
0010
0001
0000
,
1000
0010
1000
0000
,
0010
0000
0100
0000
,
0110
0000
0000
0000
,
1000
1000
1000
0000
,
0001
0001
0001
0000
,
1000
1000
1000
0000
,
0001
0001
0001
0000
,
0001
0010
0001
0000
,
1000
0010
1000
0000
,
0001
0100
0001
0000
,
1001
0000
1001
0000
,
1000
0100
1000
0000
,
0001
0100
0001
0000
,
0100
0000
0010
0000
,
0110
0000
0000
0000
,
1000
0000
0100
0000
,
0010
0010
0010
0000
,
0001
0000
0010
0000
,
0100
0100
0100
0000
,
1000
0000
0100
0000
,
0001
0001
0001
0000
,
0001
0000
0100
0000
,
1001
0000
0000
0000
;
