#TITLE:ガヴリールドロップキック (IIDX Edition);
#SUBTITLE:;
#ARTIST:Remixed by かめりあ (From ガヴリールドロップアウト);
#TITLETRANSLIT:Gabriel Dropkick (IIDX Edition);
#SUBTITLETRANSLIT:;
#ARTISTTRANSLIT:Remixed by Camellia (From Gabriel Dropout);
#GENRE:Anime/Game;
#CREDIT:;
#BANNER:;
#BACKGROUND:;
#LYRICSPATH:;
#CDTITLE:;
#MUSIC:Gabriel Dropkick (IIDX Edition).ogg;
#OFFSET:0.000000;
#SAMPLESTART:71.079887;
#SAMPLELENGTH:15.000000;
#SELECTABLE:YES;
#BPMS:0.000000=155.000000
,12.000000=170.000000
,20.000000=160.000000
,24.000000=120.000000
,28.000000=106.000000
,32.000000=170.000000
;
#STOPS:
;
#BGCHANGES:;
#KEYSOUNDS:;
#ATTACKS:;

//---------------dance-single - ----------------
#NOTES:
     dance-single:
     :
     Beginner:
     4:
     0.148720,0.205502,0.033313,0.149910,0.000000,125.000000,121.000000,4.000000,18.000000,0.000000,0.000000,0.148720,0.205502,0.033313,0.149910,0.000000,125.000000,121.000000,4.000000,18.000000,0.000000,0.000000:
0000
0000
0000
0000
,
0000
0000
0000
0000
,
0000
0000
0000
0000
,
1000
0000
0000
0000
,
1000
0000
0000
0000
,
0001
0000
0000
0000
,
0001
0000
0000
0000
,
0200
0000
0000
0000
,
0000
0000
0300
0000
,
0000
0000
0000
0000
,
0100
0000
0100
0000
,
0010
0000
0010
0000
,
0100
0000
0100
0000
,
0010
0000
0010
0000
,
1000
0000
1000
0000
,
0001
0000
0001
0000
,
1000
0000
1000
0000
,
0001
0001
0001
0000
,
0200
0000
0000
0000
,
0300
0000
0000
0000
,
0010
0000
0010
0000
,
0100
0000
0100
0000
,
0020
0000
0000
0000
,
0030
0000
0000
0000
,
0001
0000
0001
0000
,
1000
0000
1000
0000
,
0001
0000
0100
0000
,
1000
0000
0100
0000
,
0010
0000
0010
0000
,
0010
0010
0010
0000
,
0001
0000
0010
0000
,
1000
0000
0010
0000
,
0200
0000
0000
0000
,
0300
0000
0000
0000
,
1000
0000
1000
0000
,
0001
0000
0001
0000
,
0100
0000
0010
0000
,
0100
0000
0010
0000
,
0001
0000
0001
0000
,
1000
0000
1000
0000
,
0010
0000
0100
0000
,
0010
0000
0100
0000
,
0002
0000
0003
0000
,
2000
0000
3000
0000
,
0100
0000
0100
0000
,
0010
0000
0010
0000
,
1000
0000
1000
0000
,
0001
0000
0001
0000
,
2002
0000
3003
0000
,
0100
0000
0100
0000
,
0010
0000
0010
0000
,
0200
0000
0300
0000
,
1000
0000
0100
0000
,
0001
0000
0001
0000
,
1000
0000
1000
0000
,
0020
0000
0030
0000
,
0001
0000
0010
0000
,
0100
0000
0100
0000
,
0010
0000
0010
0000
,
1000
0000
0001
0000
,
2002
0000
0000
0000
,
3003
0000
0000
0000
,
0000
0000
0000
0000
,
0100
0000
0000
0000
,
0010
0000
0000
0000
,
0220
0000
0000
0000
,
0330
0000
0000
0000
,
0000
0000
0000
0000
,
0001
0000
0001
0000
,
1000
0000
1000
0000
,
0200
0000
0300
0000
,
1000
0000
0100
0000
,
0001
0000
0001
0000
,
1000
0000
1000
0000
,
0020
0000
0030
0000
,
0001
0000
0010
0000
,
1000
0000
1000
0000
,
0001
0000
0001
0000
,
0100
0000
0010
0000
,
0220
0000
0000
0000
,
0330
0000
0000
0001
,
0000
0000
1000
0000
,
0000
0001
0000
0000
;

//---------------dance-single - ----------------
#NOTES:
     dance-single:
     :
     Easy:
     7:
     0.360498,0.549670,0.283163,0.316477,0.008328,303.000000,269.000000,34.000000,38.000000,0.000000,0.000000,0.360498,0.549670,0.283163,0.316477,0.008328,303.000000,269.000000,34.000000,38.000000,0.000000,0.000000:
0000
0000
0000
0000
,
0000
0000
0000
0000
,
0000
0000
0000
0000
,
1000
0100
1000
0000
,
0001
0010
0001
0000
,
0020
0000
0032
0000
,
0203
0000
0000
0000
1000
0000
0000
0000
1000
0000
0000
0000
,
2300
0000
0000
0000
,
3001
1000
0001
1000
,
1001
0110
1001
0000
,
0110
0100
1000
0100
,
0010
0001
0100
0010
,
1000
0100
0001
0010
,
0200
0010
0310
0000
,
0001
0100
1000
0010
,
1000
0100
0001
0010
,
1001
0110
1100
0101
,
1010
1001
0022
0033
,
0001
0100
1000
0010
,
0100
0100
0220
0330
,
1000
0100
0001
0010
,
0100
0100
0220
0330
,
1000
0100
0001
0100
,
1000
1000
2000
0000
,
3001
0010
1000
0010
,
0001
0001
0002
0000
,
1003
0100
0010
0010
,
0100
0001
0010
0010
,
0100
1000
0001
0001
,
0100
0001
1000
1000
,
1100
0100
0101
0001
,
0011
0010
1010
1000
,
2002
0000
0000
0000
,
3003
0000
0000
0000
,
1000
0100
1000
0100
,
0010
0100
0010
0010
,
0001
0010
0001
0010
,
0100
0010
0100
0100
,
1000
0100
0001
0010
,
0100
1000
0010
0001
,
0100
1000
0001
0010
,
1000
0100
0001
0010
,
0200
0000
0010
0000
,
0001
0000
1000
0300
,
1000
0100
0010
0010
,
0001
0010
0100
0100
,
0001
0100
1000
1000
,
1000
0010
0001
0001
,
0002
0000
1000
1000
,
1003
0010
0001
0100
,
1000
0001
0010
0100
,
2000
0002
3003
0000
,
0010
0001
0100
0110
,
0001
0100
1000
0010
,
0100
0001
1000
0010
,
0200
0020
0330
0000
,
0100
1000
0010
0110
,
0001
0010
0100
0110
,
1000
0100
0010
0110
,
0001
0011
1000
1100
,
1002
1000
1000
1003
,
0002
0000
0000
0203
,
0000
0000
2300
0000
,
3020
0000
0000
2030
,
0000
0000
3002
0000
,
0200
0000
0000
0303
,
0001
0100
1000
0010
,
0100
0100
0220
0330
,
0001
0100
1000
0010
,
0001
1000
0100
0010
,
0002
2000
3003
0000
,
0100
1000
0001
0110
,
1000
0010
0001
0100
,
0010
1000
0001
0100
,
0020
0200
0330
0000
,
1000
0001
0010
0110
,
1000
0100
0010
0110
,
0001
0010
0100
0110
,
1000
1100
0001
0011
,
2001
0001
0001
3001
,
0001
0010
0100
1000
,
0100
0010
0002
0000
,
2003
3010
0110
0000
;

//---------------dance-single - ----------------
#NOTES:
     dance-single:
     :
     Medium:
     11:
     0.522306,0.618379,0.349790,0.399760,0.054134,439.000000,397.000000,42.000000,48.000000,0.000000,0.000000,0.522306,0.618379,0.349790,0.399760,0.054134,439.000000,397.000000,42.000000,48.000000,0.000000,0.000000:
// measure 0
0000
0000
0000
0000
,  // measure 1
0000
0000
0000
0000
,  // measure 2
0000
0000
0000
0000
,  // measure 3
1000
0100
0010
0010
,  // measure 4
0001
0010
0100
0100
,  // measure 5
2000
3200
0320
0032
,  // measure 6
2003
0000
0000
0000
3002
0000
0000
0000
0203
0000
0000
0000
,  // measure 7
0320
0000
0000
0000
,  // measure 8
0130
0000
0000
0100
0000
0000
0100
0000
0010
0000
0000
0010
0000
0000
0010
0000
,  // measure 9
0100
0010
0100
0010
0220
0000
0330
0000
,  // measure 10
0001
0000
0100
0000
1000
0100
1000
0100
,  // measure 11
1000
0000
0010
0000
0001
0010
0001
0010
,  // measure 12
0001
0000
0010
0000
1000
0001
0100
0010
,  // measure 13
1000
1001
0210
0301
,  // measure 14
1000
0100
0010
0100
1000
0000
1001
0000
,  // measure 15
0001
0010
0100
0010
0001
0000
1001
0000
,  // measure 16
1100
0101
1100
0101
,  // measure 17
0011
1010
2002
3003
,  // measure 18
0010
0000
0100
0001
1000
0010
0100
0000
,  // measure 19
0001
0000
0010
0100
0010
0000
0010
0000
,  // measure 20
0001
0000
1000
0100
0001
0010
0100
0000
,  // measure 21
1000
0001
1000
0000
1001
0000
0110
0000
,  // measure 22
1000
0000
0010
0100
0001
1000
0010
0000
,  // measure 23
0001
0000
0010
1000
0001
0000
0100
0000
,  // measure 24
1001
0000
0010
1000
0100
0001
0010
0000
,  // measure 25
0100
0010
1000
0001
1000
0000
1001
0000
,  // measure 26
0001
0100
1000
0000
1000
0100
0010
0000
,  // measure 27
0001
0100
0010
1000
0001
0000
1001
0000
,  // measure 28
1000
0100
0001
0000
0001
0010
0100
0000
,  // measure 29
1000
0010
0100
0001
1000
0000
1001
0000
,  // measure 30
1100
0101
1100
0101
,  // measure 31
0011
1010
0011
1010
,  // measure 32
2002
0000
0000
0000
,  // measure 33
3003
0000
0000
0000
,  // measure 34
1000
0100
1000
0000
0100
0010
0100
0000
,  // measure 35
0010
0001
0010
0001
0100
0010
0100
0000
,  // measure 36
0001
0010
0001
0000
0100
0010
0100
0000
,  // measure 37
1000
0100
1000
0100
0010
0100
0010
0000
,  // measure 38
0001
0100
1000
0000
1000
0100
0001
0000
,  // measure 39
0001
0010
1000
0000
1000
0010
0001
0000
,  // measure 40
1000
0010
1000
0010
0001
0010
0001
0010
,  // measure 41
1000
0010
0100
0001
0100
0010
1000
0001
,  // measure 42
0200
0000
0000
0000
,  // measure 43
0010
0000
0000
0000
0000
0000
0020
0000
0000
0000
0000
0330
0000
0000
0000
0001
,  // measure 44
0000
0000
0100
1000
0000
1000
0100
0000
,  // measure 45
0100
0001
0000
0001
0010
0000
0010
1000
,  // measure 46
0000
1000
0010
0000
0010
0001
0000
0001
,  // measure 47
1000
2001
0100
3001
,  // measure 48
0200
0000
0010
0310
,  // measure 49
0001
0000
0000
0100
0001
0000
0100
0000
0010
0000
1000
0000
0010
0000
0100
0000
,  // measure 50
0001
0000
0010
1000
0001
0100
0010
1000
,  // measure 51
0002
2003
3020
0000
,  // measure 52
0130
0000
0000
0001
0000
0000
1000
0000
0010
0000
0000
0000
1001
0000
0000
0000
,  // measure 53
1000
0000
0000
0010
1000
0000
0010
0000
0100
0000
0001
0000
0100
0000
0010
0000
,  // measure 54
1000
0000
0100
0001
1000
0010
0100
0001
,  // measure 55
2000
3002
0203
0000
,  // measure 56
0310
0000
0000
1000
0000
0000
0001
0000
0100
0000
0000
0000
1001
0000
0000
0000
,  // measure 57
0001
0100
1000
0100
0001
0000
1001
0000
,  // measure 58
0001
0010
1000
0010
0001
0000
1001
0000
,  // measure 59
2100
3100
0102
0103
,  // measure 60
0010
0100
0010
0000
0001
1000
0001
0000
,  // measure 61
0200
1000
1000
0002
,  // measure 62
0303
0010
0001
0100
,  // measure 63
0020
0001
0001
2000
,  // measure 64
3030
0010
1000
0100
,  // measure 65
0200
0000
0000
0000
0010
0000
0000
0000
0010
0000
0000
0000
0010
0300
0000
0000
,  // measure 66
0001
0100
1000
0010
,  // measure 67
0100
0100
0220
0330
,  // measure 68
0001
0000
0000
0100
1000
0000
0001
0000
1000
0000
0010
0000
0001
0000
0100
0000
,  // measure 69
1000
0000
0100
0001
0100
0010
1000
0000
,  // measure 70
0002
2003
0200
3300
,  // measure 71
0010
0000
0000
1000
0000
0000
0100
0000
0010
0000
0000
0000
0110
0000
0000
0000
,  // measure 72
1000
0000
0000
0010
0001
0000
1000
0000
0001
0000
0100
0000
1000
0000
0010
0000
,  // measure 73
0001
0000
0010
1000
0010
0100
0001
0000
,  // measure 74
2000
3002
0020
0033
,  // measure 75
0100
0000
0000
0001
0000
0000
0010
0000
0100
0000
0000
0000
0110
0000
0000
0000
,  // measure 76
0001
0100
1000
0100
0001
0000
1001
0000
,  // measure 77
1000
0010
0001
0010
1000
0000
1001
0000
,  // measure 78
1000
0001
1001
0000
0010
0100
0110
0000
,  // measure 79
0001
1000
0001
0000
0100
0010
0100
0000
,  // measure 80
2000
3200
0320
0032
,  // measure 81
2003
3020
0230
0000
,  // measure 82
0302
1003
1001
0000
;

//---------------dance-single - ----------------
#NOTES:
     dance-single:
     :
     Hard:
     14:
     0.690062,0.927569,0.499700,0.391432,0.245686,580.000000,520.000000,60.000000,47.000000,0.000000,0.000000,0.690062,0.927569,0.499700,0.391432,0.245686,580.000000,520.000000,60.000000,47.000000,0.000000,0.000000:
// measure 0
0000
0000
0000
0000
,  // measure 1
0000
0000
0000
0000
,  // measure 2
0000
0000
0000
0000
,  // measure 3
1001
0000
0010
1000
0100
0010
0100
0000
,  // measure 4
1001
0000
0100
0001
0010
0100
0010
0000
,  // measure 5
2000
3020
0230
0302
,  // measure 6
2003
0000
0000
0000
3020
0000
0000
0000
0230
0000
0000
0000
,  // measure 7
0302
0000
0000
0000
,  // measure 8
1003
0000
0001
1000
0000
0001
1000
0000
0001
0000
1000
0001
0000
1000
0001
0000
,  // measure 9
1000
0001
1000
0001
1000
0001
1000
0002
2000
0000
0000
0000
3003
0000
0000
0000
,  // measure 10
0001
1000
0100
0010
0100
0001
0100
0010
,  // measure 11
1000
0100
0001
0010
0100
1000
0010
1000
,  // measure 12
0100
0001
0010
0100
1000
0010
1000
0100
,  // measure 13
1100
0000
0101
0000
1001
0001
1000
0000
,  // measure 14
0010
1000
0100
0010
0100
0001
0010
0100
,  // measure 15
1000
0010
1000
0100
0010
0100
0001
0100
,  // measure 16
0110
1100
0101
0110
,  // measure 17
1001
0110
2002
3003
,  // measure 18
0020
0000
0030
0100
0010
1000
0001
1000
,  // measure 19
0100
0000
0001
0010
0100
0000
1000
0000
,  // measure 20
1001
0000
0010
1000
0100
0010
0100
0001
,  // measure 21
0010
1000
0100
0010
1000
0001
0100
0000
,  // measure 22
0200
0000
0300
0010
0100
0001
1000
0010
,  // measure 23
0100
0000
0001
1000
0010
0000
0100
0000
,  // measure 24
0110
1000
0100
0010
0001
0100
0010
1000
,  // measure 25
0100
0010
0100
0001
0100
0010
0110
0000
,  // measure 26
0001
1000
0001
1000
0010
1000
0010
1000
,  // measure 27
0001
0100
0001
0100
0010
0100
0010
0100
,  // measure 28
0001
0010
0100
1000
0100
0010
0001
0010
,  // measure 29
0100
0001
1000
0010
0100
0001
1000
0000
,  // measure 30
1100
0101
0011
1010
,  // measure 31
1001
1100
0101
1001
,  // measure 32
0210
0000
0010
0000
,  // measure 33
0010
0000
0010
0300
,  // measure 34
0001
0100
1000
0100
0001
0100
1000
0100
,  // measure 35
0001
0010
1000
0010
0001
0010
1000
0010
,  // measure 36
0001
0100
0010
0100
0001
0100
0010
0100
,  // measure 37
1010
0000
0110
0000
1010
0010
0100
0000
,  // measure 38
1000
0001
0100
0010
1000
0001
0100
0010
,  // measure 39
0001
0010
0100
1000
0001
0010
0100
1000
,  // measure 40
1000
0010
0100
0001
0100
0010
1000
0001
,  // measure 41
0001
0100
0010
1000
0010
0100
0001
1000
,  // measure 42
0002
0000
0000
0100
0000
0000
0010
0000
,  // measure 43
0010
0000
0000
2000
0000
0000
3003
0000
,  // measure 44
0002
1000
1003
0020
0100
0130
2000
0100
,  // measure 45
3100
0002
0010
0013
2000
0010
3010
0002
,  // measure 46
0100
0103
2000
0001
3001
0020
0100
0130
,  // measure 47
0002
0010
0103
2000
0100
3010
0001
0100
,  // measure 48
0020
0000
0100
0000
0130
0010
0110
0000
,  // measure 49
0001
0000
0000
1000
0001
0000
1000
0000
0010
0000
0000
0100
0010
0000
0100
0000
,  // measure 50
0001
0000
0000
1000
0010
0000
1000
0000
1000
0000
0000
0001
0100
0000
0001
0000
,  // measure 51
0001
0000
1100
0000
0101
0000
0001
0100
,  // measure 52
0010
0000
0000
1010
0000
0000
0010
0000
1001
0000
1000
0000
0002
0000
0000
0000
,  // measure 53
1003
0000
0000
0001
1000
0000
0001
0000
0100
0000
0000
0010
0100
0000
0010
0000
,  // measure 54
1000
0000
0000
0001
0100
0000
0001
0000
0001
0000
0000
1000
0010
0000
1000
0000
,  // measure 55
1000
0000
0011
0000
1010
0000
1000
0010
,  // measure 56
0100
0000
0000
0101
0000
0000
0100
0000
1001
0000
0001
0000
2000
0000
0000
0000
,  // measure 57
3010
0000
0100
0010
0100
0000
0010
0000
1000
0000
0001
0000
1001
0000
0000
0000
,  // measure 58
0001
0000
1000
0001
1000
0000
0001
0000
0100
0000
0010
0000
0110
0000
0000
0000
,  // measure 59
0010
0100
0010
0100
0010
0000
0000
0000
0001
1000
0001
1000
0001
0000
0000
0000
,  // measure 60
0001
0100
0001
0100
1000
0100
1000
0100
0001
0010
0001
0010
1000
0010
1000
0010
,  // measure 61
0002
0203
0320
2030
,  // measure 62
0000
3020
0230
0302
,  // measure 63
2003
3020
0230
0302
,  // measure 64
0000
0203
0320
2030
,  // measure 65
3002
1000
1000
1003
,  // measure 66
0001
0000
0000
1000
0001
0000
1000
0000
0010
0000
0100
0000
0001
0000
1000
0000
,  // measure 67
0010
0100
0010
0110
,  // measure 68
0001
0000
0000
0100
0001
0000
0100
0000
0010
0000
0000
1000
0010
0000
1000
0000
,  // measure 69
0001
0000
0000
0100
0010
0000
1000
0000
0001
0000
0010
0000
1000
0000
0100
0000
,  // measure 70
0011
0000
0000
0000
0110
0000
0000
0000
1100
0000
0000
0000
1000
0000
0010
0100
,  // measure 71
0001
0000
0000
1100
0000
0000
0010
0000
1001
0000
0000
0000
1100
0000
0000
0000
,  // measure 72
1000
0000
0000
0010
1000
0000
0010
0000
0100
0000
0000
0001
0100
0000
0001
0000
,  // measure 73
1000
0000
0000
0010
0100
0000
0001
0000
1000
0000
0100
0000
0001
0000
0010
0000
,  // measure 74
1100
0000
0000
0000
0110
0000
0000
0000
0011
0000
0000
0000
0001
0000
0100
0010
,  // measure 75
1000
0000
0000
0011
0000
0000
0100
0000
1001
0000
0000
0000
0011
0000
0000
0000
,  // measure 76
1000
0000
1000
0010
0100
0000
0001
0000
0100
0000
0010
0000
1001
0000
0000
0000
,  // measure 77
0001
0000
0001
0100
0010
0000
1000
0000
0010
0000
0100
0000
1001
0000
0000
0000
,  // measure 78
0001
1000
0001
1000
0001
0000
0000
0000
0010
0100
0010
0100
0010
0000
0000
0000
,  // measure 79
0001
1000
0001
1000
0010
0100
0010
0100
0001
0100
0001
0100
1000
0010
1000
0010
,  // measure 80
1000
0011
0001
1010
,  // measure 81
0010
0101
2020
3030
,  // measure 82
1001
1100
0011
0000
;
