#TITLE:Far East S!ckbird (kazukism92 Mashup);
#SUBTITLE:;
#ARTIST:Remixed by kazukism92;
#TITLETRANSLIT:;
#SUBTITLETRANSLIT:;
#ARTISTTRANSLIT:;
#GENRE:DDR;
#CREDIT:;
#BANNER:;
#BACKGROUND:;
#LYRICSPATH:;
#CDTITLE:;
#MUSIC:Far East S!ckbird (kazukism92 Mashup).ogg;
#OFFSET:1.345000;
#SAMPLESTART:65.085121;
#SAMPLELENGTH:15.000000;
#LASTBEATHINT:0.712924;
#SELECTABLE:YES;
#DISPLAYBPM:177.000000;
#BPMS:0.000000=177.000000
,228.000000=174.499954
,232.000000=177.000000
;
#STOPS:
;
#BGCHANGES:;
#KEYSOUNDS:;
#ATTACKS:;

//---------------dance-single - ----------------
#NOTES:
     dance-single:
     :
     Hard:
     16:
     0.707554,0.958962,0.301087,0.255924,0.240870,658.000000,618.000000,40.000000,34.000000,0.000000,0.000000,0.707554,0.958962,0.301087,0.255924,0.240870,658.000000,618.000000,40.000000,34.000000,0.000000,0.000000:
// measure 0
0000
0000
0000
0000
,  // measure 1
0000
0000
0000
0000
,  // measure 2
0000
0000
0000
0000
,  // measure 3
0000
0000
0000
0000
,  // measure 4
0000
0000
0000
0000
,  // measure 5
1000
0100
1000
0000
0010
0100
0010
0000
,  // measure 6
0001
0010
0001
0000
1000
0001
1000
0000
,  // measure 7
0001
0100
0001
0000
1000
0100
1000
0000
,  // measure 8
0001
0010
0001
0000
1000
0010
1000
0000
,  // measure 9
0001
0100
1000
1000
0000
1000
0100
0100
,  // measure 10
0000
0100
0010
0010
0000
0010
0001
0001
,  // measure 11
0000
0001
0100
0100
0000
0100
0010
0010
,  // measure 12
0000
0010
1000
1000
0000
1000
0001
0001
,  // measure 13
0000
0001
0010
0100
0000
1000
0100
0010
,  // measure 14
0000
0001
0100
0010
0000
1000
0010
0100
,  // measure 15
0000
0001
0100
1000
0000
1000
0010
0001
,  // measure 16
0000
0001
0010
1000
0000
1000
0100
0001
,  // measure 17
0200
0000
0000
0310
,  // measure 18
0002
0000
0000
0000
0000
0000
1003
0200
,  // measure 19
0000
0000
0000
0000
0000
0000
0310
0002
,  // measure 20
0000
0000
0000
1003
,  // measure 21
1000
0100
0010
0000
0001
0010
0200
0000
,  // measure 22
0000
0000
0000
0000
0000
0000
0000
0000
0000
0000
0000
0000
0000
0000
0301
1000
,  // measure 23
0010
0000
0100
0000
0010
0100
0020
0000
,  // measure 24
0000
0000
0000
2030
,  // measure 25
0000
0000
0000
0000
0000
0000
0000
0000
3002
0000
0000
0000
0013
0001
0010
0001
,  // measure 26
0020
0000
0000
0000
0000
0000
0130
2000
,  // measure 27
0000
0000
0000
0000
0000
0000
3010
0002
,  // measure 28
0000
0000
0000
1003
,  // measure 29
1010
0000
0101
0000
0001
0100
0020
0000
,  // measure 30
0000
0000
0000
0000
0000
0030
1000
0200
,  // measure 31
0000
0300
0001
0020
0000
0030
0100
2000
,  // measure 32
0000
0000
0000
0000
,  // measure 33
0001
0000
0000
0000
0001
0000
0000
0000
3001
0000
0100
0000
1000
0100
1000
0000
,  // measure 34
0001
0100
1000
0000
1000
0100
0001
0000
,  // measure 35
0001
0010
1000
0000
1000
0010
0001
0000
,  // measure 36
1000
0010
0100
0000
0001
0100
0010
0000
,  // measure 37
1000
0100
0010
0000
0001
0010
0100
0000
,  // measure 38
1000
0100
0010
0100
0010
0100
1000
0000
,  // measure 39
0001
0100
0010
0100
0010
0100
0001
0000
,  // measure 40
0001
0010
0100
0010
0100
0010
0001
0000
,  // measure 41
1000
0010
0100
0010
0100
0010
1000
0000
,  // measure 42
0001
0100
1000
0100
0001
0100
1000
0100
,  // measure 43
0001
0010
1000
0010
0001
0010
1000
0010
,  // measure 44
0001
0100
0001
0010
0001
0100
0001
0010
,  // measure 45
1000
0100
1000
0010
1000
0100
1000
0010
,  // measure 46
0001
0010
0100
0010
0001
0010
0100
0010
,  // measure 47
1000
0100
0010
0100
1000
0100
0010
0100
,  // measure 48
1000
0001
1000
0001
0010
0100
0010
0100
1000
0100
0010
0001
0010
0100
1000
0100
,  // measure 49
0010
0000
0001
0000
0100
0000
1000
0000
0010
0000
1000
0000
0001
1000
0000
0000
,  // measure 50
0011
0000
0000
0000
0110
0000
0000
0000
1000
0000
0100
0001
0100
0000
0001
0000
,  // measure 51
0010
1000
0010
0000
0001
0000
1000
0000
0010
0000
0100
0000
0001
0000
1000
0000
,  // measure 52
1001
0000
0000
0000
1010
0000
0000
0000
0100
0000
0010
0100
0010
0000
0100
0000
,  // measure 53
1000
0001
1000
0000
0100
0000
0010
0000
1000
0000
0100
0000
0010
0000
0001
0000
,  // measure 54
0100
0000
0000
0000
0110
0000
0000
0000
0001
0000
1000
0001
1000
0000
0010
0000
,  // measure 55
0100
0010
0100
0000
0001
0000
1000
0000
0100
0000
0010
0000
0001
0000
0100
0000
,  // measure 56
1001
0000
1010
0000
0101
0001
0010
0100
,  // measure 57
1000
0010
1000
0100
0001
1000
1001
0000
,  // measure 58
1001
0000
0000
0000
0021
0000
0000
0000
0130
0000
0000
0000
1000
0100
1000
0100
,  // measure 59
1000
0000
0000
0000
1000
0000
0010
0000
0100
0000
0001
0010
0001
0000
0000
0000
,  // measure 60
0012
0000
0103
0010
2100
0000
3010
0100
,  // measure 61
0001
1000
0010
0100
0020
0000
0130
0000
,  // measure 62
0011
0000
0000
0110
0000
0000
1100
0000
0001
0000
1000
0000
0010
0000
0000
0000
,  // measure 63
1001
0000
0001
1000
0010
0000
0100
0000
0110
0000
0000
0000
1010
0000
0000
0000
,  // measure 64
0001
1000
0100
0010
0001
0010
0100
1000
,  // measure 65
0020
0000
0000
0130
,  // measure 66
1001
0000
0000
0000
0011
0000
0000
0000
1100
0000
1000
0010
1000
0010
1000
0000
,  // measure 67
0001
0100
0001
0100
0001
0000
0100
0000
1001
0000
0010
0000
1000
0000
0100
0000
,  // measure 68
0010
0000
1000
0000
0001
0000
0100
0000
0010
0000
0100
0010
0100
0010
0100
0000
,  // measure 69
1000
0001
1000
0001
1000
0000
0100
0000
1000
0000
0010
0000
0001
0000
0100
0000
,  // measure 70
0010
0000
1000
0000
0010
0000
0001
0000
0100
0000
0001
0100
0001
0100
0001
0000
,  // measure 71
1000
0010
1000
0010
1000
0000
0001
0000
0010
0000
1000
0000
0100
0000
0010
0000
,  // measure 72
0101
0001
0011
0010
1010
1000
1001
0001
,  // measure 73
0011
0000
0001
0000
1000
0000
0010
0000
1000
0000
0001
0000
1000
0100
0010
0100
,  // measure 74
2000
0000
0000
0000
0000
0000
0000
0000
3001
0000
1000
0010
0100
0010
1000
0000
,  // measure 75
0001
0100
0010
0100
0001
0000
1000
0000
0100
0000
0010
0000
0001
0000
1000
0000
,  // measure 76
2002
0000
0000
0000
3003
0000
0010
0000
0100
0000
0001
0100
1000
0100
0001
0000
,  // measure 77
1000
0010
0001
0010
1000
0000
0001
0000
1000
0000
0010
0000
1000
0000
0100
0000
,  // measure 78
0002
0010
0003
0020
0100
0030
1000
0001
,  // measure 79
1001
0000
0010
0100
0110
0000
1200
0010
,  // measure 80
0310
0000
0100
0000
0001
0000
1000
0000
0000
0001
0000
0000
0100
0000
0000
1000
0000
0000
0020
0000
0000
0000
0000
0000
,  // measure 81
0031
0000
1000
0000
0001
0010
0100
1000
0100
0000
1000
0000
0100
0000
0001
0000
,  // measure 82
2000
0000
0010
0000
3100
0000
0010
1000
,  // measure 83
0200
0000
1000
0000
0010
0300
0010
0100
,  // measure 84
0002
0000
1000
0000
0100
0003
0110
0000
,  // measure 85
0010
1000
0100
0010
0001
0100
1001
0000
,  // measure 86
0010
0000
0000
0000
0100
0000
0010
0000
1000
0000
0000
0000
0001
1000
0100
1000
,  // measure 87
0001
0000
0110
0000
1100
0100
0201
0000
,  // measure 88
0000
0310
1000
0100
0010
0100
0001
0010
,  // measure 89
0100
0000
1000
0000
0010
0000
1000
0000
0001
0000
0000
0000
0001
0010
0100
0010
,  // measure 90
2000
0100
0100
0000
0100
0000
3010
0200
,  // measure 91
0001
0001
0001
0000
0301
0100
0010
0002
,  // measure 92
0100
0100
0100
0000
0100
0003
0100
1000
,  // measure 93
0001
0000
1000
0000
0010
0000
1000
0000
0001
0100
0010
0100
0001
0000
0000
0000
,  // measure 94
1000
0010
0100
0001
0100
0010
1000
0100
,  // measure 95
0001
0100
0010
1000
0010
0100
0001
0010
,  // measure 96
1000
0100
1000
0000
0100
0000
0010
0000
0001
0010
0001
0000
0010
0000
0100
0000
,  // measure 97
1000
0001
1000
0000
0010
0100
0010
0000
0001
0100
1000
0100
0010
0001
0010
1000
,  // measure 98
1100
0000
0000
0000
;

//---------------dance-single - ----------------
#NOTES:
     dance-single:
     :
     Medium:
     14:
     0.575291,0.737663,0.225815,0.301087,0.022582,535.000000,505.000000,30.000000,40.000000,0.000000,0.000000,0.575291,0.737663,0.225815,0.301087,0.022582,535.000000,505.000000,30.000000,40.000000,0.000000,0.000000:
// measure 0
0000
0000
0000
0000
,  // measure 1
0000
0000
0000
0000
,  // measure 2
0000
0000
0000
0000
,  // measure 3
0000
0000
0000
0000
,  // measure 4
0000
0000
0000
0000
,  // measure 5
0000
0001
0100
1000
0000
0001
0100
1000
,  // measure 6
0000
0001
0010
1000
0000
0001
0010
1000
,  // measure 7
0000
1000
0100
0001
0000
1000
0100
0001
,  // measure 8
0000
1000
0010
0001
0000
1000
0010
0001
,  // measure 9
0000
1000
0010
0100
0000
1000
0010
0100
,  // measure 10
0000
0001
0010
0100
0000
0001
0010
0100
,  // measure 11
0000
1000
0100
0010
0000
1000
0100
0010
,  // measure 12
0000
0001
0100
0010
0000
0001
0100
0010
,  // measure 13
0000
1000
0010
0100
0000
0010
1000
0010
,  // measure 14
0000
0001
0100
0010
0000
0100
0001
0100
,  // measure 15
0000
0010
0100
0001
0000
0001
0010
0100
,  // measure 16
0000
0100
0010
1000
0000
1000
0100
0010
,  // measure 17
0200
0000
0000
0310
,  // measure 18
0002
0000
0000
0000
0000
0003
0100
2000
,  // measure 19
0000
0000
0000
0000
0000
3000
0010
0200
,  // measure 20
0000
0000
0000
0000
0000
0300
0001
0000
,  // measure 21
2000
0000
3010
0000
0001
0010
0200
0000
,  // measure 22
0000
0000
0000
0000
0000
0000
0000
0000
0000
0000
0000
0000
0300
0000
0001
1000
,  // measure 23
0001
0000
0001
0000
0010
0100
0002
0000
,  // measure 24
0000
0000
0000
2003
,  // measure 25
0000
0000
0002
3003
,  // measure 26
0200
0000
0000
0000
0000
0300
0010
2000
,  // measure 27
0000
0000
0000
0000
0000
3000
0010
0002
,  // measure 28
0000
0000
0000
0000
0000
0003
0100
0000
,  // measure 29
0010
0000
0001
0000
1000
0001
0020
0000
,  // measure 30
0000
0000
0000
0000
0000
0030
0001
0011
,  // measure 31
0000
0000
1000
1100
0000
0000
0010
0220
,  // measure 32
0000
0000
0000
0000
,  // measure 33
0330
0000
0000
0000
0000
0000
0000
0000
0000
0000
0000
0000
1000
0001
1000
0001
,  // measure 34
2000
0010
0010
3100
,  // measure 35
0020
0100
0100
0031
,  // measure 36
0200
0001
0001
1300
,  // measure 37
0002
1000
1000
0103
,  // measure 38
2000
0100
0100
3010
,  // measure 39
0200
0010
0010
0301
,  // measure 40
0020
0001
1000
0001
,  // measure 41
1030
0100
0001
0000
1001
0000
1100
0000
,  // measure 42
1000
0100
0010
0000
1000
0010
0100
0000
,  // measure 43
0001
0010
0100
0000
0001
0100
0010
0000
,  // measure 44
0001
0100
1000
0000
0001
0010
1000
0000
,  // measure 45
1000
0100
0001
0000
1000
0010
0001
0000
,  // measure 46
0100
0010
0100
0000
0001
1000
0001
0000
,  // measure 47
0010
0100
0010
0000
1000
0001
1000
0000
,  // measure 48
0001
1000
0001
1000
0100
0010
0100
0010
,  // measure 49
1000
0010
0100
0001
0100
0010
1000
0000
,  // measure 50
0020
0000
0000
0000
1030
0001
1000
0010
,  // measure 51
1000
0100
0010
0100
0001
0010
0100
1000
,  // measure 52
0200
0000
0000
0000
0310
1000
0001
0010
,  // measure 53
1000
0100
0010
0100
0001
0010
0100
1000
,  // measure 54
0020
0000
0000
0000
0031
0010
1000
0100
,  // measure 55
0010
0100
0001
0010
0100
1000
0010
1000
,  // measure 56
0200
0000
0000
0000
0310
1000
0001
0010
,  // measure 57
0100
1000
0001
0100
0010
1000
0001
0000
,  // measure 58
2100
0000
0000
0000
3020
0000
0001
0001
,  // measure 59
0031
1000
0010
0000
1000
0001
0100
0000
,  // measure 60
0021
0000
0030
0000
1200
0000
1300
1000
,  // measure 61
0001
0100
0010
0100
1000
0100
0010
0000
,  // measure 62
0020
0000
0000
0100
0000
0000
0130
0000
1001
0000
0000
0000
1100
0000
0000
0000
,  // measure 63
0100
0010
1000
0001
0100
1000
0001
0100
,  // measure 64
0001
1000
0001
1000
0010
0100
1000
0010
,  // measure 65
0220
0000
0000
0330
,  // measure 66
1200
0000
0301
0000
1000
0001
0100
0001
,  // measure 67
0010
0001
0010
0100
1000
0010
0100
0001
,  // measure 68
0102
0000
0013
0000
0100
0010
0001
0010
,  // measure 69
1000
0010
1000
0001
0100
1000
0001
0010
,  // measure 70
2010
0000
3100
0000
0010
0100
1000
0100
,  // measure 71
0001
0100
0001
1000
0010
0001
1000
0100
,  // measure 72
0001
0000
1000
0100
0010
0100
0001
0100
,  // measure 73
1000
0100
0010
0000
0001
0010
0100
1000
,  // measure 74
0002
0000
0000
0000
0013
1000
0100
0010
,  // measure 75
0100
0001
0010
0100
2000
0000
3010
0000
,  // measure 76
0002
0000
0000
0000
0013
1000
0100
0010
,  // measure 77
0100
0001
0010
0100
1000
0010
1000
0001
,  // measure 78
0200
0000
0000
0000
0310
1000
0001
0100
,  // measure 79
1100
0000
0000
0010
0011
0000
1100
0000
,  // measure 80
1000
0100
0010
0100
0001
0000
0011
0000
,  // measure 81
0001
0010
0100
0010
1000
0000
1100
0000
,  // measure 82
1000
0100
0001
0100
0001
0100
1000
0000
,  // measure 83
0001
0100
1000
0100
1000
0100
0001
0000
,  // measure 84
1000
0100
0010
0100
1000
0100
0010
0000
,  // measure 85
0001
0010
0100
0010
0001
0010
0100
0000
,  // measure 86
0001
0010
0001
0010
1000
0100
0001
0100
,  // measure 87
0010
0000
1100
0000
1000
0001
1001
0000
,  // measure 88
1000
0100
1000
0100
0001
0010
1000
0010
,  // measure 89
0100
0000
0011
0000
0001
1000
1001
0000
,  // measure 90
0100
0000
1100
0000
0001
1000
0001
1000
,  // measure 91
0010
0000
0011
0000
1000
0001
1000
0001
,  // measure 92
0100
0000
0101
0000
0001
0100
1000
0010
,  // measure 93
0100
0000
1001
0000
1000
0010
0001
0100
,  // measure 94
0110
1000
0100
0010
0100
0001
0010
0000
,  // measure 95
0110
0001
0010
0100
0010
1000
0100
0000
,  // measure 96
1000
0010
0001
0100
0010
0100
1000
0001
,  // measure 97
1000
0000
0100
0000
0010
0000
0100
0000
1000
0000
0010
0100
0010
0100
0010
0000
,  // measure 98
1001
0000
0000
0000
;

//---------------dance-single - ----------------
#NOTES:
     dance-single:
     :
     Easy:
     11:
     0.475287,0.627014,0.180652,0.331196,0.007527,442.000000,418.000000,24.000000,44.000000,0.000000,0.000000,0.475287,0.627014,0.180652,0.331196,0.007527,442.000000,418.000000,24.000000,44.000000,0.000000,0.000000:
// measure 0
0000
0000
0000
0000
,  // measure 1
0000
0000
0000
0000
,  // measure 2
0000
0000
0000
0000
,  // measure 3
0000
0000
0000
0000
,  // measure 4
0000
0000
0000
0000
,  // measure 5
0000
0000
1000
0100
0000
0000
0010
0100
,  // measure 6
0000
0000
0001
0010
0000
0000
0010
0100
,  // measure 7
0000
0000
1000
0100
0000
0000
0001
0100
,  // measure 8
0000
0000
1000
0010
0000
0000
0001
0010
,  // measure 9
0000
0000
0001
0010
0000
0010
0100
1000
,  // measure 10
0000
0000
0001
0010
0000
0010
0100
1000
,  // measure 11
0000
0000
1000
0100
0000
0100
0010
0001
,  // measure 12
0000
0000
1000
0100
0000
0100
0010
0001
,  // measure 13
0000
0001
0100
1000
0000
0100
0000
0001
,  // measure 14
0000
1000
0100
0001
0000
0100
1000
0000
,  // measure 15
0000
0000
0001
0010
1000
0000
0010
0001
,  // measure 16
0000
1000
0010
0001
0000
0001
0010
1000
,  // measure 17
0020
0000
0000
1030
,  // measure 18
0002
0000
0000
0000
0000
0000
0003
0200
,  // measure 19
0000
0000
0000
0000
0000
0000
0300
0020
,  // measure 20
0000
0000
0000
1030
,  // measure 21
0010
0000
0001
0000
0100
0010
0200
0000
,  // measure 22
0000
0000
0000
0000
0000
0000
0000
0000
0000
0000
0000
0000
0000
0000
0001
0300
,  // measure 23
0001
0000
1000
0000
1000
0010
2000
0000
,  // measure 24
0000
0000
0000
0000
0000
3000
0002
0000
,  // measure 25
0000
0023
0000
0130
,  // measure 26
0002
0000
0000
0000
0000
0000
0003
2000
,  // measure 27
0000
0000
0000
0000
0000
0000
3000
0020
,  // measure 28
0000
0000
0000
0031
,  // measure 29
0100
0000
0010
0000
1000
0001
0020
0000
,  // measure 30
0000
0000
0000
0000
0000
0000
0130
0001
,  // measure 31
0000
0000
0001
1000
0000
0000
1000
0020
,  // measure 32
0000
0000
0000
0000
,  // measure 33
0100
0000
0100
0000
0100
0100
0130
0000
,  // measure 34
1000
0100
0010
0100
,  // measure 35
1000
0100
0010
0100
,  // measure 36
0001
0010
0100
0010
,  // measure 37
0001
0010
0100
0010
,  // measure 38
0001
0100
1000
1000
,  // measure 39
0100
0001
0100
1000
,  // measure 40
1000
0010
0001
0010
,  // measure 41
1000
0010
0001
0010
,  // measure 42
1000
0000
0100
0000
1000
0100
1000
0000
,  // measure 43
0001
0000
0010
0000
0001
0010
0001
0000
,  // measure 44
0001
0000
1000
0000
0001
1000
0001
0000
,  // measure 45
0100
0000
0010
0000
0100
0010
0100
0000
,  // measure 46
0001
0010
0001
0000
1000
0100
1000
0000
,  // measure 47
0001
1000
0001
0000
0100
0010
0100
0000
,  // measure 48
0001
0010
0100
0000
1000
0100
0010
0000
,  // measure 49
0001
0010
0100
1000
0001
0010
0100
1000
,  // measure 50
0200
0000
0000
0000
0310
0000
1000
0001
,  // measure 51
0000
0001
0100
1000
0100
0010
0100
0000
,  // measure 52
0002
0000
0000
0000
1003
0000
0100
0010
,  // measure 53
0000
0010
0001
0100
0001
1000
0001
0000
,  // measure 54
2000
0000
0000
0000
3001
0000
0010
0100
,  // measure 55
0000
0100
1000
0010
1000
0001
1000
0000
,  // measure 56
0200
0310
0020
0130
,  // measure 57
1000
0001
0000
0001
0010
0100
1000
0000
,  // measure 58
0002
0000
0013
0100
,  // measure 59
2000
0000
3100
0000
0002
0000
1003
1000
,  // measure 60
2200
3300
0022
0033
,  // measure 61
0010
0001
1000
0100
0000
0001
1000
0000
,  // measure 62
1000
0000
0000
0001
0000
0000
1000
0000
0020
0000
0000
0000
0130
0000
0000
0000
,  // measure 63
1000
0000
0001
1000
0110
0000
1001
0000
,  // measure 64
1000
0100
0001
0100
1000
0010
0001
0010
,  // measure 65
2002
0000
0000
0000
3003
0000
0001
1000
,  // measure 66
2001
0000
0000
0000
3100
0000
1000
0100
,  // measure 67
0000
0100
0001
0000
0010
1000
0001
0100
,  // measure 68
0210
0000
0000
0000
0301
0000
0100
0001
,  // measure 69
0000
0001
0010
0000
1000
0100
0010
0001
,  // measure 70
0120
0000
0000
0000
1030
0000
0010
1000
,  // measure 71
0000
1000
0100
0000
0001
0010
0100
1000
,  // measure 72
2000
0000
3100
0010
0002
0000
0013
0100
,  // measure 73
0220
0000
0330
0000
0001
0010
0100
1000
,  // measure 74
0002
0000
0000
0000
1003
0000
0100
0001
,  // measure 75
0000
0001
0100
1000
0100
0001
1000
0000
,  // measure 76
0002
0000
0000
0000
1003
0000
0010
1000
,  // measure 77
0000
1000
0100
0001
0010
0001
0100
0000
,  // measure 78
2000
0000
0000
0000
3010
0100
0001
0100
,  // measure 79
0020
0000
0000
0130
1000
0000
1100
0000
,  // measure 80
0001
0100
0010
1000
0001
0000
1100
0000
,  // measure 81
1000
0010
0100
0001
1000
0000
0011
0000
,  // measure 82
0001
0010
0100
1000
0001
1000
0001
0000
,  // measure 83
1000
0100
0010
0001
1000
0001
1000
0000
,  // measure 84
0010
0100
1100
1010
,  // measure 85
0100
0010
0011
0202
,  // measure 86
0000
0000
0000
0000
0000
0000
0000
0000
0303
0000
0000
0000
0000
0000
1000
0001
,  // measure 87
1000
0000
1001
0000
0100
0001
0020
0000
,  // measure 88
0000
0000
0000
0000
0000
0000
0130
1000
,  // measure 89
0000
1000
0001
0000
1000
0100
0001
0000
,  // measure 90
0011
0000
0100
0000
0001
0100
1000
0010
,  // measure 91
1010
0000
0001
0000
0010
0001
0100
1000
,  // measure 92
0101
0000
1000
0000
0100
1000
0010
0001
,  // measure 93
1100
0000
0101
0000
0001
0010
0022
0000
,  // measure 94
0000
0000
0033
0000
0001
0000
0001
0100
,  // measure 95
1000
0000
1000
0010
0001
0000
0001
0100
,  // measure 96
1000
0100
1000
0100
0001
0010
0001
0010
,  // measure 97
1000
0100
0010
0001
0010
0100
1000
0000
,  // measure 98
1001
0000
0000
0000
;

//---------------dance-single - ----------------
#NOTES:
     dance-single:
     :
     Beginner:
     6:
     0.235493,0.331948,0.007527,0.218288,0.000000,219.000000,218.000000,1.000000,29.000000,0.000000,0.000000,0.235493,0.331948,0.007527,0.218288,0.000000,219.000000,218.000000,1.000000,29.000000,0.000000,0.000000:
// measure 0
0000
0000
0000
0000
,  // measure 1
0000
0000
0000
0000
,  // measure 2
0000
0000
0000
0000
,  // measure 3
0000
0000
0000
0000
,  // measure 4
0000
0000
0000
0000
,  // measure 5
1000
0000
0100
0000
,  // measure 6
1000
0000
0100
0000
,  // measure 7
0001
0000
0100
0000
,  // measure 8
0001
0000
0100
0000
,  // measure 9
1000
0000
0010
0000
,  // measure 10
1000
0000
0010
0000
,  // measure 11
0001
0000
0010
0000
,  // measure 12
0001
0000
0010
0000
,  // measure 13
1000
0000
0100
0000
,  // measure 14
0010
0000
0001
0000
,  // measure 15
1000
0000
0010
0000
,  // measure 16
0100
0000
0001
0000
,  // measure 17
0200
0000
0000
0000
,  // measure 18
0310
0000
0000
0000
,  // measure 19
1000
0000
0000
0000
,  // measure 20
0001
0000
0000
0000
,  // measure 21
0100
0100
0100
0020
,  // measure 22
0000
0000
0000
0030
,  // measure 23
0010
0010
0010
0200
,  // measure 24
0000
0000
0000
0000
,  // measure 25
0300
0000
0001
0000
,  // measure 26
1000
0000
0000
0000
,  // measure 27
0010
0000
0000
0000
,  // measure 28
0100
0000
0000
0000
,  // measure 29
0001
0010
0100
2000
,  // measure 30
0000
0000
0000
3000
,  // measure 31
1000
0100
0010
0002
,  // measure 32
0000
0000
0000
0000
,  // measure 33
0003
0000
0000
0100
,  // measure 34
0200
0000
0000
0000
,  // measure 35
0300
0000
0010
0000
,  // measure 36
0020
0000
0000
0000
,  // measure 37
0030
0000
1000
0000
,  // measure 38
2000
0000
0000
0000
,  // measure 39
3000
0000
0001
0000
,  // measure 40
0001
0002
0003
0000
,  // measure 41
0001
0000
0010
0000
,  // measure 42
0200
0000
0000
0000
,  // measure 43
0310
0000
1000
0000
,  // measure 44
0002
0000
0000
0000
,  // measure 45
0103
0000
0010
0000
,  // measure 46
2000
0000
0000
0000
,  // measure 47
3010
0000
0100
0000
,  // measure 48
0002
0000
0000
0000
,  // measure 49
0103
0100
0100
0100
,  // measure 50
0010
0000
1000
0000
,  // measure 51
0010
0000
0100
0000
,  // measure 52
0001
0000
0010
0000
,  // measure 53
0001
0000
0100
0000
,  // measure 54
1000
0000
0010
0000
,  // measure 55
1000
0000
0100
0000
,  // measure 56
0001
0000
0010
0000
,  // measure 57
0001
0000
0100
0000
,  // measure 58
0010
1000
0100
0000
,  // measure 59
0010
0100
0001
0000
,  // measure 60
0001
0000
0010
0000
,  // measure 61
1000
0001
0100
0010
,  // measure 62
2000
0000
3010
0000
,  // measure 63
0001
0100
0010
0000
,  // measure 64
1000
0010
0100
0001
,  // measure 65
0020
0000
0031
0000
,  // measure 66
0001
0100
0010
1000
,  // measure 67
0200
0000
0310
0001
,  // measure 68
2000
0000
3010
0100
,  // measure 69
0001
0010
2000
0000
,  // measure 70
3010
0100
0001
0010
,  // measure 71
2000
0000
3001
0100
,  // measure 72
0020
0000
0130
0001
,  // measure 73
1000
0010
0200
0000
,  // measure 74
0301
0001
0100
0000
,  // measure 75
1000
1000
0100
0000
,  // measure 76
0001
0001
0010
0000
,  // measure 77
1000
1000
0010
0000
,  // measure 78
0001
0100
1000
0010
,  // measure 79
2000
0000
3010
0100
,  // measure 80
0002
0103
0010
0000
,  // measure 81
2000
3010
0100
0000
,  // measure 82
0001
0100
1000
0100
,  // measure 83
0010
1000
0010
0000
,  // measure 84
0001
0100
1000
0100
,  // measure 85
0001
0010
0001
0200
,  // measure 86
0000
0010
0310
0000
,  // measure 87
0001
1000
0010
0200
,  // measure 88
0000
0310
0001
0010
,  // measure 89
0200
0000
0310
1000
,  // measure 90
0100
0001
0100
0010
,  // measure 91
1000
0100
1000
0000
,  // measure 92
1000
0010
0100
0001
,  // measure 93
0010
0001
0010
0000
,  // measure 94
0100
0001
0100
1000
,  // measure 95
0020
0000
1030
0001
,  // measure 96
0200
0000
0301
0010
,  // measure 97
1000
0100
0010
0000
,  // measure 98
0110
0000
0000
0000
;
