#TITLE:FREELY TOMORROW;
#SUBTITLE:;
#ARTIST:Mitchie M feat. 初音ミク;
#TITLETRANSLIT:;
#SUBTITLETRANSLIT:;
#ARTISTTRANSLIT:Mitchie M feat. Hatsune Miku;
#GENRE:Pop;
#CREDIT:;
#BANNER:;
#BACKGROUND:;
#LYRICSPATH:;
#CDTITLE:;
#MUSIC:FREELY TOMORROW.ogg;
#OFFSET:-0.600000;
#SAMPLESTART:79.179932;
#SAMPLELENGTH:15.000000;
#SELECTABLE:YES;
#BPMS:0.000000=129.000000
;
#STOPS:
;
#BGCHANGES:;
#KEYSOUNDS:;
#ATTACKS:;

//---------------dance-single - ----------------
#NOTES:
     dance-single:
     :
     Hard:
     11:
     0.495727,0.441621,0.204625,0.221677,0.115101,357.000000,24.000000,26.000000,0.000000,0.000000,0.000000,0.495727,0.441621,0.204625,0.221677,0.115101,357.000000,24.000000,26.000000,0.000000,0.000000,0.000000:
0000
0000
0000
0000
,
0000
0000
0000
0000
,
0000
0002
0023
0230
,
1300
0000
0000
0010
0000
0000
0000
0000
0000
0000
0001
0000
0010
0000
1000
0000
,
0100
0000
0000
0001
0000
0000
0000
0000
0000
0000
0001
0000
0010
0000
0100
0000
,
1000
0100
1000
0100
0010
0100
0010
0100
,
0001
0010
0001
0010
1000
0000
1001
0000
,
0001
0000
0000
0100
0000
0000
0000
0000
0000
0000
1000
0000
0010
0000
0100
0000
,
0001
0000
0000
0010
0000
0000
0000
0000
0000
0000
0100
0000
1000
0000
0010
2000
,
0000
0000
0000
0000
3001
0000
0100
0002
0000
0000
0000
0000
1003
0000
0001
2000
,
0000
0000
0000
0000
0000
0000
0000
0000
3001
0000
0000
0001
0000
0000
0001
0000
,
0010
0100
1000
0000
0010
1000
0001
0000
,
0100
0010
0001
0000
0100
0001
1000
0000
,
0001
1000
0100
1000
0100
0001
0010
0000
,
0001
0010
0001
0010
0001
1000
0100
0000
,
1000
0100
0010
0000
0100
0010
0001
0000
,
0001
0010
0100
0000
0010
0100
1000
0000
,
1000
0100
0010
0100
0001
0010
0100
0000
,
1000
0100
1000
0100
1000
0100
0020
0000
,
0031
0000
0010
0000
0100
1000
0001
0100
,
0020
0000
0031
0000
0010
1000
0100
0001
,
0200
0000
0310
0000
1000
0001
0010
0100
,
2000
0000
3100
0000
0010
1000
0100
0001
,
0020
0031
0100
1000
,
0200
0000
0310
0000
1000
0001
0010
0000
,
0001
0000
0010
0000
2000
0100
0000
0100
0000
0000
0000
0000
3010
0000
1000
0000
,
0100
0000
0001
0000
0002
0010
0000
0010
0000
0000
0000
0000
0103
0000
0000
0000
,
0001
1000
0010
1000
0100
0001
0100
0000
,
0001
0100
1000
0010
1000
0100
0001
0000
,
0001
0100
1000
0100
0001
0100
1000
0000
,
1000
0010
0001
0010
1000
0010
0001
0000
,
1000
0100
0001
0000
0001
0100
1000
0000
,
1000
0010
0001
0000
0001
0010
1000
1100
,
0000
1000
0100
0101
0000
0001
0010
0011
,
0000
0000
0000
0000
1001
0000
0000
0000
0001
0000
1000
0000
0000
0100
0000
0000
,
1000
0000
1100
0000
1000
0010
0100
0001
,
0010
0000
0011
0000
0001
0100
1000
0010
,
1000
0000
1100
0000
1000
0001
0100
0010
,
1000
0000
0010
0000
0001
0010
1000
0000
,
2000
0000
0000
0100
0000
0000
3100
0000
0010
0000
0100
0000
0001
0000
0010
0000
,
0002
0000
0000
0010
0000
0000
0013
0000
0100
0000
1000
0000
0100
0000
0010
0000
,
0100
0001
0100
0001
0100
1000
0100
1000
,
0010
1100
1001
0011
,
0002
0000
0000
0103
0000
0000
0000
0000
0010
0000
1000
0000
0100
0000
0001
0000
,
2000
0000
0000
3010
0000
0000
0000
0000
0001
0000
0010
0000
1000
0000
0100
0000
,
0001
0100
0001
0100
1000
0100
1000
0100
,
0010
1000
0010
0100
0001
0000
1001
0000
,
0002
0000
0000
0013
0000
0000
0000
0000
0010
0000
1000
0000
0100
0000
0001
0000
,
2000
0000
0000
3100
0000
0000
0000
0000
0010
0000
1000
0000
0001
0000
0100
0001
,
0000
0000
0001
0000
0100
0000
1000
0100
0000
0000
1000
0000
0100
0000
0010
2000
,
0000
0000
0000
0000
0000
0000
0000
0000
3010
0000
0000
0100
0000
0000
0001
0000
,
0100
0010
1000
0100
1000
0100
1100
0000
,
0001
1000
0100
0001
0010
0001
0011
0000
,
0001
0100
1000
0000
1000
0100
0001
0000
,
0001
0010
1000
0010
0001
0010
0100
0000
,
1100
0000
0000
1001
0000
0000
0101
0000
0000
0000
0000
0000
1001
0000
0000
0000
,
0011
0000
0000
0110
0000
0000
1010
0000
0000
0000
0000
0000
0110
0000
1000
0000
,
0100
0001
0010
0100
1000
0100
0010
0001
,
2200
0000
3300
0000
0202
0000
0303
0000
0010
0000
0000
0010
0000
0000
0002
0000
,
1000
1000
1000
1003
,
0100
0000
0010
0000
0100
0000
0010
0000
0100
0000
0001
0000
0100
0000
1000
0100
;

//---------------dance-single - ----------------
#NOTES:
     dance-single:
     :
     Medium:
     7:
     0.360529,0.363315,0.153468,0.289885,0.000000,244.000000,18.000000,34.000000,0.000000,0.000000,0.000000,0.360529,0.363315,0.153468,0.289885,0.000000,244.000000,18.000000,34.000000,0.000000,0.000000,0.000000:
0000
0000
0000
0000
,
0000
0000
0000
0000
,
0000
0002
0023
2030
,
3100
0000
0100
0000
0001
1000
0001
0000
,
0010
0000
0010
0000
1000
0001
1000
0000
,
0100
0000
0010
0000
1000
0100
1000
0000
,
0010
0000
0100
0000
0001
0010
0001
0100
,
2000
0000
3010
0000
0001
0000
1000
0010
,
0200
0000
0301
0000
0010
0000
0100
0001
,
0100
0000
0010
0000
1000
0000
0100
1000
,
0100
0010
1000
0000
,
1001
0000
0100
0000
1000
0100
0001
0000
,
0010
1000
0001
0100
,
1001
0000
0010
0000
0001
0100
1000
0000
,
0010
0100
0001
1000
,
1100
0000
0010
0100
0010
0000
0001
0000
,
0011
0000
0010
0100
0010
0000
1000
0000
,
0100
1000
0100
1000
,
0001
0100
0001
0100
,
0020
1000
0001
1000
,
0001
0001
1000
1030
,
0200
0001
1000
0001
,
1000
1000
0001
0301
,
0010
1000
0200
1300
,
0010
0001
0020
0031
,
0010
0100
2200
3300
,
0001
0100
0022
0033
,
0001
1000
0100
1000
,
0020
1000
0001
1030
,
0001
1000
0001
0100
,
0200
1000
0001
1300
,
0010
1000
0100
0001
,
0010
0100
1000
0100
,
1100
0000
0101
0000
,
1001
0000
0010
0000
1000
0100
0000
1000
,
0200
0300
0010
0010
,
2002
3003
0100
0100
,
2002
3003
0010
0100
,
1000
0100
0001
0100
,
2000
0100
3100
0001
,
0020
0001
0031
0100
,
0001
1000
0001
1000
0001
1000
0001
0020
,
0000
0000
0000
0030
,
1000
0000
0100
0000
1000
0100
0001
0000
,
0010
0000
0001
0000
0001
0100
1000
0000
,
0020
1030
0001
0100
,
0002
0013
1000
0001
,
0100
1000
0010
0000
1001
0000
0010
0000
,
0100
0001
0010
0000
0110
0000
1000
0000
,
0002
0100
0010
0103
,
2000
0010
0100
3010
,
0001
1000
0100
0000
0010
1000
0001
0000
,
0100
1001
0010
1001
,
0001
1000
0100
0000
0100
0001
1000
0000
,
0010
1001
0010
1001
,
0100
0000
0100
0200
0000
0000
0300
0000
,
0010
0000
0010
0020
0000
0000
0030
0000
,
0001
0100
1000
0010
,
2000
3002
0013
0010
,
0200
0000
0010
0310
,
2002
0000
0000
0000
3003
0000
0100
0010
;

//---------------dance-single - ----------------
#NOTES:
     dance-single:
     :
     Easy:
     5:
     0.259435,0.310773,0.059682,0.264307,0.000000,175.000000,7.000000,31.000000,0.000000,0.000000,0.000000,0.259435,0.310773,0.059682,0.264307,0.000000,175.000000,7.000000,31.000000,0.000000,0.000000,0.000000:
0000
0000
0000
0000
,
0000
0000
0000
0000
,
0000
2000
3200
0320
,
0032
0003
0100
0100
,
2000
3000
0010
0010
,
0002
0003
0010
0010
,
2000
3000
0100
0001
,
0010
0001
0000
0010
,
0100
1000
0000
0100
,
0001
0010
0100
1000
,
0020
0000
0030
0000
,
1000
0100
1000
0100
,
0001
0100
0100
0000
,
0001
0010
0001
0010
,
1000
0010
0010
0000
,
1000
0100
0010
0100
,
1000
0100
0010
0000
,
0001
0010
1000
1000
,
0100
0001
0010
0010
,
0002
0000
0000
0103
,
1000
0010
0001
0000
,
2000
0000
0000
3100
,
0010
1000
0100
0000
,
0001
0100
2000
3000
,
1000
0100
0002
0003
,
0010
1000
0010
0000
,
0001
0010
0001
0000
,
1000
0100
0001
0010
,
1000
2000
0000
3000
,
0010
0001
0100
1000
,
0010
0020
0030
0001
,
0200
0000
0301
0010
,
2000
0000
3001
0100
,
0010
1000
0100
1000
,
0010
0001
0100
0001
,
0200
0000
0000
0300
,
0020
0000
0000
0030
,
2000
0000
0000
3000
,
0002
0000
0000
0003
,
1000
0100
2100
3000
,
0001
0100
0102
0003
,
0010
0010
0100
0220
,
0000
0000
0000
0330
,
0010
1000
0001
0000
,
0010
1000
0001
0000
,
0100
0001
0100
0010
,
1000
0200
0310
0000
,
1000
0100
1000
0000
,
0001
0100
0001
0000
,
1000
0010
0100
0001
,
0020
0000
0130
0100
,
0001
0100
1000
0000
,
1000
0100
0001
0000
,
1000
0010
1000
0010
,
0001
0010
0002
0003
,
1000
1000
2100
3000
,
0001
0001
0012
0003
,
0100
1000
0010
0001
,
0200
0310
0000
0000
,
1002
1000
1000
1003
,
0000
0100
0000
0110
;

//---------------dance-single - ----------------
#NOTES:
     dance-single:
     :
     Beginner:
     1:
     0.097440,0.103591,0.008526,0.000000,0.000000,79.000000,1.000000,0.000000,0.000000,0.000000,0.000000,0.097440,0.103591,0.008526,0.000000,0.000000,79.000000,1.000000,0.000000,0.000000,0.000000,0.000000:
// measure 0
0000
0000
0000
0000
,  // measure 1
0000
0000
0000
0000
,  // measure 2
0000
0000
0000
0000
,  // measure 3
1000
1000
0000
0000
,  // measure 4
0001
0001
0000
0000
,  // measure 5
0010
0000
0000
0000
,  // measure 6
0100
0000
0000
0000
,  // measure 7
1000
1000
0000
0000
,  // measure 8
0001
0001
0000
0000
,  // measure 9
0100
0000
0000
0000
,  // measure 10
0010
0000
0000
0000
,  // measure 11
1000
0000
0000
0000
,  // measure 12
0100
0000
0000
0000
,  // measure 13
0001
0000
0000
0000
,  // measure 14
0010
0000
0000
0000
,  // measure 15
1000
0000
0100
0000
,  // measure 16
0001
0000
0000
0000
,  // measure 17
0001
0000
0010
0000
,  // measure 18
1000
0000
0000
0000
,  // measure 19
1000
0000
0100
0000
,  // measure 20
1000
0000
0000
0000
,  // measure 21
0001
0000
0100
0000
,  // measure 22
0001
0000
0000
0000
,  // measure 23
1000
0000
0010
0000
,  // measure 24
1000
0000
0000
0000
,  // measure 25
0001
0000
0010
0000
,  // measure 26
0001
0000
0000
0000
,  // measure 27
1000
0000
0000
0000
,  // measure 28
0100
0000
0000
0000
,  // measure 29
0010
0000
0000
0000
,  // measure 30
0001
0000
0000
0000
,  // measure 31
1000
0000
0000
0000
,  // measure 32
0010
0000
0000
0000
,  // measure 33
0100
0000
0000
0000
,  // measure 34
0001
0000
0000
0000
,  // measure 35
1000
0000
0100
0000
,  // measure 36
0001
0000
0000
0000
,  // measure 37
0001
0000
0010
0000
,  // measure 38
1000
0000
0000
0000
,  // measure 39
1000
0000
0000
0000
,  // measure 40
0100
0000
0000
0000
,  // measure 41
0010
0000
0000
0000
,  // measure 42
0000
0000
0000
0000
,  // measure 43
0001
0001
0000
0000
,  // measure 44
1000
1000
0000
0000
,  // measure 45
0010
0000
0000
0000
,  // measure 46
0100
0000
0000
0000
,  // measure 47
1000
1000
0000
0000
,  // measure 48
0001
0001
0000
0000
,  // measure 49
0010
0000
0000
0000
,  // measure 50
0100
0000
0000
0000
,  // measure 51
0100
0100
0000
0000
,  // measure 52
0010
0010
0000
0000
,  // measure 53
1000
0000
0000
0000
,  // measure 54
0001
0000
0000
0000
,  // measure 55
1000
0000
0100
0000
,  // measure 56
0001
0000
0010
0000
,  // measure 57
1000
0000
0001
0000
,  // measure 58
0100
0100
0000
0000
,  // measure 59
0110
0000
0000
0000
,  // measure 60
0000
0000
0000
0100
;
