#TITLE:焔極OVERKILL;
#SUBTITLE:;
#ARTIST:RoughSketch Vs. L.E.D.-G;
#TITLETRANSLIT:Engoku OVERKILL;
#SUBTITLETRANSLIT:;
#ARTISTTRANSLIT:;
#GENRE:beatmania IIDX;
#CREDIT:;
#BANNER:;
#BACKGROUND:;
#LYRICSPATH:;
#CDTITLE:;
#MUSIC:Engoku OVERKILL.ogg;
#OFFSET:0.140000;
#SAMPLESTART:89.859673;
#SAMPLELENGTH:15.000000;
#SELECTABLE:YES;
#DISPLAYBPM:192.000000;
#BPMS:0.000000=192.000000
;
#STOPS:
;
#BGCHANGES:;
#KEYSOUNDS:;
#ATTACKS:;

//---------------dance-single - ----------------
#NOTES:
     dance-single:
     :
     Beginner:
     5:
     0.203216,0.268301,0.086931,0.118542,0.000000,180.000000,169.000000,11.000000,15.000000,0.000000,0.000000,0.203216,0.268301,0.086931,0.118542,0.000000,180.000000,169.000000,11.000000,15.000000,0.000000,0.000000:
0000
0000
0000
0000
,
0000
0000
0000
0000
,
0000
0000
0000
0000
,
0000
0000
0000
0000
,
0000
0000
0000
0000
,
0001
0000
0001
0000
,
1000
0000
0000
0000
,
1000
0000
1000
0000
,
0001
0000
0000
0000
,
0010
0000
0010
0000
,
0100
0000
0000
0000
,
0100
0000
0100
0000
,
0010
0000
0000
0000
,
1000
0000
0100
0000
,
0010
0000
0010
0000
,
0001
0000
0010
0000
,
0100
0000
0100
0000
,
1000
0000
0100
0000
,
0010
0000
0001
0000
,
0001
0000
0010
0000
,
0100
0000
1000
0000
,
2002
0000
0000
0000
,
3003
0000
0000
0000
,
1000
0000
1000
0000
,
0100
0000
0010
0000
,
0001
0000
0001
0000
,
0010
0000
0100
0000
,
1000
0000
1000
0000
,
0010
0000
0100
0000
,
0001
0000
0001
0000
,
0100
0000
0010
0000
,
1000
0000
0100
0000
,
0010
0000
0001
0000
,
0010
0000
0100
0000
,
0001
0000
1000
0000
,
0001
0000
0010
0000
,
0100
0000
1000
0000
,
0010
0000
0010
0000
,
0100
0100
0100
0000
,
1000
0000
0100
0000
,
1000
0000
0010
0000
,
0001
0000
0100
0000
,
0001
0000
0010
0000
,
1000
0000
0100
0000
,
0010
0000
0010
0000
,
0001
0000
0010
0000
,
0100
0000
0100
0000
,
1001
0000
0010
0000
,
0010
0000
0100
0000
,
1000
0000
0010
0000
,
0100
0000
0001
0000
,
1001
0000
0100
0000
,
0100
0000
0010
0000
,
1000
0000
0010
0000
,
0100
0000
0001
0000
,
2002
0000
0000
0000
,
0000
0000
0000
0000
,
3003
0000
0000
0000
,
0000
0000
0000
0000
,
0100
0000
0100
0000
,
0010
0000
0010
0000
,
1000
0000
0001
0000
,
1000
0000
0001
0000
,
1000
0000
0100
0000
,
0010
0010
0010
0000
,
0001
0000
0010
0000
,
0100
0100
0100
0000
,
1000
0000
0100
0000
,
0001
0001
0001
0000
,
0001
0000
0010
0000
,
1000
1000
1000
0000
,
0200
0000
0000
0000
,
0310
0000
0000
0000
,
0010
0000
0010
0000
,
1000
0000
1000
0000
,
0100
0000
0100
0000
,
0001
0000
0001
0000
,
1000
0000
0100
0000
,
0010
0000
0010
0000
,
0001
0000
0010
0000
,
0100
0000
0100
0000
,
2002
0000
0000
3003
,
0100
0000
0100
0000
,
0010
0000
1000
0000
,
0010
0000
0100
0000
,
0100
0000
0001
0000
,
0100
0000
0010
0000
,
1000
0000
0100
0000
,
0010
0000
1001
0000
,
0220
0000
0330
0000
,
0001
0000
1000
0000
,
2002
0000
3003
0000
,
0100
0000
0010
0000
,
0220
0000
0330
0000
,
0001
0000
1000
0000
,
2002
0000
3003
0000
,
0100
0000
0100
0000
,
0110
0000
0000
0000
;

//---------------dance-single - ----------------
#NOTES:
     dance-single:
     :
     Easy:
     8:
     0.379336,0.421616,0.086931,0.126445,0.000000,336.000000,325.000000,11.000000,16.000000,0.000000,0.000000,0.379336,0.421616,0.086931,0.126445,0.000000,336.000000,325.000000,11.000000,16.000000,0.000000,0.000000:
0000
0000
0000
0000
,
0000
0000
0000
0000
,
0000
0000
0000
0000
,
0000
0000
0000
0000
,
0000
0000
0000
0000
,
1000
0000
0100
0000
0010
0000
0000
0001
,
0000
0001
0000
0000
0000
0000
0000
0000
,
0001
0000
0010
0000
0100
0000
0000
1000
,
0000
1000
0000
0000
0000
0010
0000
0000
,
0100
0000
0010
0000
0100
0000
0000
0010
,
0000
0010
0000
0000
0000
0000
0000
0000
,
1000
0000
0001
0000
1000
0000
0000
1000
,
0000
1000
0000
0000
0000
0001
0000
0000
,
0100
0000
0100
0000
,
0010
0000
0010
0000
,
1000
0000
0001
0000
,
1000
0000
0001
0000
,
0001
0010
0001
0100
,
0001
1000
0001
0100
,
0001
0010
0001
0100
,
0001
0100
0010
1000
,
0200
0000
0000
0000
,
0310
0000
0110
0000
,
1001
0010
1000
0100
,
0010
0000
0100
0000
0001
0100
0001
0000
,
0100
0010
1000
0001
,
0100
0000
0010
0000
1000
0100
1000
0000
,
0000
1001
0010
1000
,
0100
0000
0010
0000
0001
0010
0001
0000
,
0100
0010
1000
0001
,
0100
0000
0010
0000
1000
0100
1000
0000
,
0010
0100
0010
1000
,
0010
0100
0001
0010
,
1000
0100
0010
0001
,
0100
0010
1000
0001
,
0000
1001
0001
0100
,
0010
0000
1000
0000
0010
0100
0010
0000
,
1000
0100
0010
0001
,
2000
0000
3002
0000
,
1003
0100
0010
0010
,
0001
0100
0010
0010
,
1000
0100
0010
0010
,
0001
0100
0010
0010
,
1000
0001
0100
0100
,
0001
1000
0100
0100
,
1000
0010
0100
0001
,
0200
0000
0320
0000
,
1030
0001
1000
0001
,
0100
0010
0100
0010
,
0001
0010
0100
1000
,
0010
0100
0010
1001
,
0100
1000
0010
0100
,
0001
0001
1000
1000
,
0010
0100
0010
0000
1000
0001
1000
0000
,
0200
0000
0320
0000
,
0200
0000
0000
0000
,
0000
0000
0000
0000
,
0000
0000
0000
0000
,
0000
0000
0330
0000
,
0001
0001
1000
1000
,
0001
0001
1000
1000
,
0010
0100
0010
0100
,
2002
0000
0000
3003
,
0100
1000
0100
1000
,
0010
0100
0001
0010
,
1000
0010
1000
0010
,
0001
0100
0010
0001
,
0010
0001
0010
0001
,
0100
0010
1000
0001
,
0100
1000
0010
0100
,
0001
0001
1000
1000
,
2002
0000
0000
0000
,
3003
0000
0000
0110
,
1000
0100
0010
0010
,
0001
0100
0010
0010
,
1000
0100
0001
0010
,
1000
0001
0100
1001
,
0010
1000
0100
0001
,
0010
0100
1000
0001
,
0100
0100
0010
0010
,
1000
0001
0010
0100
,
2002
3003
0010
0100
,
1000
0010
0100
0001
,
0100
1000
0010
0001
,
0100
0100
0010
0010
,
0001
0000
0100
0000
1000
0100
1000
0000
,
0010
0000
1000
0000
0010
0001
0010
0000
,
0001
0000
1000
0000
0001
1000
0001
0000
,
0200
0000
0320
0000
,
0130
0001
0100
1000
,
0010
0000
1000
0001
0000
0001
1000
0000
,
0010
1000
0100
0010
,
0001
0000
0100
0010
0000
0010
0100
0000
,
0001
1000
0100
0010
,
0001
0000
1000
0001
0000
0001
1000
0000
,
0010
1000
0100
0001
,
0010
0000
0100
0010
0000
0010
0100
0000
,
1001
0000
0000
0000
;

//---------------dance-single - ----------------
#NOTES:
     dance-single:
     :
     Medium:
     13:
     0.565617,0.689917,0.150154,0.094834,0.011854,501.000000,482.000000,19.000000,12.000000,0.000000,0.000000,0.565617,0.689917,0.150154,0.094834,0.011854,501.000000,482.000000,19.000000,12.000000,0.000000,0.000000:
// measure 0
0000
0000
0000
0000
,  // measure 1
0000
0000
0000
0000
,  // measure 2
0000
0000
0000
0000
,  // measure 3
0000
0000
0000
0000
,  // measure 4
0000
0000
0000
0000
,  // measure 5
0000
0000
0001
0000
0010
0100
1000
0010
,  // measure 6
0000
0200
0000
0000
0000
0000
0000
0000
,  // measure 7
0000
0000
0301
0000
1000
0010
0100
0001
,  // measure 8
0000
0010
0000
0100
0000
1000
0001
0000
,  // measure 9
0100
0000
0010
0000
1000
0010
0100
0001
,  // measure 10
0000
0020
0000
0000
0000
0000
0000
0000
,  // measure 11
0000
0000
0130
0000
0001
1000
0010
0100
,  // measure 12
0000
1000
0000
0001
0000
1000
1001
0000
,  // measure 13
0010
0100
1000
0000
1000
0100
0010
0000
,  // measure 14
0100
0010
0001
0000
0001
0010
0100
0000
,  // measure 15
0001
0100
1000
0000
1000
0100
0001
0000
,  // measure 16
0001
0010
1000
0000
1000
0010
0001
0000
,  // measure 17
1000
0010
0100
0000
0001
0100
0010
0000
,  // measure 18
1000
0010
0100
0000
0001
0100
0010
0000
,  // measure 19
1000
0100
0001
0000
0001
0010
1000
0000
,  // measure 20
0010
0100
0010
0100
0001
1000
0001
1000
,  // measure 21
0020
0000
0000
0000
,  // measure 22
0130
0000
1001
0000
,  // measure 23
1000
0000
0100
0000
0010
0100
0010
0001
,  // measure 24
0010
1000
0010
0100
,  // measure 25
0001
0000
0010
0000
0100
1000
0100
0010
,  // measure 26
0100
0000
0001
0000
1000
0010
0100
0000
,  // measure 27
0001
0000
1001
0000
0010
0100
0001
0100
,  // measure 28
0010
0100
0010
0100
,  // measure 29
0001
0000
0010
0000
0100
1000
0010
1000
,  // measure 30
0100
0010
0001
1001
,  // measure 31
1000
0100
0010
0000
0100
0001
0010
0000
,  // measure 32
1000
0000
0001
0000
0100
0010
1001
0000
,  // measure 33
0010
0000
0100
0000
0001
0010
0100
0000
,  // measure 34
1000
0010
0100
0000
0001
0000
1001
0000
,  // measure 35
0010
0000
1010
0000
0001
1000
0100
0010
,  // measure 36
0001
0000
0110
0000
0001
0010
0100
1000
,  // measure 37
0010
0100
0010
0100
0001
1000
0001
1000
,  // measure 38
0001
0010
0100
1000
0010
0000
1001
0000
,  // measure 39
1000
0000
1000
0100
0000
0100
0010
0000
,  // measure 40
0010
0001
0000
0001
1000
0000
1001
0000
,  // measure 41
0001
0000
0001
0100
0000
0100
0010
0000
,  // measure 42
0010
1000
0000
1000
0001
0000
1001
0000
,  // measure 43
1000
0000
1000
0100
0000
0100
0001
0000
,  // measure 44
0001
0010
0000
0010
1000
0000
1001
0000
,  // measure 45
1000
0000
1000
0100
0000
0100
0010
0000
,  // measure 46
0010
0001
0000
0001
1000
0001
1000
0000
,  // measure 47
0001
0100
0001
0100
0000
0100
1000
0000
,  // measure 48
1000
0100
0000
0100
0010
0100
0010
0000
,  // measure 49
0010
0000
0010
0100
0000
0001
0010
0000
,  // measure 50
0010
1000
0000
1000
0100
0010
0001
0100
,  // measure 51
0010
0100
0010
0100
0001
1000
0001
1000
,  // measure 52
0001
0100
0010
1000
0100
0010
0100
0001
,  // measure 53
0010
0100
0010
0100
0001
1000
0001
1000
,  // measure 54
0002
0000
2003
0000
,  // measure 55
3020
0000
0000
0000
,  // measure 56
0000
0000
0000
0000
,  // measure 57
0000
0000
0000
0000
,  // measure 58
0000
0000
0000
0030
,  // measure 59
0100
0100
0010
0010
,  // measure 60
1000
1000
0001
0001
,  // measure 61
0001
0010
0100
1000
0010
0100
0010
0001
,  // measure 62
2000
0000
0000
3001
,  // measure 63
0010
0000
1000
0000
0010
1000
0100
0000
,  // measure 64
0010
0000
0100
0000
0001
0000
0000
0000
0001
0000
1000
0100
1000
0000
0000
0000
,  // measure 65
0010
1000
0100
0001
0010
0100
1000
0000
,  // measure 66
0001
0100
0010
1000
0100
0010
0001
0000
,  // measure 67
0100
0000
0010
0000
0001
0010
1000
0000
,  // measure 68
1000
0000
0100
0000
0001
0000
0000
0000
1000
0000
0001
0010
0001
0000
0000
0000
,  // measure 69
1000
0100
0010
0000
0010
0100
0000
0100
,  // measure 70
0001
0000
0001
1000
0000
1000
0010
0100
,  // measure 71
0002
0000
0000
0000
,  // measure 72
1003
0000
0110
1001
,  // measure 73
0010
0000
1000
0100
0010
0100
0001
0000
,  // measure 74
0100
0000
0001
0010
0100
0010
1000
0000
,  // measure 75
1000
0100
0001
0000
0001
1000
0010
0000
,  // measure 76
0001
1000
0010
0100
0001
0010
1000
0000
,  // measure 77
1001
0000
0010
1000
0100
0010
0100
0000
,  // measure 78
0001
0000
0100
0010
0100
0001
0010
0000
,  // measure 79
1000
0100
0010
0000
0001
0010
0100
0000
,  // measure 80
1000
0001
0100
0010
1000
0100
0010
0001
,  // measure 81
0022
0000
0033
1100
,  // measure 82
0001
0010
0100
0000
1000
0100
0010
0000
,  // measure 83
0001
0100
1000
0100
0010
0100
0001
0000
,  // measure 84
1000
0010
0100
0001
0010
0000
1001
0000
,  // measure 85
0010
0100
1000
0010
0100
0001
1000
0000
,  // measure 86
0001
0100
0010
1000
0010
0100
0001
0000
,  // measure 87
0001
0000
1000
0000
0010
0000
0100
0000
0010
0000
0001
0000
0010
0000
1000
0100
,  // measure 88
2000
0000
3002
0000
,  // measure 89
1003
0000
0100
0000
0010
0100
0001
0000
,  // measure 90
0010
0000
0100
1000
0000
1000
0001
0000
,  // measure 91
0100
0000
0010
0000
1000
0001
0010
0000
,  // measure 92
0100
0000
0001
0010
0000
0010
0100
0000
,  // measure 93
1000
0010
0100
0000
0001
0100
0010
0000
,  // measure 94
1000
0100
0001
0010
0000
0001
0010
0000
,  // measure 95
0100
1000
0010
1000
0100
0001
0010
0100
,  // measure 96
0001
1000
0001
1000
0010
0100
0010
0100
,  // measure 97
1001
0000
0000
0000
;

//---------------dance-single - ----------------
#NOTES:
     dance-single:
     :
     Hard:
     15:
     0.773348,1.226519,0.458364,0.134348,0.244988,685.000000,627.000000,58.000000,17.000000,0.000000,0.000000,0.773348,1.226519,0.458364,0.134348,0.244988,685.000000,627.000000,58.000000,17.000000,0.000000,0.000000:
// measure 0
0000
0000
0000
0000
,  // measure 1
0000
0000
0000
0000
,  // measure 2
0000
0000
0000
0000
,  // measure 3
0000
0000
0000
0000
,  // measure 4
0000
0000
0000
0000
,  // measure 5
0110
0000
1001
0000
0001
0100
0010
1000
,  // measure 6
0000
0200
0000
0000
0000
0000
0300
0000
,  // measure 7
1100
0000
0011
0000
0010
1000
0100
0010
,  // measure 8
0000
0001
0000
0100
0000
0010
1000
0000
,  // measure 9
0011
0000
0110
0000
0100
0010
1000
0100
,  // measure 10
0000
0020
0000
0000
0000
0000
0030
0000
,  // measure 11
1100
0000
0101
0000
0010
0100
1000
0010
,  // measure 12
0000
0100
0000
0001
0000
1000
1100
0000
,  // measure 13
0101
0000
0110
0000
1000
0100
0010
1000
,  // measure 14
1001
0000
0011
0000
0001
0100
0010
1000
,  // measure 15
1100
0000
0110
0000
0010
0100
0001
0010
,  // measure 16
1010
0000
0011
0000
1000
0100
0010
0001
,  // measure 17
0100
0010
1000
0010
0100
0001
0010
0100
,  // measure 18
1000
0010
1000
0100
0010
0001
0100
0010
,  // measure 19
0100
0010
0100
0010
0100
0010
0100
0010
1000
0001
1000
0001
1000
0001
1000
0001
,  // measure 20
0010
0100
1000
0100
0010
0001
1000
0100
0010
0001
0100
0010
0001
0010
0100
0000
,  // measure 21
2000
0000
0000
0000
,  // measure 22
3001
0100
1001
0000
,  // measure 23
1000
0000
0110
0000
0001
1000
0010
0100
,  // measure 24
1000
0001
0010
0100
1000
0010
1000
0100
,  // measure 25
0101
0000
0110
0000
1000
0100
0010
0100
,  // measure 26
0001
0010
0100
1000
0001
0100
0010
0100
,  // measure 27
1100
0000
0110
0000
0001
0100
0010
1000
,  // measure 28
0100
0010
0100
0001
0010
0100
1000
0010
,  // measure 29
0100
1000
1100
0000
0100
0001
0101
0000
,  // measure 30
0010
0100
1000
0100
0010
0100
1001
0000
,  // measure 31
0011
0000
1100
0000
0001
0010
0100
1000
,  // measure 32
0010
1000
0100
0010
0100
0001
1001
1000
,  // measure 33
1010
0000
0101
0000
0001
0010
0100
1000
,  // measure 34
0010
1000
0100
0001
0010
0100
0110
0010
,  // measure 35
0100
0000
1001
0000
0010
1000
0100
0010
,  // measure 36
0100
0001
0010
0100
1000
0010
1000
0100
,  // measure 37
0001
0001
0100
0100
0010
0010
1000
1000
,  // measure 38
0002
0000
2003
0000
,  // measure 39
3010
0000
0100
1000
0000
1000
0100
0000
,  // measure 40
0010
0100
0001
1000
0010
1000
1001
0000
,  // measure 41
0010
0000
0100
0001
0000
0001
1000
0000
,  // measure 42
0010
0100
0001
1000
0100
0010
1001
0000
,  // measure 43
0010
0100
1000
0010
0000
0100
0010
0100
,  // measure 44
0001
0010
0000
0100
0010
1000
0101
0000
,  // measure 45
0010
0100
1000
0010
1000
0100
0001
0010
,  // measure 46
0100
1000
0001
0100
0010
0001
1000
0100
,  // measure 47
0110
0001
1000
0001
0100
1000
0100
0001
,  // measure 48
0010
0100
0001
0010
0100
1000
0010
0000
,  // measure 49
1001
0000
1000
0100
0000
0100
0010
0001
,  // measure 50
0100
0010
1000
0100
0010
0100
0101
0000
,  // measure 51
0010
0100
1000
0010
1000
0100
0010
0001
,  // measure 52
0001
0100
0010
1000
0100
0010
0100
0001
,  // measure 53
0010
0000
0100
0000
0010
0000
0100
0000
0001
1000
0001
0010
0100
0010
1000
0001
,  // measure 54
0020
0001
0230
1000
,  // measure 55
0302
0000
0000
0000
,  // measure 56
1000
0000
0000
0000
,  // measure 57
0100
0000
0000
0000
,  // measure 58
0010
0000
0000
0000
,  // measure 59
1003
1000
0010
0100
,  // measure 60
0001
0001
0100
0010
,  // measure 61
1000
0100
0010
0100
0001
0010
0100
1000
,  // measure 62
0002
0000
1003
0000
,  // measure 63
0010
0000
1000
0000
0100
0000
0010
0000
0001
1000
0100
1000
0001
0000
0100
0000
,  // measure 64
0001
1000
0010
0100
1000
0010
1001
0000
,  // measure 65
0010
0000
1000
0000
0100
0000
0010
0000
0001
1000
0010
1000
0001
0000
0010
0000
,  // measure 66
1000
0100
0010
0100
0001
0100
0110
0000
,  // measure 67
0001
0000
0010
0000
0100
0000
1000
0000
0010
0100
0010
0001
0010
0000
0001
0000
,  // measure 68
0100
0010
1000
0100
0010
0100
1001
0000
,  // measure 69
0010
1000
1100
0000
0010
0011
0000
0001
,  // measure 70
1001
0000
1000
1100
0000
0100
0110
0000
,  // measure 71
2002
0000
0000
3003
,  // measure 72
0100
0010
2002
3003
,  // measure 73
1000
0000
0010
0100
0010
0000
0100
0000
0001
0000
0010
0000
0100
0000
1000
0000
,  // measure 74
0010
0000
0001
1000
0001
0000
0010
0000
1000
0000
0100
0000
0010
0000
0001
0000
,  // measure 75
1000
0000
0100
0010
0100
0000
0001
0000
0010
0000
0100
0000
1000
0000
0010
0000
,  // measure 76
0100
0000
0001
0010
0100
0000
1000
0000
0010
0000
1000
0100
0010
0000
0100
0000
,  // measure 77
0001
0000
0010
0000
0100
0000
1000
0000
0010
0000
1000
0001
1000
0000
0001
0000
,  // measure 78
0010
0000
0100
0000
1000
0000
0010
0000
0001
0000
0100
0010
0100
0000
1000
0000
,  // measure 79
0010
0000
1000
0100
0010
0000
0100
0000
0010
0000
0001
0010
0100
0000
1000
0000
,  // measure 80
0010
0100
0001
1000
0010
1000
0100
0010
,  // measure 81
2002
0000
0000
0000
3003
0000
0000
0000
0010
0100
0010
0000
0110
0000
0000
0000
,  // measure 82
0010
0000
1000
0100
0010
0000
1000
0000
0100
0000
0001
0010
0100
0000
0001
0000
,  // measure 83
0010
0000
1000
0100
0001
0000
0100
0000
0001
0000
0010
0000
0100
0000
1000
0000
,  // measure 84
0001
0010
1000
0100
0110
0011
0000
0000
,  // measure 85
0001
0000
0100
0010
1000
0000
0001
0000
1000
0000
0100
0000
0010
0000
1000
0000
,  // measure 86
0001
0000
1000
0001
0010
0000
1000
0000
0100
0000
0010
0000
1000
0000
0001
0000
,  // measure 87
1000
0001
1000
0001
1000
0100
1000
0100
0001
0010
0001
0010
0001
1000
0001
1000
,  // measure 88
0002
0000
0023
0000
,  // measure 89
1030
0100
1001
0000
0010
1000
0100
0010
,  // measure 90
0001
0000
0100
0110
0000
0001
0010
1000
,  // measure 91
0100
0000
0010
0000
1000
0100
0000
0100
0010
0000
0010
0001
0000
0001
1000
0000
,  // measure 92
0001
1000
0001
1000
0001
0000
0100
0000
0010
0000
1000
0000
0100
0000
0000
0000
,  // measure 93
1001
0000
0010
1000
0100
0010
0001
0100
,  // measure 94
0010
1000
1001
1001
0000
0010
1000
0100
,  // measure 95
0010
0010
0100
0100
0001
1000
0010
0100
,  // measure 96
1000
0001
0100
0010
0001
0010
1000
0100
0010
0001
0010
0100
0001
0010
1000
0100
,  // measure 97
1000
0000
0000
0000
;
