#TITLE:Emblem of the Moon;
#SUBTITLE:;
#ARTIST:dj TAKA;
#TITLETRANSLIT:;
#SUBTITLETRANSLIT:;
#ARTISTTRANSLIT:;
#GENRE:REFLEC BEAT;
#CREDIT:;
#BANNER:;
#BACKGROUND:;
#LYRICSPATH:;
#CDTITLE:;
#MUSIC:Emblem of the Moon.ogg;
#OFFSET:-1.127000;
#SAMPLESTART:92.320541;
#SAMPLELENGTH:15.000000;
#SELECTABLE:YES;
#DISPLAYBPM:150.000000;
#BPMS:0.000000=150.000000
;
#STOPS:
;
#BGCHANGES:;
#KEYSOUNDS:;
#ATTACKS:;

//---------------dance-single - ----------------
#NOTES:
     dance-single:
     :
     Beginner:
     2:
     0.104449,0.117795,0.000000,0.000000,0.000000,90.000000,0.000000,0.000000,0.000000,0.000000,0.000000,0.104449,0.117795,0.000000,0.000000,0.000000,90.000000,0.000000,0.000000,0.000000,0.000000,0.000000:
0000
0000
0000
0000
,
0000
0000
0000
0000
,
0000
0000
0000
0000
,
0000
0000
0000
0000
,
0000
0000
0000
0000
,
1000
0000
0000
0000
,
0100
0000
0000
0000
,
1000
0000
0000
0000
,
0010
0000
0000
0000
,
0100
0000
0000
0000
,
0100
0000
0000
0000
,
0010
0000
0000
0000
,
0010
0000
0000
0000
,
1000
0000
0000
0000
,
1000
0000
0000
0000
,
0001
0000
0100
0000
,
0001
0000
0010
0000
,
1000
0000
0000
0000
,
0100
0000
0000
0000
,
1000
0000
0000
0000
,
0010
0000
0000
0000
,
0100
0000
0001
0000
,
0100
0000
0001
0000
,
0100
0000
0000
0000
,
0100
0000
0000
0000
,
1000
0000
0100
0000
,
0010
0000
0001
0000
,
1000
0000
0000
0000
,
0001
0000
0000
0000
,
0001
0000
0010
0000
,
0100
0000
1000
0000
,
0001
0000
0000
0000
,
1000
0000
0000
0000
,
1000
0000
0010
0000
,
0100
0000
0001
0000
,
0100
0000
0000
0000
,
0010
0000
0000
0000
,
0001
0000
0100
0000
,
0010
0000
1000
0000
,
0100
0000
0000
0000
,
0010
0000
0000
0000
,
1000
0000
0000
0000
,
0100
0000
0000
0000
,
0001
0000
0000
0000
,
0010
0000
0000
0000
,
1000
0000
0000
0000
,
0100
0000
0000
0000
,
0001
0000
0000
0000
,
0010
0000
0000
0000
,
1000
0000
0000
0000
,
0100
0000
0000
0000
,
1000
0000
0000
0000
,
0100
0000
0000
0000
,
0001
0000
0000
0000
,
0100
0000
0000
0000
,
0001
0000
0000
0000
,
0100
0000
0000
0000
,
1000
0000
0100
0000
,
0010
0000
0100
0000
,
1000
0000
0100
0000
,
0010
0000
0001
0000
,
0010
0000
0000
0000
,
0100
0000
0000
0000
,
0001
0000
0000
0000
,
1000
0000
0000
0000
,
0001
0000
0010
0000
,
0100
0000
0010
0000
,
0001
0000
0010
0000
,
0100
0000
1000
0000
,
0010
0000
0000
0000
,
0100
0000
0000
0000
,
1000
0000
0001
0000
,
1000
0000
0001
0000
;

//---------------dance-single - ----------------
#NOTES:
     dance-single:
     :
     Easy:
     5:
     0.271567,0.265953,0.089362,0.146229,0.000000,205.000000,11.000000,18.000000,0.000000,0.000000,0.000000,0.271567,0.265953,0.089362,0.146229,0.000000,205.000000,11.000000,18.000000,0.000000,0.000000,0.000000:
0000
0000
0000
0000
,
0000
0000
0000
0000
,
0000
0000
0000
0000
,
0000
0000
0000
0000
,
0000
0000
0000
0000
,
2000
0000
3100
0000
,
0002
0000
0103
0000
,
2000
0000
3010
0000
,
0002
0000
0013
0000
,
1000
0100
1000
0000
,
0001
0100
0001
0010
,
0001
0000
1000
0010
,
0100
0000
0001
0100
,
0010
0000
1000
0100
,
0001
0000
1000
0010
,
0001
0000
1000
0100
,
0001
0100
1000
0010
,
1000
0100
1000
0100
,
0001
0100
0001
0100
,
1000
0010
1000
0010
,
0002
0000
0010
0013
,
0100
0010
1000
0010
,
0100
0001
0100
0010
,
0001
0010
0100
1000
,
0200
0000
0000
0300
,
0001
1000
0010
0000
,
1000
0001
0100
0000
,
1000
0100
0001
0000
,
1000
0010
0001
0000
,
0001
0100
0010
0000
,
0100
0010
1000
0000
,
0100
0010
0001
0000
,
1000
0100
0010
0000
,
1000
0100
1000
0100
,
0001
0010
0001
0000
,
0010
0001
0010
0001
,
1000
0010
1000
0000
,
1000
0100
0001
0010
,
1000
0100
1000
0100
,
0001
0100
0001
0100
,
0020
0000
0130
0001
,
2000
0000
0000
0000
,
3100
0000
0010
0000
,
0200
0000
0000
0301
,
0020
0000
0031
0000
,
2000
0000
0000
3001
,
0020
0000
0130
0000
,
0002
0000
0000
0103
,
1000
0000
0100
0000
,
1000
1100
0000
0001
,
0100
0101
0000
1000
,
0010
1010
0000
0001
,
0010
0011
0000
1000
,
0001
1000
0000
0100
,
0010
0100
0000
1000
,
0100
0010
0001
0010
,
0200
0000
0000
1300
,
1100
1000
0001
0100
,
0010
0010
0000
0100
,
0001
0100
0010
1000
,
0100
0100
0000
0010
,
1000
0001
0010
0100
,
0010
0001
0100
0010
,
1000
0100
1000
0100
,
1001
1001
1001
0000
,
0020
0000
0000
1030
,
0200
0000
0000
0301
,
0020
0000
0000
0130
,
2000
0000
0000
3001
,
0001
0100
0010
1000
,
0100
0010
0001
0100
,
0010
0000
0100
0000
,
1001
1001
0010
0110
;

//---------------dance-single - ----------------
#NOTES:
     dance-single:
     :
     Medium:
     9:
     0.373695,0.383824,0.113733,0.113733,0.004062,294.000000,14.000000,14.000000,0.000000,0.000000,0.000000,0.373695,0.383824,0.113733,0.113733,0.004062,294.000000,14.000000,14.000000,0.000000,0.000000,0.000000:
0000
0000
0000
0000
,
0000
0000
0000
0000
,
0000
0000
0000
0000
,
0000
0000
0000
0000
,
0000
0000
0000
0000
,
2000
0000
3100
0000
,
0002
0000
0013
0000
,
2000
0000
3100
0000
,
0002
0000
0013
1000
,
1100
1000
0100
1000
,
0100
0001
0100
0001
,
0010
0001
0010
0001
,
1000
0010
1000
0010
,
1000
0100
0010
0001
,
1000
0010
0100
0001
,
1000
0100
0010
0001
,
1000
0010
0100
0001
,
0100
0100
0010
1000
,
0010
0010
0100
0001
,
1000
0100
1000
0100
,
0001
0100
0001
0100
,
1000
0010
0100
0001
,
1000
0100
0010
0001
,
1000
0010
0100
0001
,
0200
0000
0010
0310
,
0001
1000
0010
0000
1000
0000
1001
0000
,
1000
0010
0100
0001
,
1000
0001
0100
0000
0001
0000
1001
0000
,
0001
0100
0010
1000
,
0100
1000
0100
0000
0010
0000
0110
0000
,
0001
1000
0010
0100
,
0001
0010
0001
0000
0010
0000
0110
0000
,
1000
0000
0100
0000
0010
0100
0001
0000
,
0010
0000
1100
0000
1000
0010
0100
0000
,
0001
0000
0101
0000
0001
0100
0010
0000
,
1000
0100
0010
0000
0100
0010
0001
0000
,
0001
0010
0100
0000
0010
0100
1000
0000
,
1000
0000
0010
0000
1000
0010
0100
0000
,
0010
0000
0100
0000
0010
0100
0001
0000
,
0010
0000
0001
0000
0010
0001
0100
0000
,
0001
0000
1000
0000
0010
1000
0001
0100
,
0020
0000
0000
1030
,
0200
0000
0000
0000
1300
0000
0010
1000
,
0002
0000
0000
0103
,
0020
0000
0000
0000
1030
0000
0100
0010
,
0002
0000
0000
0000
0000
0000
0103
0010
,
2000
0000
0000
0000
0000
0000
3010
0100
,
0002
0000
0000
0000
0000
0000
0103
0010
,
2000
0000
3010
0010
,
0001
0100
0010
1000
0000
0100
0000
1000
,
0000
0100
0000
0000
0010
0000
0100
0000
,
1000
0100
0010
0001
0000
0010
0000
0001
,
0000
0010
0000
0000
0001
0000
1000
0000
,
0010
0100
0010
0100
0001
0000
0010
0000
,
0100
0010
0100
0010
1000
0000
0100
0000
,
0010
1000
0001
0010
,
0200
0000
0010
0000
0310
0001
0100
0000
,
0010
0100
1000
0100
0010
0000
0101
0000
,
0010
0100
1000
0010
,
0100
0010
0001
0010
0100
0000
1010
0000
,
0100
0001
0010
1000
,
0100
1000
0100
0000
0010
0000
0100
0000
,
0001
1000
0010
0100
,
0010
0001
0010
0000
0100
0000
0010
0000
,
1000
0001
0100
0010
,
1000
0100
0001
0100
1000
0000
1001
0000
,
0010
1000
0100
0001
,
0001
0010
1000
0010
0001
0000
1001
0000
,
0010
1000
0100
0001
,
0100
1000
0010
0000
0010
0000
0101
0000
,
0010
0100
0001
0000
0100
0000
1100
0000
,
0010
1000
0010
0000
0010
0100
0010
0000
,
0001
0000
0010
0000
0001
0000
0000
0000
0001
0000
0000
1001
0000
0000
0000
0000
;

//---------------dance-single - ----------------
#NOTES:
     dance-single:
     :
     Hard:
     13:
     0.555901,0.590499,0.194971,0.073114,0.089362,446.000000,24.000000,9.000000,0.000000,0.000000,0.000000,0.555901,0.590499,0.194971,0.073114,0.089362,446.000000,24.000000,9.000000,0.000000,0.000000,0.000000:
0000
0000
0000
0000
,
0000
0000
0000
0000
,
0000
0000
0000
0000
,
0000
0000
0000
0000
,
0000
0000
0000
0000
,
1000
0000
0100
1000
0100
0000
0010
0000
,
0100
0000
0001
0010
0001
0000
0010
0000
,
1000
0000
0001
0100
0001
0000
0100
0000
,
0010
0000
1000
0100
1000
0000
0010
0000
,
0200
0010
0010
0310
,
0001
0010
0100
1000
,
0002
0100
0100
0103
,
0010
1000
0010
0000
0001
1000
0001
0000
,
0100
0001
0010
0000
1000
0000
1001
0000
,
1000
0010
0100
0000
0001
0000
1001
0000
,
0001
0010
1000
0000
1000
0100
0001
0000
,
0001
0010
1000
0100
0001
0010
1000
0100
,
0001
0100
0010
0100
0001
0100
0010
0000
,
1000
0010
0100
0010
1000
0010
0100
0000
,
0001
0100
1000
0100
0001
0100
1000
0100
,
0002
0100
0100
0103
,
0001
0010
1000
0010
0001
0010
1000
0000
,
0010
1000
0100
1000
0010
1000
0100
0000
,
0010
0001
0100
0001
0010
0001
0100
0000
,
2000
0100
0100
3100
,
0001
0100
0010
0000
1000
0000
1100
0000
,
1000
0010
0100
0001
0100
0010
1000
0000
,
0100
0010
1000
0000
0001
0000
0011
0000
,
0001
0100
0010
1000
0010
0100
0001
0000
,
0010
0000
0100
0001
0010
1000
0100
0000
,
1010
0000
1001
0000
0101
0000
0001
0100
,
0010
1000
0100
0010
0100
0001
0010
0100
,
2000
0000
0000
0000
0100
0000
0000
0000
3100
0000
0000
1000
0100
0000
0000
0000
,
0010
0100
0001
0010
0100
1000
0010
1000
,
0001
0100
0010
0100
0001
0000
1001
0000
,
0001
1000
0010
1000
0100
0010
0100
0001
,
0010
0100
1000
0010
0100
0001
0100
0000
,
1000
0100
0010
0000
0010
0100
0001
0000
,
0001
0100
0010
0000
0010
0100
1000
0000
,
1000
0100
0010
0100
0001
0010
0100
1000
,
0010
0000
0100
0000
0001
0000
0010
0000
0100
0000
1000
0000
0001
0000
0100
0010
,
0200
0000
0000
0000
1300
0001
0010
0100
,
0020
0000
0000
0000
0000
0000
0000
0000
0031
0000
0000
0000
0000
0000
0010
0100
,
0002
0000
0000
0000
0000
0000
0103
0010
,
2000
0000
0000
3100
0000
1000
0001
0010
,
1000
0100
0010
0001
0000
0000
0110
0000
,
0001
0010
0100
1000
0000
0000
0110
0000
,
0010
0000
0001
0000
0010
0000
0100
0000
0000
0000
0000
0000
1001
0000
0001
0010
,
1000
0100
1000
0001
0010
0000
1001
0000
,
0010
1000
0100
0001
0000
0101
0000
1100
,
0000
0001
1000
0010
1000
0100
0001
0010
,
0100
1000
0001
0100
0000
1010
0000
0011
,
0000
0001
1000
0010
1000
0100
0001
0010
,
0100
1000
0010
1000
0001
0100
0010
0100
,
0001
0010
0100
1000
0010
0100
0001
0010
,
0100
0001
0100
0000
0010
0000
0100
0000
1000
0010
1000
0000
0010
0000
0100
0000
,
0001
0000
0100
0001
0000
1000
0010
0000
1000
0000
0001
1000
0010
0000
0000
0000
,
1001
0010
1000
0001
1000
0010
0100
0001
,
0010
0100
1000
0000
1100
0000
1001
0000
,
0001
0000
0010
1000
0001
0010
1000
0100
,
0010
0100
0001
0000
0100
0000
1001
0000
,
0001
0010
1000
0100
0010
0001
0010
0100
,
0010
0100
1000
0010
1000
0100
0010
0001
,
0100
0010
0100
1000
0010
0100
0001
0010
,
0001
0000
0100
0001
0010
0000
1000
0000
0010
1000
0100
0000
1000
0000
0010
0000
,
0100
0001
0010
0100
0000
1100
0000
0101
,
0000
0001
0010
1000
0100
0010
0100
0001
,
0010
0100
1000
0010
0000
1010
0000
0011
,
0000
0000
0001
0000
0100
0000
0010
0000
1000
0000
0010
0100
0001
0100
0010
1000
,
0010
0000
0100
0000
0001
0000
0010
0000
0100
0000
1000
0000
0010
0100
0001
0100
,
0010
0000
1000
0000
0010
0000
0100
0000
0001
0000
0010
0000
1000
0010
0100
0010
,
1000
0001
0010
1000
0100
0010
0100
0001
,
0001
0010
0100
1000
0010
0000
0100
0000
0001
1000
0010
0100
0000
0000
0000
0000
;

//---------------dance-double - ----------------
#NOTES:
     dance-double:
     :
     Easy:
     1:
     0.120697,0.117795,0.000000,0.073114,0.000000,95.000000,0.000000,9.000000,0.000000,0.000000,0.000000,0.120697,0.117795,0.000000,0.073114,0.000000,95.000000,0.000000,9.000000,0.000000,0.000000,0.000000:
00000000
00000000
00000000
00000000
,
00000000
00000000
00000000
00000000
,
00000000
00000000
00000000
00000000
,
00000000
00000000
00000000
00000000
,
00000000
00000000
00000000
00000000
,
02000000
00000000
00000000
00000000
,
03010000
00000000
00100000
00000000
,
00020000
00000000
00000000
00000000
,
00031000
00000000
00000100
00000000
,
00000010
00000000
00000000
00000000
,
00001000
00000000
00010000
00000000
,
01000000
00000000
00000000
00000000
,
10000000
00000000
00100000
00000000
,
00010000
00000000
00000000
00000000
,
01000000
00000000
00010000
00000000
,
00001000
00000000
00000000
00000000
,
00010000
00000000
00000100
00000000
,
00000010
00000000
00000100
00000000
,
00000010
00000000
00000100
00000000
,
00001000
00000000
00000001
00000000
,
00001000
00000000
00000001
00000000
,
00000100
00000000
00010000
00000000
,
00001000
00000000
00100000
00000000
,
10000000
00000000
01000000
00000000
,
00200000
00000000
00000000
00300000
,
00010000
00000000
00000000
00000000
,
01000000
00000000
00000000
00000000
,
10000000
00000000
00000000
00000000
,
00100000
00000000
00000000
00000000
,
00001000
00000000
00000000
00000000
,
00010000
00000000
00000000
00000000
,
00000100
00000000
00000000
00000000
,
00000010
00000000
00000000
00000000
,
00000001
00000000
00000000
00000000
,
00000100
00000000
00000000
00000000
,
00001000
00000000
00000000
00000000
,
00000010
00000000
00000000
00000000
,
00001000
00000000
00000000
00000000
,
01000000
00000000
00000000
00000000
,
00100000
00000000
00000000
00000000
,
00010000
00000000
00000000
00000000
,
20000000
00000000
00000000
00000000
,
30000000
00000000
00000000
00000000
,
00002000
00000000
00000000
00000000
,
00003000
00000000
00000000
00000000
,
00000002
00000000
00000000
00000000
,
00000003
00000000
00000000
00000000
,
00020000
00000000
00000000
00000000
,
00030000
00000000
00000000
00000000
,
01000000
00000000
10000000
00000000
,
01000000
00000000
00000000
00000000
,
01000000
00000000
00010000
00000000
,
01000000
00000000
00000000
00000000
,
00010000
00000000
00001000
00000000
,
00010000
00000000
00000000
00000000
,
00001000
00000000
00000100
00000000
,
00001000
00000000
00000000
00000000
,
00010000
00000000
00100000
00000000
,
01000000
01000000
00000000
00000000
,
10000000
00000000
00100000
00000000
,
00010000
00010000
00000000
00000000
,
00001000
00000000
00000100
00000000
,
00000010
00000000
00000001
00000000
,
00001000
00000000
00000100
00000000
,
00001000
00000000
00010000
00000000
,
00100000
00000000
10000000
00000000
,
02000000
00000000
03000000
00000000
,
00100000
00000000
00010000
00000000
,
00002000
00000000
00003000
00000000
,
00000100
00000000
00000010
00000000
,
00000100
00000000
00001000
00000000
,
00010000
00000000
00100000
00000000
,
01000000
00000000
10000000
00000000
;

//---------------dance-double - ----------------
#NOTES:
     dance-double:
     :
     Medium:
     7:
     0.333076,0.354300,0.105609,0.129981,0.024371,258.000000,13.000000,16.000000,0.000000,0.000000,0.000000,0.333076,0.354300,0.105609,0.129981,0.024371,258.000000,13.000000,16.000000,0.000000,0.000000,0.000000:
00000000
00000000
00000000
00000000
,
00000000
00000000
00000000
00000000
,
00000000
00000000
00000000
00000000
,
00000000
00000000
00000000
00000000
,
00000000
00000000
00000000
00000000
,
00200000
00000000
01300000
00000000
,
00020000
00000000
00031000
00000000
,
00000200
00000000
00001300
00000000
,
00020000
00000000
00130000
01000000
,
20000000
00000000
00000000
00000000
,
30100000
01000000
00010000
00100000
,
00020000
00000000
00000000
00000000
,
00032000
00000000
00000000
00000000
,
00003100
00000010
00000001
00000100
,
00000010
00000000
00000000
00000000
00000000
00000000
00000000
00001000
00000000
00000000
00000000
00000000
00000100
00000000
00000000
00000000
,
00001000
00010000
00100000
00010000
,
00100000
01000000
10000000
11000000
,
10000000
01000000
10000000
01000000
,
00100000
01000000
00100000
01000000
,
00100000
00010000
00100000
00010000
,
00001000
00010000
00001000
00010000
,
00001000
00000100
00001000
00000100
,
00000010
00000100
00000010
00000100
,
00000010
00000001
00000010
00000001
,
00001001
00000000
00001000
00010000
,
00100000
01000000
00100000
00010000
,
01000000
01000000
00100000
00100000
,
10000000
01000000
00100000
00010000
,
00100000
00010000
00001000
00000100
,
00000110
00000100
00001000
00000010
,
00000001
00000000
00000001
00000000
00000100
00000000
00000100
00001000
,
00000010
00001000
00000100
00001000
,
00010000
00000000
00010000
00000000
00100000
00000000
00100000
01000000
,
10000000
00100000
01000000
00010000
,
00100000
00010000
00100000
00000000
00100000
01000000
00100000
00000000
,
00010000
00100000
10000000
01000000
,
00100000
00000000
00000000
00100000
00010000
00000000
00000000
00000000
00010000
00000000
00000000
00010000
00001000
00000000
00000000
00000000
,
00000100
00001000
00000010
00001000
,
00000001
00000100
00000001
00000000
00001000
00000100
00001000
00000000
,
00000010
00001000
00000001
00000100
,
00000010
00000000
00000000
00000010
00001000
00000000
00000000
00000000
00001000
00000000
00000000
00001000
00000100
00000000
00000000
00000000
,
00020000
00000000
00000000
00000000
,
00130000
01000000
10000000
00010000
,
00200000
00000000
00000000
00000000
,
00310000
00001000
00000100
00000010
,
00000002
00000000
00000000
00000000
,
00000103
00001000
00010000
00001000
,
00000200
00000000
00000000
00000000
,
00010300
00100000
01000000
00100000
,
00010000
00100000
01000000
10000000
,
11000000
01010000
00000000
00100000
,
01000000
00010000
00001000
00000100
,
00001010
00000011
00000000
00000001
,
00001000
00000001
00000100
00000010
,
00001000
00001000
00000100
00000100
,
00010000
00100000
01000000
00010000
,
00200000
00000000
01000000
01300000
,
10000000
01000000
10000000
00000000
01000000
00000000
01100000
00000000
,
00010000
00100000
00010000
00000000
00100000
00000000
00011000
00000000
,
00001000
00010000
00000100
00000000
00000010
00000000
00000011
00000000
,
00001000
00000010
00000100
00000000
00001000
00000000
00011000
00000000
,
00010000
00100000
01000000
00000000
01000000
00100000
10000000
00000000
,
01000000
00010000
00100000
00000000
00010000
00001000
00000100
00000000
,
00000100
00000010
00000100
00000000
00000001
00000010
00000100
00000000
,
00001000
00000100
00001000
00010000
00100000
00000000
01000000
00000000
,
21000000
00000000
00000000
31000000
,
00200000
00000000
00000000
00000000
00000000
00000000
00310000
00001000
,
00000200
00000000
00000000
00000310
,
00000002
00000000
00000000
00000000
00000000
00000000
00001003
00010000
,
00100000
01000000
00100000
00010000
,
00100000
01000000
10000000
01000000
,
00100000
00010000
00100000
00000000
00010000
00001000
00010000
00000000
,
00001000
00000000
00000100
00000000
00000010
00000000
00000000
00000000
00000001
00000000
00000000
00001001
00000000
00000000
00000000
00000000
;

//---------------dance-double - ----------------
#NOTES:
     dance-double:
     :
     Hard:
     12:
     0.509479,0.472399,0.227467,0.121857,0.060929,396.000000,28.000000,15.000000,0.000000,0.000000,0.000000,0.509479,0.472399,0.227467,0.121857,0.060929,396.000000,28.000000,15.000000,0.000000,0.000000,0.000000:
// measure 0
00000000
00000000
00000000
00000000
,  // measure 1
00000000
00000000
00000000
00000000
,  // measure 2
00000000
00000000
00000000
00000000
,  // measure 3
00000000
00000000
00000000
00000000
,  // measure 4
00000000
00000000
00000000
00000000
,  // measure 5
00100000
01000000
10000000
01000000
00100000
00000000
00110000
00000000
,  // measure 6
00100000
00010000
00001000
00000100
00001000
00000000
00000100
00000000
,  // measure 7
00001000
00000010
00000001
00000100
00000010
00000000
00000011
00000000
,  // measure 8
00000010
00001000
00000100
00001000
00010000
00100000
00010000
01000000
,  // measure 9
00020000
00000000
00000000
00000000
00000000
00000000
00000000
01030000
,  // measure 10
00100000
00000000
10000000
01000000
00100000
00000000
01000000
00100000
,  // measure 11
00020000
00000000
00000000
00000000
00000000
00000000
00000000
00031000
,  // measure 12
00010000
00000000
00000100
00000010
00000001
00000000
00000010
00000100
,  // measure 13
00001000
00000000
00010000
00001000
00100000
00000000
00100000
01000000
,  // measure 14
10000000
00000000
10000000
01000000
00100000
00000000
01000000
00100000
,  // measure 15
00010000
00100000
00001000
00010000
00000100
00001000
00000010
00000100
,  // measure 16
00000010
00000001
00000100
00001000
00000010
00000001
00000100
00001000
,  // measure 17
00000100
00000000
00001100
00000000
00010000
00001000
00100000
00000000
,  // measure 18
00100000
00000000
00100000
00000000
00100000
01000000
10000000
00010000
,  // measure 19
00100000
00000000
11000000
00000000
10000000
00100000
01000000
00010000
,  // measure 20
00220000
00000000
00000000
00330000
,  // measure 21
01000000
00000000
00000000
00010000
00000000
00000000
01000000
00000000
00010000
01000000
00000000
00010000
00000000
00000000
00100000
00000000
,  // measure 22
00001000
00000000
00000000
00010000
00000000
00000000
00001000
00000000
00010000
00001000
00000000
00010000
00000000
00000000
00000100
00000000
,  // measure 23
00000001
00000000
00000000
00000100
00000000
00000000
00000001
00000000
00000100
00000001
00000000
00000100
00000000
00000000
00001000
00000000
,  // measure 24
00000002
00001000
00001000
00001003
,  // measure 25
00010000
00001000
00100000
00010000
01000000
00100000
00001000
00100000
,  // measure 26
00010000
00010000
10100000
10010000
,  // measure 27
01000000
00100000
01000000
00010000
00100000
00001000
00010000
00000100
,  // measure 28
00000010
00000000
00001001
00000000
00000110
00000000
00000001
00000010
,  // measure 29
00000100
00000010
00001000
00000100
00001000
00010000
00100000
10000000
,  // measure 30
01000000
00000000
10010000
00000000
00100000
10000000
01000000
00000000
,  // measure 31
00010000
01000000
00100000
10000000
01000000
00100000
00010000
01000000
,  // measure 32
00100000
00000000
00010000
00000000
00100000
00001000
00010000
00000100
,  // measure 33
00000010
00000001
00000010
00000011
,  // measure 34
00000010
00001000
00000010
00000100
00001000
00000010
00001000
00010000
,  // measure 35
00100000
00110000
00100000
01100000
,  // measure 36
00100000
10000000
01000000
00100000
00010000
00100000
01000000
00010000
,  // measure 37
10000000
01010000
10000000
11000000
,  // measure 38
10000000
00100000
00010000
00100000
01000000
00100000
00010000
00100000
,  // measure 39
00010000
00001000
00000100
00000010
00000001
00000010
00001000
00000010
,  // measure 40
00000100
00000000
00001000
00000000
00000001
00000000
00000010
00000000
00001000
00000000
00000100
00000000
00000001
00000000
00000100
00000010
,  // measure 41
00002000
00000000
00000000
00000000
,  // measure 42
00023000
00000000
00000000
00000000
00230000
00000000
00000000
01300000
,  // measure 43
00100000
20000000
00000000
00000000
00000000
00000000
00000000
00000000
,  // measure 44
31000000
00000000
00100000
00010000
00000000
00100000
00010000
00000000
,  // measure 45
00020000
00000000
00000000
00031000
00000000
00000100
00000010
00000000
,  // measure 46
00000002
00000000
00000000
00001003
00000000
00000100
00001000
00000000
,  // measure 47
00001000
00010000
00100000
01000000
00000000
10000000
01000000
00100000
,  // measure 48
01010000
10000000
00100000
01000000
,  // measure 49
10000000
01000000
00100000
00010000
00000000
00110000
00000000
01100000
,  // measure 50
00000000
01000000
10000000
00000000
10000000
01000000
00100000
01010000
,  // measure 51
00001000
00010000
00000100
00001000
00000000
00001100
00000000
00000001
,  // measure 52
00000000
00000010
00001000
00000000
00000001
00000010
00001000
00001100
,  // measure 53
00001000
00010000
00100000
00000000
01000000
00100000
10000000
00010000
,  // measure 54
00100000
10000000
01000000
00000000
00100000
00010000
00001000
00010000
,  // measure 55
00000100
00001000
00000100
00000001
00000010
00001000
00000100
00000000
,  // measure 56
00001100
00000000
00000000
00001100
00000000
00000000
00000001
00000000
00000100
00000000
00001000
00000000
00000001
00000000
00000000
00000000
,  // measure 57
00001100
00000000
00001000
00010000
00100000
10000000
01000000
00010000
,  // measure 58
00100000
10000000
01000000
00000000
11000000
00000000
01010000
00000000
,  // measure 59
00001000
00010000
00000100
00001000
00000010
00001000
00000010
00000100
,  // measure 60
00000001
00000010
00000001
00000000
00000011
00000000
00001010
00000000
,  // measure 61
00000100
00001000
00000100
00010000
00001000
00010000
00100000
00010000
,  // measure 62
01000000
00010000
00100000
10000000
01000000
00100000
01000000
00010000
,  // measure 63
00100000
00010000
00001000
00000100
00000001
00000010
00001000
00000001
,  // measure 64
00000010
00000000
00000100
00001000
00000100
00000000
00001000
00000000
00010000
00100000
00010000
00000000
00100000
00000000
01000000
00000000
,  // measure 65
00020000
00000000
00000000
00000000
,  // measure 66
02030000
00000000
00000000
00000000
00000000
13000000
00100000
01000000
,  // measure 67
00200000
00000000
00000000
00000000
,  // measure 68
20300000
00000000
30010000
00010000
,  // measure 69
00001000
00010000
00000100
00000000
00000100
00000010
00000001
00000000
,  // measure 70
00000010
00001000
00000001
00000100
00001000
00000100
00000010
00000000
,  // measure 71
00001000
00000100
00001000
00010000
01000000
00100000
00010000
01000000
,  // measure 72
00010000
00000000
00100000
00000000
10000000
00000000
01000000
00000000
00010000
01000000
00010000
01000000
00000000
00000000
00000000
00000000
;
