#TITLE:Elemental Creation (BEMANI Special Live 2016 rmx);
#SUBTITLE:;
#ARTIST:dj TAKA meets DJ YOSHITAKA;
#TITLETRANSLIT:;
#SUBTITLETRANSLIT:;
#ARTISTTRANSLIT:;
#GENRE:;
#CREDIT:;
#BANNER:;
#BACKGROUND:;
#LYRICSPATH:;
#CDTITLE:;
#MUSIC:Elemental Creation (BEMANI Special Live 2016 rmx).ogg;
#OFFSET:0.480000;
#SAMPLESTART:18.209023;
#SAMPLELENGTH:15.000000;
#SELECTABLE:YES;
#DISPLAYBPM:97.000:240.000;
#BPMS:0.000000=218.500000
,164.000000=218.000000
,196.000000=218.498993
,228.000000=221.018997
,256.000000=213.779999
,257.000000=204.500000
,258.000000=196.679993
,259.000000=187.639999
,260.000000=171.020004
,261.000000=158.440002
,262.000000=150.220001
,263.000000=144.059998
,264.000000=143.479996
,265.000000=139.279999
,266.000000=138.600006
,267.000000=137.360001
,268.000000=130.860001
,269.000000=124.639992
,270.000000=121.360001
,271.000000=117.440002
,272.000000=117.320000
,273.000000=117.120003
,274.000000=116.019997
,275.000000=114.019997
,276.000000=109.779999
,277.000000=106.559998
,278.000000=103.121002
,279.000000=101.901001
,280.000000=102.960999
,281.000000=98.981003
,282.000000=97.761002
,283.000000=97.401001
,284.000000=100.100998
,285.000000=112.279999
,285.500000=122.580002
,286.000000=133.360001
,286.500000=136.940002
,287.000000=149.720001
,287.500000=159.419998
,288.000000=183.419998
,288.500000=185.220001
,292.000000=210.000000
,308.000000=212.000000
,324.000000=229.000000
,326.000000=234.000000
,328.000000=240.399994
;
#STOPS:
;
#BGCHANGES:;
#KEYSOUNDS:;
#ATTACKS:;

//---------------dance-single - ----------------
#NOTES:
     dance-single:
     :
     Beginner:
     6:
     0.266018,0.341129,0.140833,0.078241,0.000000,210.000000,18.000000,10.000000,0.000000,0.000000,0.000000,0.266018,0.341129,0.140833,0.078241,0.000000,210.000000,18.000000,10.000000,0.000000,0.000000,0.000000:
0000
0000
0000
0000
,
0000
0000
0000
0000
,
0000
0000
0000
0000
,
0000
0000
0000
0000
,
0000
0000
0000
0000
,
1000
0000
0100
0000
,
1000
0000
0100
0000
,
0020
0000
0100
0130
,
0001
0000
1001
0000
,
0001
0000
0100
0000
,
0010
0000
1000
1000
,
0100
0000
0010
0000
,
1000
0000
0001
0001
,
0010
0000
1000
0000
,
0010
0000
0100
0000
,
0001
0000
0010
0000
,
1100
0000
1100
0000
,
0001
0000
1010
0000
,
0001
0000
1000
0000
,
0010
0000
0100
0000
,
0010
0000
0001
0001
,
0010
0000
1000
0000
,
0001
0000
1000
0000
,
0010
0000
0100
0000
,
1001
0000
1001
0000
,
0010
0000
1000
0000
,
1000
0100
0010
0001
,
0010
0000
0010
0000
,
1001
0000
0000
0000
,
1000
0000
0010
0000
,
0001
0010
0100
1000
,
0100
0000
1001
0000
,
0020
0000
0000
0030
,
0001
0000
0010
0000
,
0100
0000
1000
0000
,
0100
0000
1000
0000
,
0010
0000
0100
0100
,
0010
0000
0001
0000
,
1000
0000
0010
0000
,
0100
0000
0001
0000
,
1000
1000
0001
0000
,
0010
0000
1000
0000
,
0010
0000
0100
0000
,
0001
0000
0010
0000
,
1000
0000
0001
0001
,
0010
0000
0001
0000
,
1000
0000
0010
0000
,
0100
0000
0001
0000
,
0001
0001
1000
1000
,
1001
0000
0000
0000
,
1000
0000
0100
0000
,
0010
0000
0000
0000
,
0001
0000
0010
0000
,
0100
0000
0000
0000
,
1000
0000
0100
0000
,
0001
0000
0000
0000
,
1000
0000
0010
0000
,
0002
0000
0000
0000
,
0003
0000
0000
0000
,
2000
0000
0000
0000
,
3000
0000
0000
0000
,
0020
0000
0000
0000
,
0030
0000
0000
0000
,
0200
0000
0000
0000
,
0300
0000
0000
0000
,
1001
0000
0000
0000
,
0010
0000
0000
0000
,
0100
0000
0000
0000
,
0010
0000
0000
0000
,
1000
0000
0000
0000
,
0001
0000
0000
0000
,
1000
0000
0000
0000
,
0001
0000
0000
0000
,
1000
0100
0000
0000
0000
0000
0000
0000
,
0001
0100
0000
0000
0000
0000
0000
0000
,
1000
0100
0000
0000
0000
0000
0000
0000
,
0001
0100
0000
0000
0000
0000
0000
0000
,
1000
0000
0100
0000
,
0010
0000
0001
0000
,
2002
0000
0000
0000
,
3003
0000
0000
0000
,
0000
0000
0000
0000
,
0110
0000
0010
0010
,
0100
0001
0010
1000
,
1000
0000
1000
0000
,
0100
0000
0100
0000
,
0010
0000
0010
0000
,
0001
0000
0001
0000
,
1000
0010
0100
0000
,
0001
0100
0010
0000
,
1000
0100
0010
0001
,
1001
0000
1001
0000
,
0001
0000
0010
0000
,
1000
0000
0100
0000
,
0010
0000
1000
0000
,
0001
0000
0100
0000
,
1000
0100
0001
0000
,
0001
0010
1000
0000
,
0001
0010
0100
1000
,
0100
0000
0110
0000
,
0001
0010
0100
1000
,
0100
0100
1000
1000
,
0020
0000
0100
0000
,
0130
0000
0001
0000
,
1000
0010
0100
0001
,
0010
0010
1000
1000
,
0200
0000
0010
0000
,
0301
0000
1001
0000
,
1000
0000
1001
0000
,
0110
0000
0000
0000
;

//---------------dance-single - ----------------
#NOTES:
     dance-single:
     :
     Easy:
     10:
     0.471679,0.511693,0.281666,0.109537,0.000000,372.000000,36.000000,14.000000,0.000000,0.000000,0.000000,0.471679,0.511693,0.281666,0.109537,0.000000,372.000000,36.000000,14.000000,0.000000,0.000000,0.000000:
0000
0000
0000
0000
,
0000
0000
0000
0000
,
0000
0000
0000
0000
,
0000
0000
0000
0000
,
0000
0000
0000
0000
,
1000
0100
1000
0100
,
0001
0010
0001
0010
,
0200
0000
0010
0310
,
0001
0000
0100
0000
1000
0100
1000
0000
,
0010
0100
0001
0010
,
0100
1000
0010
0100
,
0001
0010
1000
0100
,
0010
0000
0001
0000
0010
0001
0010
0001
,
0010
0000
0100
0010
,
1000
0000
0100
0010
,
0001
0100
0010
1000
,
0100
1000
0000
0100
0000
1000
0100
0000
,
0010
0100
0001
0010
,
1000
0100
0010
0100
,
0001
0010
1000
0100
,
0001
0000
0010
0000
1000
0100
1000
0100
,
1000
0010
0100
0001
,
0010
1000
0100
0010
,
0100
0001
0010
0100
,
1100
0101
0110
0000
,
0001
0010
0100
1000
,
0100
1000
0100
0000
0001
0100
0001
0000
,
0020
0000
0100
0000
,
0130
0000
0001
0000
0010
1000
0010
0000
,
0001
0010
1000
0100
,
0010
0100
0010
0000
0001
1000
0001
0000
,
0020
0000
0100
0130
,
0001
0010
1000
0100
,
1100
0010
0100
0001
,
0010
1000
0010
1000
,
0001
0100
0010
1000
,
0001
0000
0100
0000
0001
0100
0001
0000
,
0010
1000
1100
0000
,
0010
1000
0011
0000
,
0001
0100
0010
1000
,
0100
0010
0000
0010
0000
0100
0001
0000
,
0010
1100
0001
0010
,
1000
0010
0100
0001
,
0010
0011
0001
0100
,
0010
1000
0001
0000
,
1000
0100
1100
0000
,
0001
0100
0101
0000
,
0001
0010
1000
0100
,
0001
0000
0010
0000
1000
0001
1000
0010
,
0200
0000
0000
0000
,
0000
0000
0000
0000
,
0320
0000
0000
0000
,
2030
0000
0000
0000
,
3002
0000
0000
0000
,
0203
0000
0000
0000
,
0320
0000
0000
0000
,
2030
0000
0000
0000
,
3100
0000
0000
0000
,
1100
0000
0000
0000
,
0101
0000
0000
0000
,
0011
0000
0000
0000
,
1010
0000
0000
0000
,
1100
0000
0000
0000
,
0101
0000
0000
0000
,
2010
0000
0000
0000
,
3100
0000
0100
0000
,
0010
0100
0001
0010
,
1000
0000
1100
0000
,
1000
0010
0100
0001
,
0011
0000
0101
0000
,
0101
1100
0010
1000
,
0101
0000
1100
0000
,
0010
0000
1000
0000
0010
0100
0001
0010
,
0011
0000
0000
0000
0001
0001
0001
0000
,
1100
0000
0000
0000
1000
1000
1000
0000
,
1001
0000
0000
0000
0100
0100
0100
0000
,
0110
0000
0000
0000
0010
0010
0010
0000
,
0001
0010
0100
0000
0010
1000
0100
0000
,
1000
0100
0010
0000
0100
0010
0001
0000
,
0020
0000
0000
0000
,
0130
0001
0000
0010
0000
0010
0000
1000
,
0100
0010
0000
0010
0000
0100
0000
0001
,
0020
0000
0000
0000
,
1030
0010
0100
0001
,
0010
1100
0100
0010
,
0100
0001
0010
1000
,
0010
0011
0001
0100
,
0010
0000
1000
0000
1000
0100
0010
0000
,
0100
0010
0100
0001
,
0010
0100
1000
0010
,
0100
0001
0010
0000
0010
0100
1000
0000
,
0010
1000
0000
1000
0000
0100
1100
0000
,
0010
0100
0001
0010
,
0100
0000
1000
0000
0010
0100
0001
0000
,
0010
1000
0100
0010
,
0100
0000
0001
0000
0001
0010
0100
0000
,
0010
1000
0100
0010
,
0100
0001
0010
0100
,
1000
0010
1000
0100
,
0002
0100
0100
0103
,
0010
1000
0100
0010
,
0100
0001
0010
1000
,
1100
0000
0101
0000
,
0011
0100
0010
1000
,
0100
0010
0100
0001
0000
0001
0100
0000
,
0010
0100
0010
1000
,
0001
0010
1001
0000
,
0010
1000
0000
1000
0000
1000
0010
0000
,
0010
0100
0000
0100
0000
0100
0010
0000
,
1001
0000
0000
0000
;

//---------------dance-single - ----------------
#NOTES:
     dance-single:
     :
     Medium:
     14:
     0.647161,0.724899,0.289490,0.156481,0.035208,522.000000,37.000000,20.000000,0.000000,0.000000,0.000000,0.647161,0.724899,0.289490,0.156481,0.035208,522.000000,37.000000,20.000000,0.000000,0.000000,0.000000:
// measure 0
0000
0000
0000
0000
,  // measure 1
0000
0000
0000
0000
,  // measure 2
0000
0000
0000
0000
,  // measure 3
0000
0000
0000
0000
,  // measure 4
0000
0000
0000
0000
,  // measure 5
1000
0000
1000
0100
0000
0100
0010
0000
,  // measure 6
0010
0000
0100
0010
0000
0010
0001
0000
,  // measure 7
0022
0000
0000
0033
,  // measure 8
0001
0010
0001
0010
0001
0010
0001
0000
,  // measure 9
0001
0010
0100
0000
0010
0000
1000
0000
,  // measure 10
1000
0100
0010
0000
1000
0000
0010
0000
,  // measure 11
0100
0001
0010
0000
1000
0000
0010
0000
,  // measure 12
1000
0100
0010
0000
0010
0100
0010
0100
,  // measure 13
0010
0001
0010
0000
0010
0000
1000
0000
,  // measure 14
0010
1000
0010
0000
0001
0000
0010
0000
,  // measure 15
1000
0100
0010
0000
0010
0100
0001
0000
,  // measure 16
0001
0010
0000
1100
0000
1000
0100
0000
,  // measure 17
1000
0100
0010
0000
0100
0000
0001
0000
,  // measure 18
0001
0010
0100
0000
0001
0000
0100
0000
,  // measure 19
0010
1000
0100
0000
0001
0000
0100
0000
,  // measure 20
0001
0010
0100
0000
0100
0010
0100
0010
,  // measure 21
0100
1000
0100
0000
0100
0000
0001
0000
,  // measure 22
0100
0001
0100
0000
1000
0000
0100
0000
,  // measure 23
0001
0010
0100
0000
0100
0010
1000
0000
,  // measure 24
0010
0100
0001
0010
0100
0000
0000
0000
,  // measure 25
1001
0000
0010
0000
1000
0100
0010
0000
,  // measure 26
0100
0010
0001
0000
0001
0010
0100
0000
,  // measure 27
0010
1001
0010
0000
,  // measure 28
0010
0001
1000
0000
0100
1000
0100
0000
,  // measure 29
1001
0000
0100
0000
0001
0010
0100
0000
,  // measure 30
0010
0100
1000
0000
1000
0100
0010
0000
,  // measure 31
0100
1001
0100
0000
,  // measure 32
0100
1000
0000
1001
0000
0001
0010
0000
,  // measure 33
0001
0000
1000
0000
1000
0010
0001
0000
,  // measure 34
1000
0000
0001
0000
0001
0010
1000
0000
,  // measure 35
0100
0001
0010
1000
,  // measure 36
0001
1000
0010
0000
0001
1000
0010
0000
,  // measure 37
0001
0010
1000
0100
0010
0000
0000
0000
,  // measure 38
0001
0010
0100
1000
0010
0000
0000
0000
,  // measure 39
0010
1000
0100
0001
,  // measure 40
0001
0100
0000
0101
0000
0010
1000
0000
,  // measure 41
1000
0000
0001
0000
0001
0100
1000
0000
,  // measure 42
0001
0000
1000
0000
1000
0100
0001
0000
,  // measure 43
0010
1000
0100
0001
,  // measure 44
1000
0001
0100
0000
1000
0001
0100
0000
,  // measure 45
1000
0100
0001
0010
0100
0000
0000
0000
,  // measure 46
1000
0100
0010
0001
0100
0000
0000
0000
,  // measure 47
0100
0001
0010
1000
,  // measure 48
0010
0100
1000
0000
0010
1000
0100
0010
,  // measure 49
0100
0000
0110
0000
0001
0010
0100
0000
,  // measure 50
1000
0000
1001
0000
0100
0001
0010
0000
,  // measure 51
0010
0000
0110
0000
0001
0010
0100
0000
,  // measure 52
0001
0000
1001
0000
1000
0100
0001
0000
,  // measure 53
2000
0000
0100
0000
0100
0100
0100
0000
,  // measure 54
3020
0000
0100
0000
0032
0000
0010
0010
,  // measure 55
0203
0000
0010
0000
0010
0010
0010
0000
,  // measure 56
0320
0000
0001
0000
2030
0100
0100
0000
,  // measure 57
3002
0000
0000
0000
,  // measure 58
0203
0000
0000
0000
,  // measure 59
0320
0000
0000
0000
,  // measure 60
2030
0000
0000
0000
,  // measure 61
3002
0000
0000
0000
,  // measure 62
0203
0000
0000
0000
,  // measure 63
2300
0000
0000
0000
,  // measure 64
3020
0000
0000
0000
,  // measure 65
1030
0000
0001
0000
0010
0100
0000
1100
,  // measure 66
0000
0101
0000
0101
0000
0001
0010
0000
,  // measure 67
0001
0000
1000
0000
0010
1000
0000
1001
,  // measure 68
0000
0011
0000
0101
0000
0001
0010
0000
,  // measure 69
1000
0000
0100
0000
1000
1100
0000
0101
,  // measure 70
0000
0011
0000
1010
0000
0001
0000
1000
,  // measure 71
0000
0000
0100
0000
1000
0100
0001
0010
,  // measure 72
1000
0100
0010
0001
0010
0100
1000
0000
,  // measure 73
1000
1100
1000
0100
0010
0001
0010
0000
,  // measure 74
0001
0101
0001
0010
0100
1000
0100
0000
,  // measure 75
1000
1100
1000
0010
0100
0001
0010
0000
,  // measure 76
0001
0101
0001
0100
0010
1000
0100
0000
,  // measure 77
0010
0100
0001
0010
0100
1000
0010
1000
,  // measure 78
0100
0001
0010
0100
0001
1000
0100
0000
,  // measure 79
2200
0000
0000
0000
0000
0000
0000
3300
,  // measure 80
0001
0010
0000
1000
0000
1000
0000
1000
,  // measure 81
0100
0010
0000
0010
0000
0010
0000
0100
,  // measure 82
0001
0000
0010
1000
,  // measure 83
0010
1000
0100
0010
0001
0010
0100
0000
,  // measure 84
0001
0010
0100
1000
,  // measure 85
0010
0000
1000
0000
0010
1000
0100
0000
,  // measure 86
0010
0100
0001
0010
,  // measure 87
0100
0000
1000
0000
0001
0010
1000
0000
,  // measure 88
1000
0100
0010
0000
0100
0010
0001
0000
,  // measure 89
0001
0010
0100
0000
0010
0100
1000
0000
,  // measure 90
1000
0100
0010
0001
1000
0010
0100
0001
,  // measure 91
0010
1000
0000
1001
0000
1000
0001
0000
,  // measure 92
0010
0000
1000
0100
0000
0100
0010
0000
,  // measure 93
0010
0001
0000
0001
0100
0001
1000
0000
,  // measure 94
0010
0000
1000
0100
0000
0100
0001
0000
,  // measure 95
0001
0010
0000
0010
1000
0100
0010
0000
,  // measure 96
0001
0010
0100
0000
0010
0100
1000
0000
,  // measure 97
1000
0100
0010
0000
0100
0010
0001
0000
,  // measure 98
0001
0010
0100
1000
0001
0010
0100
1000
,  // measure 99
0010
0000
1000
0000
0100
0000
0010
0000
0100
0010
0100
0010
0100
0000
0000
0000
,  // measure 100
0001
0100
0010
1000
0000
1000
0010
0100
,  // measure 101
0001
0000
0000
0001
0010
0000
0000
0010
0100
0000
0000
0100
1000
0000
0000
0000
,  // measure 102
1001
0000
0000
0010
0220
0000
0330
0000
,  // measure 103
0001
0000
0010
0000
0100
0000
1000
0000
0010
0000
0100
0000
0001
1000
0001
0000
,  // measure 104
0100
0010
0100
1000
0000
1000
0100
0010
,  // measure 105
0001
0000
0000
1000
0100
0000
0000
0100
0010
0000
0000
0010
0001
0000
0000
0000
,  // measure 106
0101
0000
0000
0010
0110
0000
0000
0000
,  // measure 107
0001
0011
0000
0010
0000
0100
1100
0000
,  // measure 108
1000
1100
0000
0100
0000
0010
0011
0000
,  // measure 109
1010
0000
0000
0000
;

//---------------dance-single - ----------------
#NOTES:
     dance-single:
     :
     Hard:
     17:
     0.985831,1.000000,0.618100,0.086065,0.477267,792.000000,79.000000,11.000000,0.000000,0.000000,0.000000,0.985831,1.000000,0.618100,0.086065,0.477267,792.000000,79.000000,11.000000,0.000000,0.000000,0.000000:
// measure 0
0000
0000
0000
0000
,  // measure 1
0000
0000
0000
0000
,  // measure 2
0000
0000
0000
0000
,  // measure 3
0000
0000
0000
0000
,  // measure 4
0000
0000
0000
0000
,  // measure 5
1100
0000
1000
0100
0000
0100
0010
0100
,  // measure 6
0011
0000
0001
0100
0000
0010
0100
0001
,  // measure 7
2100
0000
0100
3100
,  // measure 8
0010
0000
0100
0010
0100
0000
0001
1000
0001
0000
1000
0001
0010
0000
0000
0000
,  // measure 9
0100
0001
0010
1000
0100
0010
0100
0001
,  // measure 10
0010
0100
1000
0010
1000
0100
0010
0000
,  // measure 11
0001
0010
0100
1000
0010
1000
0100
0010
,  // measure 12
0100
0000
0001
0000
0010
0000
0100
0000
0010
0100
0010
0001
0010
0100
0010
0001
,  // measure 13
0010
0001
0100
1000
0010
1000
0100
0010
,  // measure 14
0100
0001
0010
0100
1000
0010
1000
0100
,  // measure 15
1000
0000
0000
1000
0100
0000
0000
0100
0010
0000
0000
0010
0001
0000
0100
0000
,  // measure 16
0010
0110
0000
0011
0000
1001
0001
0000
,  // measure 17
0010
1000
0100
0001
0010
0100
0010
1000
,  // measure 18
0100
0010
0001
0100
0001
0010
0100
0000
,  // measure 19
1000
0100
0010
0001
0100
0001
0010
0100
,  // measure 20
0010
0000
1000
0000
0100
0000
0010
0000
0100
0010
0100
1000
0100
0010
0100
1000
,  // measure 21
0100
1000
0010
0001
0100
0001
0010
0100
,  // measure 22
0010
1000
0100
0010
0001
0100
0001
0010
,  // measure 23
0001
0000
0000
0001
0010
0000
0000
0010
0100
0000
0001
0000
1000
0100
0010
0001
,  // measure 24
0100
0000
0000
1000
0100
0000
0000
0100
0001
0000
0010
0000
1000
0010
0100
0000
,  // measure 25
0010
0100
1000
0001
0000
0010
1000
0100
,  // measure 26
0010
0000
0001
0100
0001
0000
0010
0100
0010
0000
1000
0100
1000
0000
0000
0000
,  // measure 27
0001
0000
1001
0100
0010
0000
1001
0000
,  // measure 28
0001
0000
0100
0000
1000
0100
0001
0000
0001
0100
1000
0000
1000
0010
0001
0000
,  // measure 29
0100
0001
0010
0100
0000
0010
1000
0100
,  // measure 30
0010
0000
0001
0010
0001
0000
0100
0010
0100
0000
1000
0010
1000
0000
0000
0000
,  // measure 31
0100
0000
0110
1000
0001
0000
0110
0000
,  // measure 32
0001
0101
0000
1001
0000
1100
1000
0000
,  // measure 33
0001
1000
0010
1000
0100
0010
0100
0001
,  // measure 34
0010
0100
1000
0010
1000
0100
0010
0100
,  // measure 35
0001
0100
0010
0001
0100
1000
0010
1000
,  // measure 36
0100
0000
0010
0000
0001
0000
1000
0000
0100
0000
0001
0100
0001
0000
1000
0100
,  // measure 37
1000
0000
0001
0000
0010
0000
1000
0000
0100
0000
0010
0000
1000
0001
1000
0001
,  // measure 38
0100
0000
0001
0000
0010
0000
0100
0000
1000
0000
0010
0000
0001
1000
0001
1000
,  // measure 39
0100
0000
0000
0001
0100
0000
0000
0100
0010
0000
1000
0010
1000
0010
1000
0010
,  // measure 40
0001
0101
0000
0011
0000
1001
1000
0000
,  // measure 41
1000
0001
0100
0001
0010
0100
0010
1000
,  // measure 42
0100
0010
0001
0100
0001
0010
0100
0010
,  // measure 43
1000
0010
0100
1000
0010
0001
0100
0001
,  // measure 44
0010
0000
0100
0000
1000
0000
0001
0000
0010
0000
1000
0010
1000
0000
0001
0010
,  // measure 45
0001
0000
1000
0000
0100
0000
0001
0000
0010
0000
0100
0000
0001
1000
0001
1000
,  // measure 46
0010
0000
1000
0000
0100
0000
0010
0000
0001
0000
0100
0000
1000
0001
1000
0001
,  // measure 47
0010
0000
0000
1000
0010
0000
0000
0010
0100
0000
0001
0100
0001
0100
0001
0100
,  // measure 48
1000
0000
0000
0010
1000
0000
0000
1000
0001
1000
0001
1000
0010
0100
0010
0100
,  // measure 49
1000
0000
0010
0000
0100
1000
0010
0100
,  // measure 50
0011
0000
1001
0000
0100
0010
0100
0001
,  // measure 51
1100
0000
0110
0000
1000
0010
1000
0100
,  // measure 52
0011
0000
0101
0000
0010
1000
0100
0001
,  // measure 53
0011
0000
0010
0001
0010
0100
0001
0100
,  // measure 54
0101
0000
0010
0100
1000
0100
0010
0100
,  // measure 55
0110
0000
0010
1000
0100
0001
0100
0010
,  // measure 56
1010
0000
0010
0001
0100
0001
1000
0100
,  // measure 57
1200
0000
0001
0000
,  // measure 58
0320
0000
0100
0000
,  // measure 59
0032
0000
1000
0000
,  // measure 60
2003
0000
0001
0000
,  // measure 61
3020
0000
0001
0000
,  // measure 62
0230
0000
1000
0000
,  // measure 63
0302
0000
0010
0000
,  // measure 64
2003
0000
0100
0000
,  // measure 65
3010
0000
0001
0000
0010
1100
0000
1001
,  // measure 66
0000
0101
0000
0011
0000
0011
0100
0001
,  // measure 67
0010
1000
0010
0000
0001
0101
0000
1001
,  // measure 68
0000
1100
0000
1010
0000
0001
0100
0010
,  // measure 69
1000
0100
0010
0000
0001
0101
0000
1100
,  // measure 70
0000
1001
0000
0101
0000
1010
0000
1001
,  // measure 71
0100
0010
0001
0000
0001
0011
0000
0110
,  // measure 72
1000
0000
0100
0000
0010
0000
0100
0000
0001
0000
0010
0000
0100
1000
0100
1000
,  // measure 73
0100
0000
1100
0000
1000
0001
1000
0001
1000
0000
0010
0000
0110
0000
0000
0000
,  // measure 74
0001
0000
0101
0000
0001
1000
0001
1000
0001
0000
0100
0000
0110
0000
0000
0000
,  // measure 75
0001
0000
1001
0000
0100
0010
0100
0010
0100
0000
1000
0000
1001
0000
0000
0000
,  // measure 76
0010
0000
1000
0000
1000
0100
0010
0001
0010
0100
0010
0100
0001
0010
0100
1000
,  // measure 77
0001
0000
0100
0000
1000
0001
0010
0000
1000
0000
0100
0000
0010
1000
0100
0000
,  // measure 78
0001
0000
0010
0000
0100
0010
1000
0000
0010
1000
0100
1000
0010
0100
1000
0002
,  // measure 79
0020
0000
0000
0033
,  // measure 80
1000
1100
0000
0110
0000
0011
0000
1000
,  // measure 81
0110
0101
0000
1001
0000
1010
0000
1100
,  // measure 82
1001
0000
0010
1000
,  // measure 83
0010
0000
1000
0010
0100
0000
0001
0100
0010
0000
1000
0100
0010
0001
0010
0100
,  // measure 84
1000
0100
0010
1000
0001
0100
0010
0100
,  // measure 85
0001
0010
0100
1000
0010
1000
0100
0010
,  // measure 86
0100
0001
0010
0100
1000
0010
1000
0010
,  // measure 87
0100
0000
0001
0000
0010
0000
1000
0000
0100
0000
1000
0100
1000
0000
0010
1000
,  // measure 88
0100
0000
0001
0000
0010
0000
0100
0000
0010
0100
0010
0000
0100
1000
0001
0000
,  // measure 89
0010
0000
1000
0000
0100
0000
0001
0000
1000
0001
1000
0000
0001
0010
0100
0000
,  // measure 90
1000
0000
0100
1000
0010
0000
0001
0100
0010
0000
1000
0010
0100
0000
1000
0000
,  // measure 91
0001
0011
0000
0101
0000
1001
1000
0000
,  // measure 92
0001
0010
0100
0001
1000
0010
0100
0010
,  // measure 93
1000
0100
0010
0001
0100
0001
0010
0100
,  // measure 94
0010
1000
0100
0010
0001
0100
0001
0100
,  // measure 95
0010
0000
1000
0000
0100
0000
0001
0000
0010
0000
0001
0010
0001
0000
0100
0001
,  // measure 96
0010
0000
1000
0000
0100
0000
0010
0000
0100
0010
0100
0000
0010
0001
1000
0000
,  // measure 97
0100
0000
0001
0000
0010
0000
1000
0000
0001
1000
0001
0000
1000
0100
0010
0000
,  // measure 98
0001
0000
0010
0001
0100
0000
1000
0010
0100
0000
0001
0100
0010
0000
0001
0000
,  // measure 99
0011
0000
0000
0000
1001
0000
0000
0000
1000
0100
0010
0001
1000
0010
0100
0001
,  // measure 100
0010
1000
0001
0010
0000
1000
0010
1000
,  // measure 101
0001
0000
0100
0001
1000
0000
0100
1000
0001
0000
0010
0001
1000
0000
0010
1000
,  // measure 102
0001
0000
1001
0010
1000
0000
0110
0000
,  // measure 103
1000
0010
1000
0010
0100
0001
0100
0001
1000
0010
0100
0010
0001
0100
0010
0100
,  // measure 104
1000
0001
1000
0100
0000
0001
0100
0001
,  // measure 105
1000
0000
0010
1000
0001
0000
0010
0001
1000
0000
0100
1000
0001
0000
0100
0001
,  // measure 106
1000
0000
1001
0100
0001
0000
0110
0000
,  // measure 107
1001
0101
0000
0110
0000
1100
1001
0000
,  // measure 108
1001
1010
0000
0110
0000
0011
1001
0000
,  // measure 109
1100
0000
0000
0000
;
