#TITLE:EZ DO DANCE (VENUS mix);
#SUBTITLE:;
#ARTIST:VENUS;
#TITLETRANSLIT:;
#SUBTITLETRANSLIT:;
#ARTISTTRANSLIT:;
#GENRE:Japanese Pops;
#CREDIT:;
#BANNER:;
#BACKGROUND:;
#LYRICSPATH:;
#CDTITLE:;
#MUSIC:EZ DO DANCE (VENUS mix).ogg;
#OFFSET:0.515000;
#SAMPLESTART:72.444893;
#SAMPLELENGTH:15.000000;
#SELECTABLE:YES;
#BPMS:0.000000=148.000000
;
#STOPS:
;
#BGCHANGES:;
#KEYSOUNDS:;
#ATTACKS:;

//---------------dance-single - ----------------
#NOTES:
     dance-single:
     :
     Beginner:
     2:
     0.095609,0.117979,0.008580,0.000000,0.000000,78.000000,77.000000,1.000000,0.000000,0.000000,0.000000,0.095609,0.117979,0.008580,0.000000,0.000000,78.000000,77.000000,1.000000,0.000000,0.000000,0.000000:
0000
0000
0000
0000
,
0000
0000
0000
0000
,
0000
0000
0000
0000
,
0000
0000
0000
0000
,
0000
0000
0000
0000
,
1000
0000
0000
0000
,
0100
0000
0000
0000
,
1000
0000
0000
0000
,
0010
0000
0000
0000
,
0001
0000
0000
0000
,
0100
0000
0000
0000
,
0001
0000
0000
0000
,
0010
0000
0000
0000
,
1000
0000
0000
0000
,
0010
0000
0000
0000
,
0100
0000
0000
0000
,
0001
0000
0000
0000
,
1000
0000
0100
0000
,
1000
0000
0000
0000
,
0001
0000
0100
0000
,
0001
0000
0000
0000
,
1000
0000
0010
0000
,
1000
0000
0000
0000
,
0001
0000
0010
0000
,
0001
0000
0000
0000
,
1000
0000
0000
0000
,
0001
0000
0000
0000
,
0100
0000
0000
0000
,
0010
0000
0000
0000
,
1000
0000
0000
0000
,
0001
0000
0000
0000
,
0100
0000
0000
0000
,
0010
0000
0000
0000
,
1000
0000
0000
0000
,
0001
0000
0000
0000
,
1000
0000
0000
0000
,
0001
0000
0100
0000
,
0010
0000
0000
0000
,
0100
0000
0000
0000
,
0010
0000
0000
0000
,
0100
0000
1000
0000
,
0001
0000
0000
0000
,
1000
0000
0000
0000
,
0001
0000
0000
0000
,
1000
0000
0000
0000
,
0100
0000
1000
0000
,
0100
0000
0000
0000
,
0001
0000
0000
0000
,
0001
0000
0000
0000
,
0010
0000
0001
0000
,
0010
0000
0000
0000
,
1000
0000
0000
0000
,
1000
0000
0000
0000
,
1000
0000
0100
0000
,
1000
0000
0000
0000
,
0001
0000
0100
0000
,
0001
0000
0000
0000
,
1000
0000
0010
0000
,
1000
0000
0000
0000
,
0001
0000
0010
0000
,
0001
0000
0000
0000
,
1000
0000
0000
0000
,
0001
0000
0000
0000
,
0100
0000
0000
0000
,
0010
0000
0000
0000
,
0001
0000
0000
0000
,
1000
0000
0000
0000
,
0010
0000
0000
0000
,
0100
0000
0000
1001
;

//---------------dance-single - ----------------
#NOTES:
     dance-single:
     :
     Easy:
     5:
     0.231668,0.294948,0.128705,0.300311,0.000000,189.000000,174.000000,15.000000,35.000000,0.000000,0.000000,0.231668,0.294948,0.128705,0.300311,0.000000,189.000000,174.000000,15.000000,35.000000,0.000000,0.000000:
0000
0000
0000
0000
,
0000
0000
0000
0000
,
0000
0000
0000
0000
,
0000
0000
0000
0000
,
0000
0000
0000
0000
,
1000
0100
1000
0010
,
0001
0100
0001
0010
,
0100
1000
0010
0001
,
2002
0000
0000
3003
,
0100
0000
1000
0000
,
0010
0010
0010
0000
,
0100
0000
0001
0000
,
0010
0010
0010
0000
,
1000
0000
0001
0000
,
0100
0100
0100
0000
,
0001
0000
1000
0000
,
0020
0000
0000
0030
,
1000
0000
0100
0000
,
0001
0001
0001
0000
,
0001
0000
0010
0000
,
1000
1000
1000
0000
,
0100
0000
1000
0000
,
0010
0010
0010
0000
,
0010
0000
0001
0000
,
0100
0100
0100
0000
,
1000
0000
0001
0000
,
0100
0000
0010
0000
,
0001
0000
0010
0000
,
0100
0000
1000
0000
,
0001
0000
1000
0000
,
0100
0000
0010
0000
,
0001
0000
1000
0000
,
0010
0100
0220
0330
,
0100
1000
0020
0030
,
0100
0001
0020
0030
,
0100
1000
0001
0010
,
1000
0001
2002
3003
,
0100
1000
0010
0001
,
0100
0010
0220
0330
,
0001
0100
1000
0010
,
0001
1000
2002
3003
,
0200
0000
0000
0310
,
0002
0000
0000
1003
,
2000
0000
0000
3001
,
2002
0000
0000
3003
,
1000
0100
1000
0000
,
0010
0000
0110
0000
,
0010
0001
0010
0000
,
0100
0000
0110
0000
,
1000
0100
0001
0000
,
0010
0000
0110
0000
,
0001
0010
1000
0000
,
0100
0000
0110
0000
,
0100
1000
0002
0003
,
0100
0001
2000
3000
,
0100
1000
0010
0001
,
0100
0010
0220
0330
,
0002
1000
0200
0303
,
2000
0001
0020
3030
,
0100
1000
0011
0001
,
0100
0010
0220
0330
,
0200
0000
1000
0301
,
0020
0000
0001
1030
,
0200
0000
0001
1300
,
0010
1000
2002
3003
,
0100
1000
0010
0010
,
0100
0001
0010
0010
,
0200
0000
0320
0000
,
1030
0001
0100
0110
;

//---------------dance-single - ----------------
#NOTES:
     dance-single:
     :
     Medium:
     9:
     0.399597,0.442422,0.265989,0.180186,0.081513,326.000000,295.000000,31.000000,21.000000,0.000000,0.000000,0.399597,0.442422,0.265989,0.180186,0.081513,326.000000,295.000000,31.000000,21.000000,0.000000,0.000000:
0000
0000
0000
0000
,
0000
0000
0000
0000
,
0000
0000
0000
0000
,
0000
0000
0000
0000
,
0000
0000
0000
0000
,
1000
0000
0010
0000
0100
0010
0100
0000
,
0001
0000
0100
0000
0010
0100
0010
0000
,
1000
0100
0001
0010
,
0220
0000
0000
0330
,
0001
0100
1000
0000
0010
0000
1001
0000
,
1000
0010
0001
0000
0100
0000
1001
0000
,
0100
1000
0010
0001
,
0200
0010
0020
0330
,
0001
0010
1000
0000
0100
0000
1001
0000
,
1000
0010
0001
0000
0100
0000
1001
0000
,
0100
0000
0000
1000
0000
0000
0010
0000
0000
0001
0000
0000
0100
0000
0000
0000
,
0020
0000
0000
0130
,
0001
0000
0100
0000
1000
0010
1000
0000
,
0010
0000
0001
0000
0100
0001
0100
0000
,
0010
1000
0001
0100
,
0010
0000
1000
0001
1000
0000
0100
0000
,
1000
0000
0010
0000
0001
1000
0001
0000
,
0010
0000
0100
0000
1000
0001
1000
0000
,
0100
1000
0001
0010
,
0100
0010
0100
0000
0220
0000
0330
0000
,
0100
0000
0000
1000
0000
0000
0010
0000
0000
0000
0001
0000
1000
0000
0000
0000
,
0010
0000
0000
0001
0000
0000
0100
0000
0000
0000
1000
0000
0001
0000
0000
0000
,
0100
0000
0000
0001
0000
0000
1000
0000
0000
0000
0010
0000
0100
0000
0000
0000
,
0001
0000
0000
0100
0000
0000
1000
0000
0010
0000
0000
0000
1001
0000
0000
0000
,
1000
0000
0000
0010
0000
0000
0100
0000
0000
0000
0001
0000
0100
0000
0000
0000
,
0001
0000
0000
0100
0000
0000
0010
0000
0000
0000
1000
0000
0010
0000
0000
0000
,
0100
0000
0000
1000
0000
0000
0001
0000
0000
0000
0100
0000
0010
0000
0000
0000
,
0001
0100
1000
0010
0001
0000
0110
0000
,
2000
0010
0200
3300
,
0002
0100
0020
0033
,
0001
0100
1000
0000
1000
0100
0001
0000
,
0010
0000
0000
0100
0000
0000
0010
0000
0100
0000
0000
0000
0110
0000
0000
0000
,
0001
0100
1000
0000
1000
0100
0001
0000
,
0010
0000
0100
0100
0010
0000
1001
0000
,
0100
1000
0010
0000
0010
0001
0100
0000
,
0001
1000
0001
1000
0020
0000
1030
0000
,
0100
0000
0000
1000
0000
0000
0010
0000
0000
0000
0000
0000
1001
0000
0000
0000
,
0010
0000
0000
0001
0000
0000
0100
0000
0000
0000
0000
0000
1001
0000
0000
0000
,
0100
0000
0000
1000
0000
0000
0010
0000
0000
0000
0000
0000
1001
0000
0000
0000
,
0220
0000
0000
0330
,
0100
1000
0010
0000
0001
0000
0011
0000
,
0001
0100
0010
0110
,
1000
0001
0100
0000
0010
0000
1010
0000
,
0100
1000
0010
1001
,
0100
1000
0010
0000
0001
0000
0101
0000
,
0010
0100
0001
1001
,
0010
0001
0100
0000
1000
0000
1100
0000
,
1000
0001
2002
3003
,
0100
0000
0000
1000
0000
0000
0010
0000
0001
0000
0000
0000
1001
0000
0000
0000
,
0010
0000
0000
0001
0000
0000
0100
0000
1000
0000
0000
0000
1001
0000
0000
0000
,
0100
1000
0010
0000
0010
0001
0100
0000
,
1000
0010
0100
0001
1000
0000
1001
0000
,
0010
0000
0000
1000
0000
0000
0010
0000
1000
0000
0000
0000
1010
0000
0000
0000
,
0100
0000
0000
0001
0000
0000
0100
0000
0001
0000
0000
0000
0101
0000
0000
0000
,
0100
1000
0010
0000
0010
0001
0100
0000
,
0001
1000
0001
1000
0010
0100
0010
0000
,
0002
0100
0010
0103
,
2000
0010
0100
3010
,
0100
1000
0010
0000
0001
0000
1001
0000
,
0010
0001
0100
0000
1000
0000
1001
0000
,
0200
1000
0010
0301
,
0010
0100
0001
0000
0100
0010
1000
0000
,
0001
0000
0000
1000
0000
0000
0010
0000
0000
0100
0000
0000
0001
0000
0000
0000
,
2002
0000
3003
0110
;

//---------------dance-single - ----------------
#NOTES:
     dance-single:
     :
     Hard:
     12:
     0.484174,0.589896,0.274570,0.102964,0.223088,395.000000,363.000000,32.000000,12.000000,0.000000,0.000000,0.484174,0.589896,0.274570,0.102964,0.223088,395.000000,363.000000,32.000000,12.000000,0.000000,0.000000:
// measure 0
0000
0000
0000
0000
,  // measure 1
0000
0000
0000
0000
,  // measure 2
0000
0000
0000
0000
,  // measure 3
0000
0000
0000
0000
,  // measure 4
0000
0000
0000
0000
,  // measure 5
1000
0100
0010
0100
1000
0100
0010
0000
,  // measure 6
0001
0010
0100
0010
0001
0010
0100
0000
,  // measure 7
1000
0100
0001
0100
1000
0100
0001
0100
,  // measure 8
2200
0000
0000
3300
,  // measure 9
0100
0000
1000
0000
0010
0000
0000
0000
0010
0000
0000
0010
0000
0000
0000
0000
,  // measure 10
0001
0100
0010
1000
0001
0100
1001
0000
,  // measure 11
0100
1000
0010
0000
0010
0001
0100
0000
,  // measure 12
0001
1000
0001
1000
2002
0000
3003
0000
,  // measure 13
0010
0000
0001
0000
0100
0000
0000
0000
0100
0000
0000
0100
0000
0000
0000
0000
,  // measure 14
0010
1000
0001
0000
1000
0001
0100
0000
,  // measure 15
0010
0000
0000
1000
0000
0000
0001
0000
0000
0100
0000
0000
0010
0000
0100
0000
,  // measure 16
0220
0000
0000
0330
,  // measure 17
0001
0000
0000
0100
0000
0000
1000
0000
0000
0000
0010
0000
1000
0000
0001
0000
,  // measure 18
1000
0000
0000
0100
0000
0000
0001
0000
0000
0000
0010
0000
0001
0000
1000
0000
,  // measure 19
0001
0000
0000
0100
0000
0000
1000
0000
0000
0000
0100
0000
0001
0000
1000
0000
,  // measure 20
0010
0000
0000
0100
0000
0000
0001
0000
1000
0000
0000
0000
1001
0000
0000
0000
,  // measure 21
0100
0000
0000
1000
0000
0000
0010
0000
0000
0000
0001
0000
0100
0000
0010
0000
,  // measure 22
1000
0000
0000
0001
0000
0000
0100
0000
0000
0000
0001
0000
0100
0000
0010
0000
,  // measure 23
0100
0000
0000
1000
0000
0000
0001
0000
0000
0000
0001
0000
0100
0000
0010
0000
,  // measure 24
0100
0000
0000
0001
0000
0000
1000
0000
0010
0000
0000
0000
0101
0000
0000
0000
,  // measure 25
0100
0000
0000
1000
0000
0000
0010
0000
0000
0001
0000
0000
0100
0000
0001
0000
,  // measure 26
0100
0000
0000
1000
0000
0000
0010
0000
0000
0001
0000
0000
0100
0000
0010
0000
,  // measure 27
1000
0000
0000
0010
0000
0000
1000
0000
0000
0001
0000
0000
0100
0000
0010
0000
,  // measure 28
1000
0000
0000
0001
0000
0000
0100
0000
0010
0000
0000
0000
0110
0000
0000
0000
,  // measure 29
0001
0000
0000
0100
0000
0000
1000
0000
0000
0010
0000
0000
1000
0000
0010
0000
,  // measure 30
0100
0000
0000
0001
0000
0000
0100
0000
0000
1000
0000
0000
0010
0000
0001
0000
,  // measure 31
1000
0000
0000
0010
0000
0000
0100
0000
0000
0001
0000
0000
0100
0000
0001
0000
,  // measure 32
1000
0000
0000
0010
0000
0000
0100
0000
0001
0000
0000
0000
1001
0000
0000
0000
,  // measure 33
1000
0000
0010
1000
0000
1000
0010
0000
0001
0000
0100
0000
1001
0000
0000
0000
,  // measure 34
0001
0000
0100
0001
0000
0001
0100
0000
1000
0000
0010
0000
1001
0000
0000
0000
,  // measure 35
1000
0100
0010
0000
0001
0010
0100
0000
,  // measure 36
1000
0000
0000
0001
0000
0000
1000
0000
0001
0000
0000
0000
1001
0000
0000
0000
,  // measure 37
0100
0000
0000
1010
0000
0000
0100
0000
0010
0000
0000
0101
0000
0000
0010
0000
,  // measure 38
0100
0000
0010
0100
0000
0010
0100
0000
0010
0000
1000
0000
1001
0000
0000
0000
,  // measure 39
0001
0100
1000
0010
0100
0001
1000
0000
,  // measure 40
0010
0000
0000
0100
0000
0000
0001
0000
1000
0000
0000
0000
1001
0000
0000
0000
,  // measure 41
1000
0000
0000
0100
0000
0000
0010
0000
0000
0001
0000
0000
0101
0000
0000
0000
,  // measure 42
0001
0000
0000
0010
0000
0000
0100
0000
0000
1000
0000
0000
1010
0000
0000
0000
,  // measure 43
1000
0000
0000
0010
0000
0000
0100
0000
0000
0001
0000
0000
0100
0000
0010
0000
,  // measure 44
0220
0000
0000
0330
,  // measure 45
0001
0000
0100
0000
1000
0000
0010
0000
0100
0000
0000
0100
0000
0000
0001
0000
,  // measure 46
1000
0000
0000
1000
0000
0000
0001
0000
0000
0000
0010
0000
0100
0000
0000
0000
,  // measure 47
0001
0100
0010
0000
1000
0010
0100
0001
,  // measure 48
0000
0001
1000
0000
0010
0100
0010
0100
,  // measure 49
0001
0000
0100
0000
1000
0000
0000
0000
0010
0000
0000
0010
0000
0000
1000
0000
,  // measure 50
0001
0000
0000
1000
0000
0000
0010
0000
0000
0000
1000
0000
0001
0000
0000
0000
,  // measure 51
1000
0100
0010
0000
0001
0010
0100
1000
,  // measure 52
0000
0001
1000
0000
0010
0100
0010
0100
,  // measure 53
0001
0000
0000
0100
0000
0000
1000
0000
1100
0000
0000
0000
1010
0000
0000
0000
,  // measure 54
1000
0000
0000
0010
0000
0000
0001
0000
0101
0000
0000
0000
0011
0000
0000
0000
,  // measure 55
0001
0100
1000
0000
1000
0100
0001
0000
,  // measure 56
0001
0100
0010
1000
0001
0000
1001
0000
,  // measure 57
0010
0000
0000
1010
0000
0000
1000
0000
1100
0000
0000
0000
1001
0000
0000
0000
,  // measure 58
0100
0000
0000
0101
0000
0000
0001
0000
0011
0000
0000
0000
1001
0000
0000
0000
,  // measure 59
0010
0100
1000
0000
0100
0010
0001
0000
,  // measure 60
0100
0010
1000
0001
0100
0000
0110
0000
,  // measure 61
0200
1000
0010
1300
,  // measure 62
0020
0001
0100
0031
,  // measure 63
0001
0100
1000
0000
1000
0100
0001
0000
,  // measure 64
0001
0010
1000
0000
1000
0010
0001
0000
,  // measure 65
1000
0010
0100
0010
1000
0010
0100
0010
,  // measure 66
0001
0100
0010
0100
0001
0100
0010
0100
,  // measure 67
0001
0000
0000
1000
0000
0000
0010
0000
0000
0100
0000
0000
0001
0000
1000
0000
,  // measure 68
2002
0000
3003
0110
;
