#TITLE:ЁVOLUTIΦN;
#SUBTITLE:;
#ARTIST:TЁЯRA;
#TITLETRANSLIT:;
#SUBTITLETRANSLIT:;
#ARTISTTRANSLIT:TERRA;
#GENRE:beatmania IIDX;
#CREDIT:;
#BANNER:;
#BACKGROUND:;
#LYRICSPATH:;
#CDTITLE:;
#MUSIC:EVOLUTION.ogg;
#OFFSET:0.680000;
#SAMPLESTART:36.340023;
#SAMPLELENGTH:15.000000;
#SELECTABLE:YES;
#DISPLAYBPM:83.000000:165.000000;
#BPMS:0.000000=165.000000
,232.000000=82.500000
,248.000000=165.000000
;
#STOPS:
;
#BGCHANGES:0.000=EVOLUTION.avi=1.000=0=0=0=StretchNoLoop====,
99999=-nosongbg-=1.000=0=0=0 // don't automatically add -songbackground-
;
#KEYSOUNDS:;
#ATTACKS:;

//---------------dance-single - ----------------
#NOTES:
     dance-single:
     :
     Beginner:
     2:
     0.127984,0.191975,0.000000,0.119985,0.000000,112.000000,112.000000,0.000000,15.000000,0.000000,0.000000,0.127984,0.191975,0.000000,0.119985,0.000000,112.000000,112.000000,0.000000,15.000000,0.000000,0.000000:
0000
0000
0000
0000
,
0000
0000
0000
0000
,
0000
0000
0000
0000
,
0000
0000
0000
0000
,
0000
0000
0000
0000
,
0001
0000
0000
0000
,
1000
0000
0000
0000
,
0001
0000
0000
0000
,
1000
1000
2000
3000
,
0001
0000
1000
0000
,
0001
0000
0000
0000
,
1000
0000
0001
0000
,
1000
0000
0000
0000
,
0010
0000
0100
0000
,
0010
0000
0000
0000
,
0100
0000
0010
0000
,
0100
0000
0000
0000
,
0000
1000
0000
0100
,
0000
1000
0000
0100
,
0000
1000
0000
0100
,
0000
1000
0000
0100
,
0000
0001
0000
0010
,
0000
0001
0000
0010
,
0000
0001
0000
0010
,
0000
0001
0000
0010
,
0000
0000
0000
0000
,
1000
0000
0100
0000
,
2000
0000
3000
0000
,
0001
0000
0100
0000
,
0002
0000
0003
0000
,
1000
0000
0010
0000
,
2000
0000
3000
0000
,
0001
0000
0010
0000
,
0002
0000
0003
0000
,
1000
0000
0100
0000
,
0010
0000
0001
0000
,
1000
0000
0010
0000
,
0100
0000
0001
0000
,
0001
0000
0100
0000
,
0010
0000
1000
0000
,
0001
0000
0010
0000
,
0100
0000
1000
0000
,
0200
0000
0000
0000
,
0300
0000
0000
0000
,
0020
0000
0000
0000
,
0030
0000
0000
0000
,
2000
0000
0000
0000
,
3000
0000
0000
0000
,
0002
0000
0000
0000
,
0003
0000
0000
0000
,
1000
0000
0000
0000
,
0010
0000
0000
0000
,
0100
0000
0000
0000
,
0001
0000
0000
0000
,
0001
0000
0000
0000
,
0100
0000
0000
0000
,
0010
0000
0000
0000
,
1000
1000
2000
3000
,
0000
0000
0000
0000
,
0000
0000
0000
0000
,
0001
0000
0100
0000
,
1000
0000
0010
0000
,
1000
0000
0100
0000
,
2000
0000
3000
0000
,
0001
0000
0100
0000
,
0002
0000
0003
0000
,
1000
0000
0010
0000
,
2000
0000
3000
0000
,
0001
0000
0010
0000
,
0002
0000
0003
0000
,
1000
0000
0100
0000
,
0010
0000
0001
0000
,
1000
0000
0010
0000
,
0100
0000
0001
0000
,
0001
0000
0100
0000
,
0010
0000
1000
0000
,
0001
0000
0010
0000
,
0100
0000
1000
0000
,
0001
0000
1000
0000
,
0002
0000
0000
0000
,
1003
0000
0000
0000
;

//---------------dance-single - ----------------
#NOTES:
     dance-single:
     :
     Easy:
     6:
     0.337100,0.383951,0.207973,0.207973,0.000000,295.000000,269.000000,26.000000,26.000000,0.000000,0.000000,0.337100,0.383951,0.207973,0.207973,0.000000,295.000000,269.000000,26.000000,26.000000,0.000000,0.000000:
0000
0000
0000
0000
,
0000
0000
0000
0000
,
0000
0000
0000
0000
,
0000
0000
0000
0000
,
0000
0000
0000
0000
,
1000
0100
1000
0100
,
0001
0100
0001
0100
,
1000
0010
0001
0100
,
0010
0100
0220
0330
,
0001
0100
1000
0100
,
0001
0100
1000
0100
,
1000
0010
0001
0010
,
1000
0010
0001
0010
,
1000
0001
2002
3003
,
0100
0010
0220
0330
,
1000
0001
0100
1000
,
0020
0100
0200
0330
,
0001
0100
1000
0100
,
0010
0001
0100
0010
,
1000
0001
0100
0010
,
2000
0001
0002
3003
,
0001
0010
1000
0010
,
0001
0100
0010
1000
,
0001
0100
0010
1000
,
0010
0100
0001
1000
,
0020
0200
0000
0330
,
0001
0100
1000
1100
,
1000
0010
0001
0011
,
0001
0100
0001
1000
,
0100
1000
0100
0001
,
0100
0010
1000
1001
,
0010
0100
0001
1001
,
0200
1300
0200
0301
,
0010
0100
0220
0330
,
0001
0100
0001
0100
,
1000
0100
1000
0100
,
0001
0010
0001
0010
,
1000
0010
1000
0010
,
0001
0100
0010
1000
,
0010
0100
0001
1000
,
0020
0000
0230
0000
,
0301
1000
0010
0100
,
0210
0000
0010
0000
,
0001
0000
0001
0000
,
1000
0000
1000
0000
,
0010
0000
0310
0000
,
0120
0000
0100
0000
,
0001
0000
0001
0000
,
1000
0000
1000
0000
,
0100
0000
0130
0000
,
0100
0001
0100
0001
,
1000
0100
1000
0100
,
0010
0100
0010
1000
,
0010
0100
0010
0001
,
0100
1000
0010
0001
,
0100
1000
0010
0001
,
1001
0000
1001
0000
,
1001
1001
1001
0000
,
1000
0100
1000
0010
,
1000
0000
0100
0000
1000
0010
0001
0000
,
0001
0100
0001
0010
,
0001
0000
0100
0000
0001
0010
0100
1000
,
0001
1000
0010
0100
,
0010
1000
0001
1001
,
0001
0100
0010
1000
,
0010
0100
0001
1001
,
0100
1000
0010
0100
,
0001
0010
1000
0010
,
1001
0000
0110
0000
,
1100
0101
2002
3003
,
0001
0100
1000
1010
,
1000
0010
0001
0101
,
0001
0100
1000
0010
,
0100
0010
0220
0330
,
0010
1000
0001
0100
,
0010
1000
0001
0100
,
1000
0010
0001
0100
,
0001
0010
1000
0100
,
0020
0000
0230
0000
,
0301
0100
0010
1000
,
1001
0000
0000
0000
;

//---------------dance-single - ----------------
#NOTES:
     dance-single:
     :
     Medium:
     9:
     0.401092,0.575926,0.191975,0.335957,0.019997,351.000000,327.000000,24.000000,42.000000,0.000000,0.000000,0.401092,0.575926,0.191975,0.335957,0.019997,351.000000,327.000000,24.000000,42.000000,0.000000,0.000000:
0000
0000
0000
0000
,
0000
0000
0000
0000
,
0000
0000
0000
0000
,
0000
0000
0000
0000
,
0000
0000
0000
0000
,
1000
0010
0100
0001
,
0100
0010
1000
0001
,
0200
0000
0320
0000
,
1030
0001
2002
3003
,
0001
0000
0100
0000
1000
0100
1000
0000
,
0010
0100
0001
0100
,
1000
0000
0010
0000
0001
0010
0001
0000
,
0100
0010
1000
0001
,
0100
1000
2200
3300
,
0010
0001
0022
0033
,
0001
0100
0010
1000
,
0002
1000
1000
1003
,
0001
0000
0100
0000
0010
1000
0010
0000
,
0100
0001
0100
1000
,
0010
0000
0001
0000
0100
0001
0100
0000
,
0010
1000
0010
0100
,
0001
0000
0100
0000
1000
0001
1000
0000
,
0010
0100
0220
0330
,
0001
1000
0001
0000
0100
0010
0100
0000
,
0001
0100
0010
1000
,
1001
0220
0000
0330
,
0001
0100
1000
0000
0010
0000
0100
0000
,
0001
0100
0010
1010
,
1000
0010
0001
0000
0100
0000
0010
0000
,
1000
0010
0001
0101
,
0001
0100
1000
0000
0010
0000
0100
0000
,
0001
1000
0010
0110
,
1000
0100
1000
0000
0001
0010
0001
0000
,
1000
0010
0100
0000
0001
0100
0010
0000
,
2000
0010
0100
3010
,
0002
0100
0010
0103
,
1000
0010
0100
0001
,
0100
0010
0020
0030
,
0001
0100
0010
1000
,
0010
0100
0001
1000
,
1002
1000
0003
0000
0220
0000
0330
0000
,
1000
0100
0010
0000
0001
0010
0100
0000
,
0002
0000
0103
0000
,
2000
0000
3100
0000
,
0020
0000
0130
0001
,
2000
0000
3001
0000
,
0020
0000
0130
0000
,
0002
0000
0013
0000
,
2000
0000
3100
0010
,
1000
0001
0220
0330
,
0001
0100
1000
0000
0010
0000
0100
0000
,
0001
1000
0010
0110
,
1000
0010
0001
0000
0100
0000
0010
0000
,
1000
0001
2002
3003
,
0001
0100
1000
0000
0010
0000
0100
0000
,
0001
1000
0010
0110
,
1000
0010
0001
0000
0100
0000
0010
0000
,
1000
0001
0010
0000
0100
0000
0001
0000
,
1000
0010
0100
0001
0100
0010
2000
0000
,
3001
0100
0010
1000
0010
0100
0002
0000
,
0103
0000
1000
0000
0010
0000
0001
0000
0100
0000
0010
0000
1000
0000
0001
1000
,
0000
0000
1000
0010
0000
0000
0010
0001
0000
0000
0001
0100
0000
0100
1000
0000
,
1000
0010
0100
0001
0100
0000
0110
0000
,
0001
0100
0010
1000
,
0001
0100
0010
1000
0001
0000
1001
0000
,
0100
0010
1000
0001
,
0100
0010
1000
0001
0100
0000
0101
0000
,
0001
0100
0010
1000
0001
0000
1001
0000
,
0200
1300
0002
0103
,
0020
0031
2000
3010
,
0001
0100
1000
0000
0010
0000
1000
0000
,
0010
0100
0001
0000
1000
0000
0010
0000
,
1000
0010
0100
0000
0001
0000
0100
0000
,
1000
0100
0001
0000
0110
0000
1001
0000
,
0001
0100
0010
0000
1000
0010
0100
0000
,
0001
0100
0010
0000
1000
0010
0100
0000
,
0002
0100
0010
0103
,
2000
0010
0100
3010
,
2002
3003
0220
0330
,
0001
0100
1000
0010
,
0110
0000
0000
0000
;

//---------------dance-single - ----------------
#NOTES:
     dance-single:
     :
     Hard:
     13:
     0.646774,1.055865,0.319959,0.135983,0.159980,566.000000,526.000000,40.000000,17.000000,0.000000,0.000000,0.646774,1.055865,0.319959,0.135983,0.159980,566.000000,526.000000,40.000000,17.000000,0.000000,0.000000:
// measure 0
0000
0000
0000
0000
,  // measure 1
0000
0000
0000
0000
,  // measure 2
0000
0000
0000
0000
,  // measure 3
0000
0000
0000
0000
,  // measure 4
0000
0000
0000
0000
,  // measure 5
1000
0100
0010
0000
0001
0010
0100
0000
,  // measure 6
0001
0100
0010
0000
1000
0010
0100
0000
,  // measure 7
0001
0100
1000
0100
0001
0010
1000
0010
,  // measure 8
0011
0000
0000
0110
0000
0000
1100
0000
1000
0000
0000
0000
0001
0000
0000
0000
,  // measure 9
1000
0010
0100
0001
0100
0010
1000
0000
,  // measure 10
0001
0100
0010
1000
0010
0100
0001
0000
,  // measure 11
0100
1000
0100
0001
0100
1000
0100
0000
,  // measure 12
0010
1000
0010
0001
0010
1000
0010
0000
,  // measure 13
0010
0100
0001
1000
1001
0000
0110
0000
,  // measure 14
1000
0001
0100
0010
0110
0000
1001
0000
,  // measure 15
0010
1000
0100
0000
0001
0100
0010
0000
,  // measure 16
1000
0100
0001
0100
1000
0000
1001
0000
,  // measure 17
0010
0100
0010
1000
0010
0100
0001
0000
,  // measure 18
0100
0010
0100
0001
0100
0010
1000
0000
,  // measure 19
1000
0100
0001
0100
1000
0010
0100
0001
,  // measure 20
0100
0110
1000
1100
,  // measure 21
1000
0010
0100
0001
0100
0010
0100
0000
,  // measure 22
0001
0100
0010
1000
0010
0100
0010
0000
,  // measure 23
0001
0100
1000
0000
1000
0010
0001
0000
,  // measure 24
0001
0100
0010
1000
0001
0100
0010
1000
,  // measure 25
1100
0202
0000
0303
,  // measure 26
0001
0100
1000
0000
1000
0010
0100
0001
,  // measure 27
1000
0010
1000
0000
0010
1000
0001
0010
,  // measure 28
1000
0010
1001
0000
0010
0100
1001
0000
,  // measure 29
0001
0100
1000
0010
1000
0001
0101
0000
,  // measure 30
0001
0100
0010
0100
1000
0100
1100
0000
,  // measure 31
1000
0010
0100
0001
0010
0001
0011
0000
,  // measure 32
0001
0100
1100
0000
1000
0100
0101
0000
,  // measure 33
0001
0010
1000
0010
0100
0001
1001
0000
,  // measure 34
0001
0100
1000
0100
0001
0100
1000
0100
,  // measure 35
0001
0010
1000
0010
0001
0010
1000
0010
,  // measure 36
0001
1000
0010
0100
0001
0100
0010
1000
,  // measure 37
0001
0100
0010
1000
0001
1000
1001
0000
,  // measure 38
0010
1000
0001
1000
0010
1000
0001
1000
,  // measure 39
0001
0100
0001
1000
0001
0100
0001
1000
,  // measure 40
0001
0100
0010
1000
0010
0100
0001
0100
,  // measure 41
0020
1000
0100
0031
,  // measure 42
0200
0001
0010
1300
,  // measure 43
0002
1000
0010
0103
,  // measure 44
2000
0001
0100
3010
,  // measure 45
0020
0001
0100
1000
,  // measure 46
0032
0100
0010
0100
,  // measure 47
2003
0010
0100
0001
,  // measure 48
3200
0310
0002
1003
,  // measure 49
2000
3020
0230
0302
,  // measure 50
1003
0010
0100
0001
0100
0010
1000
0001
,  // measure 51
0100
0001
0100
0010
1010
0000
0110
0000
,  // measure 52
0001
0100
1000
0001
1000
0010
0100
0010
,  // measure 53
1000
0001
1000
0001
0100
0010
0100
0010
,  // measure 54
0001
0100
1000
0100
0001
0100
1000
0100
,  // measure 55
0001
0000
0010
0000
1000
0000
0010
0000
0001
0000
0010
0000
0100
0000
0010
0100
,  // measure 56
0010
0000
0000
0000
0000
0000
0001
1000
0001
0000
0000
0000
0000
0000
0001
0100
,  // measure 57
0001
0000
1000
0100
1000
0000
0001
0100
0001
0000
1000
0100
1000
0000
0000
0000
,  // measure 58
0001
0100
1000
0000
0010
0100
0001
1000
0010
0100
0001
0000
0010
0100
1000
0001
,  // measure 59
1001
0000
1000
0100
0010
0001
0010
0100
0000
1000
0010
0100
0001
0100
0010
0000
,  // measure 60
1000
0100
0001
0100
0010
1000
0001
0000
0001
0100
0010
1000
0001
0100
0001
1001
,  // measure 61
0000
0100
1000
1100
0000
1000
0001
0101
0000
0001
0010
0110
0000
0010
0100
0001
,  // measure 62
1001
0010
0100
1000
0010
0100
0001
0100
,  // measure 63
0010
1000
0010
0100
1001
0000
1100
0000
,  // measure 64
0001
0100
0010
1000
0100
0010
0100
0001
,  // measure 65
1000
0010
0100
0010
1001
0000
0011
0000
,  // measure 66
0001
0100
0010
1000
0100
0001
0100
0010
,  // measure 67
1000
0001
0100
0010
1000
0100
0010
0011
,  // measure 68
0000
0001
0100
1100
0000
1000
0100
0101
,  // measure 69
0000
0001
0010
1010
0000
1000
0010
0001
,  // measure 70
0100
1000
0100
0001
0100
1000
0100
0001
,  // measure 71
0010
1000
0010
0001
0010
1000
0010
0001
,  // measure 72
0010
1000
0010
0100
0001
0100
0010
1000
,  // measure 73
0100
0001
0100
1000
1100
0000
0101
0000
,  // measure 74
0001
0100
0010
1000
0010
0100
0001
0010
,  // measure 75
1000
0000
0100
0000
0010
0000
0100
0000
0001
0000
0010
0000
0100
0000
0010
0100
,  // measure 76
1000
0000
0000
0000
0010
0000
0100
0010
0001
0000
0000
0000
0001
0000
1000
0010
,  // measure 77
0100
0000
0000
0000
1000
0000
0001
0100
0010
0000
0000
0000
0100
0010
0001
0010
,  // measure 78
0200
0000
0320
0000
,  // measure 79
1030
0001
0100
0010
1000
0010
0100
0001
,  // measure 80
1001
0000
0000
0000
;
