#TITLE:EBONY & IVORY;
#SUBTITLE:;
#ARTIST:OSTER project;
#TITLETRANSLIT:;
#SUBTITLETRANSLIT:;
#ARTISTTRANSLIT:;
#GENRE:BeatStream;
#CREDIT:;
#BANNER:;
#BACKGROUND:;
#LYRICSPATH:;
#CDTITLE:;
#MUSIC:EBONY & IVORY.ogg;
#OFFSET:-1.000000;
#SAMPLESTART:25.035877;
#SAMPLELENGTH:15.000008;
#SELECTABLE:YES;
#BPMS:0.000000=170.000046
,164.000000=113.299767
,188.000000=169.999817
;
#STOPS:
;
#BGCHANGES:;
#KEYSOUNDS:;
#ATTACKS:;

//---------------dance-single - ----------------
#NOTES:
     dance-single:
     :
     Hard:
     11:
     0.534338,0.480037,0.190349,0.104692,0.099933,362.000000,20.000000,11.000000,0.000000,0.000000,0.000000,0.534338,0.480037,0.190349,0.104692,0.099933,362.000000,20.000000,11.000000,0.000000,0.000000,0.000000:
0000
0000
0000
0000
,
0000
0000
0000
0000
,
0000
0000
0000
0000
,
0000
0000
0000
0000
,
0000
0000
0000
0000
,
1000
0000
0100
0000
1000
0000
0100
0000
1000
0000
0000
0010
0000
0000
0100
0000
,
0001
0000
0010
0000
0001
0000
0010
0000
0001
0000
0000
0010
0000
0000
0100
0000
,
0001
0000
1000
0000
0001
0000
1000
0000
0001
0000
0000
0100
0000
0000
0010
0000
,
1000
0001
0010
1000
0100
0000
1001
0000
,
0000
0010
1000
0000
1000
0100
1000
0000
,
0010
0100
0001
0000
0001
0000
1001
0000
,
0001
0010
0100
0000
1000
0010
1000
0000
,
0100
0000
1000
0000
0100
0000
1000
0000
0100
0000
0000
0010
0000
0000
0001
0000
,
0010
0000
0001
0000
0010
0100
1000
0000
,
0010
1000
0100
0000
0010
0100
0001
0000
,
0001
0010
0100
1000
0001
0010
0100
1000
,
2100
0000
0100
3100
,
0010
1000
0100
0000
0010
0100
0001
0000
,
0001
0010
0100
0000
1000
0000
1001
0000
,
0100
0010
0100
0001
0010
0100
1000
0000
,
0001
0000
0010
0000
0100
0000
1000
0000
0001
0000
0000
0001
0000
0000
0100
0000
,
0010
1000
0100
0000
0010
0100
0001
0000
,
0001
0010
0100
1000
0100
0010
1000
0000
,
0010
1000
0100
0000
0010
0100
0001
0000
,
0002
1000
0200
0303
,
0010
0100
0010
0000
0001
0000
1001
0000
,
0100
0010
0100
0000
1000
0000
1001
0000
,
1000
0001
1000
0000
0010
0000
0110
0000
,
1000
0001
1000
0000
0100
0000
0110
0000
,
0010
0100
1000
0010
1000
0100
0010
0000
,
0100
0010
0001
0100
0001
0010
0100
0000
,
0001
0010
0100
0000
1000
0100
0010
0000
,
1000
0100
0001
0100
1000
0000
1001
0000
,
0010
1000
0100
0000
1000
0100
0010
0100
,
0001
0000
0010
0100
1000
0000
0001
0000
,
1001
0000
0010
1000
0100
0000
0010
0100
,
0001
0000
0001
0010
0100
1000
0010
1000
,
0100
0010
1000
0100
0010
0100
0001
0010
,
0100
1000
0010
0100
0001
0010
0100
1000
,
0002
0100
1000
0100
,
2000
0000
0000
3003
,
0110
0000
1000
0000
0100
0010
0100
0000
,
0001
0000
1001
0000
0001
0000
0001
0100
,
1000
1001
0010
1000
,
1000
0000
1000
0100
0010
0001
1000
0000
,
0001
0000
0010
0000
0100
0000
0010
1000
,
0100
0000
0010
0000
0100
0001
0010
0000
,
1000
0100
1000
0100
0000
0000
0000
0000
0001
0010
0001
0010
0000
0000
0000
0000
,
1001
0000
0010
0000
1000
0010
0100
0000
,
0110
0000
0000
1000
0100
1000
0100
0000
0000
1000
0000
0000
,
2001
0000
0000
0000
0000
0000
0000
0000
0001
0000
0000
0000
0001
3000
0000
0000
,
0210
0000
0010
0310
,
1000
0100
0010
0100
0001
0010
0100
0000
,
0001
0010
0100
1000
0010
0100
1000
0000
,
0010
1000
0100
0000
0010
0100
0001
0000
,
0001
0010
0100
1000
0100
0010
1000
0000
,
0010
1000
0100
0000
0100
0010
0100
0000
,
0001
0010
0100
0000
0010
0100
0010
0000
,
0001
0010
0100
1000
0001
0010
0100
1000
,
1000
0100
0010
0001
1000
0100
0010
0000
,
0010
0000
1000
0000
0100
0000
0000
0010
0000
1000
0000
0000
0001
0000
0010
0000
,
1000
0000
0100
0000
0010
0000
0000
0100
0000
0001
0000
0000
0010
0000
0100
0000
,
1000
0000
0010
0000
0100
0000
0000
0001
0000
1000
0000
0000
0001
0000
0010
0000
,
1000
0100
0010
0100
0001
0010
0100
0000
,
0210
0010
0010
0010
,
0020
0000
0330
0000
,
2002
0000
0000
3003
0000
0000
0001
1000
0001
1000
0001
1000
,
0001
0110
0000
0000
;

//---------------dance-single - ----------------
#NOTES:
     dance-single:
     :
     Medium:
     8:
     0.407891,0.384030,0.190349,0.171314,0.047587,262.000000,20.000000,18.000000,0.000000,0.000000,0.000000,0.407891,0.384030,0.190349,0.171314,0.047587,262.000000,20.000000,18.000000,0.000000,0.000000,0.000000:
0000
0000
0000
0000
,
0000
0000
0000
0000
,
0000
0000
0000
0000
,
0000
0000
0000
0000
,
0000
0000
0000
0000
,
1000
0000
0001
0000
1000
0000
0000
0000
0001
0000
0000
1000
0000
0000
0000
0000
,
0001
0000
1000
0000
0001
0000
0000
0000
1000
0000
0000
0001
0000
0000
0000
0000
,
0010
0000
0100
0000
0010
0000
0000
0000
0100
0000
0000
0010
0000
0000
0000
0000
,
0100
0000
0010
0000
0100
0000
0000
0000
0010
0000
0000
0100
0000
0000
0000
0000
,
0000
0001
0000
0010
0000
0100
0000
1000
,
0100
1000
0000
0010
0000
1000
0000
0100
,
0001
0010
0000
0001
0000
0010
0000
0001
,
0010
0001
0000
0010
0000
0100
0000
1000
,
0001
1000
0000
0010
0000
1000
0000
0100
,
1000
0010
0000
0100
0000
0001
0000
0100
,
0001
0010
0000
0100
0000
1000
0000
0010
,
2000
0000
0001
3001
,
0000
0001
0000
0100
0000
1000
0000
0010
,
1000
0100
0000
0001
0000
0100
0000
0010
,
1000
0100
0000
0001
0000
0010
0000
1000
,
0100
0001
0010
0000
0100
0000
1001
0000
,
0010
1000
0100
0010
,
0100
0001
0010
0100
,
1000
0100
1000
0000
0001
0010
0001
0000
,
0202
0000
0000
0303
,
0010
0010
1000
1000
,
0100
0100
0010
0010
,
0001
0010
0001
0010
0001
0000
0010
0000
,
0100
1000
0100
1000
0100
0000
0010
0000
,
0100
1000
0010
1000
,
0100
0001
0010
0100
,
0010
0001
0010
0001
,
0100
1000
0100
1001
,
0010
0000
1000
0000
0100
1000
0100
0000
,
0010
0000
1000
0000
0001
0010
0001
0000
,
0010
0000
0100
0000
0001
1000
0001
0000
,
2100
0000
0000
0000
0000
0000
0000
0000
0010
0000
0000
0000
0000
0000
0000
3000
,
0001
0010
1000
0000
0010
0000
0100
0000
,
0001
1000
0100
0000
0010
0000
1000
0000
,
1000
0100
0001
0000
0010
0000
1000
0000
,
2002
0000
0000
3003
,
0001
1000
0100
0010
,
1001
0110
0001
0100
,
0010
1000
1001
0110
,
1000
0100
0010
0100
,
1001
0110
0001
0010
,
0100
2000
0001
3001
,
0101
0000
1100
0000
,
0010
1000
0100
0010
,
0001
0001
0010
0100
,
2020
0000
0000
3030
,
0022
0000
0000
0033
,
0001
0010
0100
0000
0010
0000
0100
0000
,
0001
1000
0100
0000
0010
0000
0001
0000
,
1000
0100
0010
0000
0001
0000
0010
0000
,
1000
0001
0010
0000
0100
0000
1000
0000
,
0010
1000
0100
0000
0010
0100
0001
0000
,
0010
1000
0100
0010
,
0001
0010
0100
0000
0001
1000
0100
0000
,
0010
1000
0100
0010
,
0001
0000
0000
0000
0010
0000
0000
1000
0000
1000
0000
0000
0000
0000
0010
0000
,
1000
0000
0000
0000
0100
0000
0000
0002
0003
0001
0000
0000
0000
0000
0001
0000
,
0010
0000
0000
0000
1000
0000
0000
0100
0000
0010
0000
0000
0000
0000
0010
0000
,
0100
0010
0100
0010
,
0220
0000
0000
0330
,
0202
0000
0303
0000
,
2200
3300
0010
0100
,
1001
0110
0000
0000
;

//---------------dance-single - ----------------
#NOTES:
     dance-single:
     :
     Easy:
     5:
     0.288243,0.288022,0.142762,0.209384,0.019035,175.000000,15.000000,22.000000,0.000000,0.000000,0.000000,0.288243,0.288022,0.142762,0.209384,0.019035,175.000000,15.000000,22.000000,0.000000,0.000000,0.000000:
0000
0000
0000
0000
,
0000
0000
0000
0000
,
0000
0000
0000
0000
,
0000
0000
0000
0000
,
0000
0000
0000
0000
,
0001
0000
0000
0000
1000
0000
0000
0000
0001
0000
0000
1000
0000
0000
0000
0000
,
0001
0000
0000
0000
1000
0000
0000
0000
0001
0000
0000
1000
0000
0000
0000
0000
,
0010
0000
0000
0000
0100
0000
0000
0000
0010
0000
0000
0100
0000
0000
0000
0000
,
0010
0000
0000
0000
0100
0000
0000
0000
0010
0000
0000
0100
0000
0000
0000
0000
,
1100
0000
0100
0000
,
0001
0000
1000
0000
,
0011
0000
0001
0000
,
0010
0000
0100
0000
,
1001
0000
0010
0000
,
0100
0000
0010
0000
,
1100
0010
1000
0100
,
0002
0000
0000
0013
,
0001
0010
0100
1000
,
0100
0000
0110
0000
,
1000
0100
0010
0001
,
0100
0000
1001
0000
,
0001
0100
0010
1000
,
0010
0000
0110
0000
,
1000
0100
0010
0001
,
2001
0000
0010
3010
,
0001
0010
0100
0010
,
0001
0010
0100
0010
,
0001
0010
0100
0010
,
0001
0010
0100
0010
,
0100
1000
0010
0100
,
1000
0010
0100
1000
,
0010
1000
0100
0000
,
0010
0100
0001
0000
,
1000
0100
0010
0100
,
1000
0100
0010
0100
,
1000
0100
0010
0100
,
2001
0000
3001
0000
,
0001
0010
0100
0001
,
0010
0100
0001
0010
,
0100
0001
0010
0100
,
0220
0000
0000
0330
,
0001
0000
0000
1000
,
0000
0000
0010
0000
,
0000
2002
0000
3003
,
0001
0000
0000
1000
,
0000
0000
0100
0000
,
0000
0220
0000
0330
,
0002
0000
2000
3003
,
0010
0000
0100
0000
,
0100
0100
0010
0000
,
2002
0000
0000
0000
,
3003
0000
0000
0000
,
1000
0100
0010
0000
,
1000
0100
0010
0000
,
0001
0010
0100
0000
,
0001
0010
0100
0000
,
1000
0100
0001
0100
,
1000
0100
0001
0100
,
1000
0010
0001
0010
,
1000
0010
0001
0010
,
2000
0000
0010
3010
,
0002
0000
0100
0103
,
2000
0000
0100
3100
,
0020
0000
0200
0330
,
2002
0000
0000
0000
,
3003
0000
0000
0000
,
0000
0000
0100
0010
,
2002
3003
0000
0000
;

//---------------dance-single - ----------------
#NOTES:
     dance-single:
     :
     Beginner:
     1:
     0.092455,0.127534,0.047587,0.000000,0.000000,63.000000,5.000000,0.000000,0.000000,0.000000,0.000000,0.092455,0.127534,0.047587,0.000000,0.000000,63.000000,5.000000,0.000000,0.000000,0.000000,0.000000:
// measure 0
0000
0000
0000
0000
,  // measure 1
0000
0000
0000
0000
,  // measure 2
0000
0000
0000
0000
,  // measure 3
0000
0000
0000
0000
,  // measure 4
0000
0000
0000
0000
,  // measure 5
1000
0000
0000
0000
,  // measure 6
0001
0000
0000
0000
,  // measure 7
1000
0000
0000
0000
,  // measure 8
0001
0000
0000
0000
,  // measure 9
0010
0000
0000
0000
,  // measure 10
0100
0000
0000
0000
,  // measure 11
0010
0000
0000
0000
,  // measure 12
0100
0000
0000
0000
,  // measure 13
0001
0000
0000
0000
,  // measure 14
1000
0000
0000
0000
,  // measure 15
0001
0000
0000
0000
,  // measure 16
1000
0000
0000
0000
,  // measure 17
0010
0000
0100
0000
,  // measure 18
1000
0000
0000
0000
,  // measure 19
1000
0000
0100
0000
,  // measure 20
0010
0000
0000
0000
,  // measure 21
0001
0000
0010
0000
,  // measure 22
0100
0000
0000
0000
,  // measure 23
0100
0000
0010
0000
,  // measure 24
0001
0000
0000
0000
,  // measure 25
1000
0000
0000
0000
,  // measure 26
0100
0000
0000
0000
,  // measure 27
0001
0000
0000
0000
,  // measure 28
0100
0000
0000
0000
,  // measure 29
1000
0000
0000
0000
,  // measure 30
0100
0000
0000
0000
,  // measure 31
0001
0000
0000
0000
,  // measure 32
0100
0000
0000
0000
,  // measure 33
1000
0000
0000
0000
,  // measure 34
0010
0000
0000
0000
,  // measure 35
0001
0000
0000
0000
,  // measure 36
0010
0000
0000
0000
,  // measure 37
1000
0000
0000
0000
,  // measure 38
0010
0000
0000
0000
,  // measure 39
0001
0000
0000
0000
,  // measure 40
0110
0000
0000
0000
,  // measure 41
0000
0000
0000
0000
,  // measure 42
0000
0000
0000
0000
,  // measure 43
0000
0000
0000
0000
,  // measure 44
0000
0000
0000
0000
,  // measure 45
0000
0000
0000
0000
,  // measure 46
0000
0000
0000
0000
,  // measure 47
1000
0000
0001
0000
,  // measure 48
1000
0000
0001
0000
,  // measure 49
0110
0000
0000
0000
,  // measure 50
1001
0000
0000
0000
,  // measure 51
0000
0000
0000
0000
,  // measure 52
1000
0000
0000
0000
,  // measure 53
0100
0000
0000
0000
,  // measure 54
0001
0000
0000
0000
,  // measure 55
0100
0000
0000
0000
,  // measure 56
1000
0000
0000
0000
,  // measure 57
0100
0000
0000
0000
,  // measure 58
0001
0000
0000
0000
,  // measure 59
0100
0000
0000
0000
,  // measure 60
1000
0000
0010
0000
,  // measure 61
0001
0000
0010
0000
,  // measure 62
1000
0000
0010
0000
,  // measure 63
0001
0000
0000
0000
,  // measure 64
1001
0000
0000
0000
,  // measure 65
0000
0000
0000
0000
,  // measure 66
0000
0000
0000
0000
,  // measure 67
0110
0000
0000
0000
;
