#TITLE:Dynamite;
#SUBTITLE:;
#ARTIST:USAO;
#TITLETRANSLIT:;
#SUBTITLETRANSLIT:;
#ARTISTTRANSLIT:;
#GENRE:beatmania IIDX;
#CREDIT:;
#BANNER:;
#BACKGROUND:;
#LYRICSPATH:;
#CDTITLE:;
#MUSIC:Dynamite.ogg;
#OFFSET:0.250000;
#SAMPLESTART:73.555832;
#SAMPLELENGTH:15.000000;
#SELECTABLE:YES;
#BPMS:0.000000=100.000000
;
#STOPS:
;
#BGCHANGES:2.000=Dynamite.avi=1.000=0=0=0=StretchNoLoop====,
99999=-nosongbg-=1.000=0=0=0 // don't automatically add -songbackground-
;
#KEYSOUNDS:;
#ATTACKS:;

//---------------dance-single - ----------------
#NOTES:
     dance-single:
     :
     Beginner:
     4:
     0.165836,0.175569,0.030751,0.000000,0.000000,151.000000,147.000000,4.000000,0.000000,0.000000,0.000000,0.165836,0.175569,0.030751,0.000000,0.000000,151.000000,147.000000,4.000000,0.000000,0.000000,0.000000:
0000
0000
0000
0000
,
0000
0000
0000
0000
,
0000
0000
0000
0000
,
1000
1000
1000
0000
,
0001
0001
0001
0000
,
0100
0100
1000
0000
,
0100
0100
0001
0000
,
0010
0010
1000
0000
,
0010
0010
0001
0000
,
1001
0000
0100
0000
,
0010
0000
0100
0000
,
1001
0000
0010
0010
,
1000
0000
0010
0010
,
0001
0000
0100
0100
,
1000
0000
0100
0100
,
0001
0000
1000
0100
,
0010
0000
0001
0010
,
0100
0000
1000
0100
,
0001
0000
0001
0010
,
1100
0000
1000
1000
,
0100
0000
0001
0001
,
0100
0000
1000
1000
,
0010
0000
0001
0001
,
0010
0000
0010
0000
,
0100
0000
0100
0000
,
0001
0000
0001
0000
,
1000
0000
1000
0000
,
0100
0100
1000
1000
,
0100
0100
0001
0001
,
0010
0010
1000
1000
,
0010
0010
0001
0001
,
1000
0000
0100
1000
,
0100
0000
0010
0001
,
0010
0000
1000
0100
,
1000
0000
0001
0010
,
0001
0000
0100
0010
,
0100
0000
0001
1000
,
0001
0000
1000
0001
,
1000
0000
0100
0010
,
0100
1000
0100
0000
,
0010
0001
0010
0000
,
0100
0010
1000
0000
,
0010
0100
0001
0000
,
1000
0100
0001
0001
,
0001
0010
1000
1000
,
1000
0100
0001
0001
,
0001
0100
1000
1000
,
0100
1000
0010
0000
,
0010
0001
0100
0000
,
1000
0100
0010
0000
,
0001
0010
0100
1001
;

//---------------dance-single - ----------------
#NOTES:
     dance-single:
     :
     Easy:
     8:
     0.355833,0.370646,0.053814,0.061502,0.061502,324.000000,317.000000,7.000000,8.000000,0.000000,0.000000,0.355833,0.370646,0.053814,0.061502,0.061502,324.000000,317.000000,7.000000,8.000000,0.000000,0.000000:
0000
0000
0000
0000
,
0000
0000
0000
0000
,
0000
0000
0000
0000
,
1000
0000
0100
0000
0010
0010
0010
0001
,
0010
0000
0100
0000
0100
0100
0100
1000
,
0100
0000
0100
0000
0010
0010
0100
0010
,
0001
0000
0001
0000
0010
0010
0100
0010
,
1000
0000
1000
0000
0010
0010
0100
0010
,
0001
0000
0001
0000
0100
0010
0110
1001
,
0100
0000
1000
0000
0010
0010
0010
0000
,
0001
0000
0010
0000
0100
0000
1000
0000
0100
0000
0100
0010
0100
0000
0000
0000
,
1000
0100
0010
0000
1000
0001
1000
0000
,
0001
0010
0100
0000
0001
1000
0001
0000
,
1000
0100
0010
0100
1000
1000
1000
0000
,
0001
0010
0100
0010
0001
0001
0001
0000
,
1000
0100
0010
0001
0010
0100
1000
0000
,
0001
0010
0100
1000
0100
0010
0001
0000
,
0001
0100
0001
0000
0100
1000
0100
0000
,
0010
1000
0010
0000
0001
0010
0001
0000
,
0100
1000
0100
0100
1000
0000
1100
0000
,
0010
0001
0010
0010
0001
0000
0011
0000
,
0001
0100
1000
0100
0001
0000
1001
0000
,
1000
0010
0001
0010
1000
0000
1001
0000
,
2000
0000
0000
0100
0000
0000
0000
0000
3200
0000
0000
0010
0000
0000
0000
0000
,
0302
0000
0000
0100
0000
0000
0000
0000
0203
0000
0000
0010
0000
0000
0000
0000
,
2300
0000
0000
0100
0000
0000
0000
0000
3020
0000
0000
0001
0000
0000
0000
0000
,
0032
0000
0000
0010
0000
0000
0000
0000
0203
0000
0000
1000
0000
0000
0000
0000
,
1300
0000
1000
0000
0100
0100
0010
0100
,
0001
0000
0001
0000
0100
0100
0010
0100
,
1000
0100
1000
0000
0001
0010
0001
0000
,
0100
0010
0100
0010
1000
0001
1000
0001
,
1000
0100
0010
0001
0010
0010
0010
0000
,
0001
0010
0100
1000
0100
0100
0100
0000
,
1000
0100
0001
0010
1000
1000
1000
0000
,
1000
0100
0001
0010
0100
0100
0100
0000
,
1000
0000
0100
0000
0001
0000
0001
0000
0010
0000
0100
0000
1000
0100
1000
0000
,
0001
0000
0010
0000
1000
0000
1000
0000
0100
0000
0010
0000
0001
0010
0001
0000
,
0010
0100
0010
0100
0001
1000
0001
1000
,
0001
0000
0000
0000
0010
0000
0000
0000
1000
0000
0000
0000
0000
0000
0000
0000
1000
0000
0000
0100
0000
0000
0001
0000
0000
0000
0000
0000
0000
0000
0000
0000
,
1000
0100
1000
0100
0010
0010
0010
0000
,
0001
0010
0001
0010
0100
0100
0100
0000
,
1000
0100
0001
0100
1000
1000
1000
0000
,
0001
0010
1000
0010
0001
0001
0001
0000
,
1000
0100
0010
1000
0100
0010
0001
0010
,
0001
0010
0100
0001
0010
0100
1000
0100
,
1000
0100
0001
0100
0010
0100
1000
1000
,
1000
0100
0010
0100
1000
0100
0010
0010
,
0001
0000
1000
0000
0001
0000
0000
0000
0100
0000
0010
0000
0100
0010
0100
0000
,
0001
0000
0010
0000
0001
0000
0000
0000
1000
0000
0100
0000
1000
0100
1000
0000
,
0100
0000
1000
0000
0010
0000
0000
0000
0010
0000
0001
0000
0100
0010
0100
0000
,
1000
0100
0010
0000
0001
0010
1001
0000
;

//---------------dance-single - ----------------
#NOTES:
     dance-single:
     :
     Medium:
     13:
     0.511785,0.546215,0.115316,0.000000,0.411295,466.000000,451.000000,15.000000,0.000000,0.000000,0.000000,0.511785,0.546215,0.115316,0.000000,0.411295,466.000000,451.000000,15.000000,0.000000,0.000000,0.000000:
0000
0000
0000
0000
,
0000
0000
0000
0000
,
0000
0000
0000
0000
,
1000
0000
0100
0000
0010
0100
0000
0010
0000
0100
0000
0010
0100
0000
0001
0000
,
1000
0000
0010
0000
0001
1000
0000
0001
0000
1000
0000
0001
1000
0000
0001
0000
,
0001
0000
1000
0000
0010
0000
0100
0000
0001
0000
1000
0000
0010
0100
0010
0000
,
1000
0000
0001
0000
0100
0000
0010
0000
1000
0000
0001
0000
0100
0010
0100
0000
,
1000
0000
0100
0000
0010
0000
0100
0000
1000
0000
0100
0000
0010
0100
0010
0000
,
0001
0000
0010
0000
0100
0000
0010
0000
0001
0000
0010
0000
0100
0010
0100
0000
,
1001
0100
0010
0010
0100
0001
0100
0100
,
0001
0000
1000
0000
0001
0000
1000
0000
0001
0001
0001
0000
1001
0000
0000
0000
,
1000
0000
0100
0000
0010
0000
0001
0000
1000
1000
1000
0000
0010
0000
0110
0000
,
1000
0000
0010
0000
0100
0000
0001
0000
0001
0001
0001
0000
0010
0000
0110
0000
,
1000
0000
0100
0000
0010
0000
0001
0000
0010
0010
0010
0000
0100
0000
0110
0000
,
1000
0000
0100
0000
0001
0000
0010
0000
0100
0000
1000
0000
1000
1000
1000
0000
,
0100
1000
0100
1000
0010
0100
0010
0100
,
0001
0000
0010
0000
0001
0000
0010
0000
1000
0000
0001
0000
1000
1000
1000
0000
,
0010
0100
0010
0100
1000
0001
1000
0001
,
0100
0000
0010
0000
0100
0000
0010
0000
0001
0001
0001
0000
1001
0000
0000
0000
,
1000
0000
0100
0000
0010
0000
0001
0000
0100
0010
0100
0000
0010
0100
0010
0000
,
0001
0000
1000
0000
0010
0000
0100
0000
0001
1000
0001
0000
1000
0001
1000
0000
,
0010
0000
1000
0000
0100
0000
0001
0000
0010
0001
0010
0000
0001
0010
0001
0000
,
0010
0000
0100
0000
0001
0000
1000
0000
0100
1000
0100
0000
1000
0100
1000
0000
,
0010
0000
0000
0010
0000
0100
0010
0000
1000
0000
0000
1000
0000
0001
1000
0000
,
0100
0000
0000
0100
0000
1000
0100
0000
0010
0000
0000
0010
0000
0001
0010
0000
,
0100
0000
0010
0100
0000
0010
0100
0000
0001
0000
1000
0001
0000
1000
0001
0000
,
0100
0000
0010
0100
0000
0010
0100
0000
0001
0000
1000
0001
0000
0000
1001
0000
,
1000
0000
0100
0000
0010
0000
0001
0000
0100
0000
0010
0000
0100
0010
0100
0000
,
0001
0000
0010
0000
0100
0000
1000
0000
0010
0000
0100
0000
0001
1000
0001
0000
,
1000
0000
0100
0000
0010
0000
0001
1000
0001
0000
0010
0000
0100
0000
1000
0001
,
1000
0000
0010
0000
0100
0000
0001
0000
1000
0001
1000
0001
1000
0000
0000
0000
,
1000
0000
0100
0000
0010
0000
0001
0000
0010
0000
0100
0000
1000
0100
1000
0000
,
0010
0000
1000
0000
0100
0000
0001
0000
0010
0000
0100
0000
0001
0010
0001
0000
,
0100
0000
0010
0000
1000
0000
0100
0000
0001
0000
0010
0000
1000
0001
1000
0000
,
0100
0000
0010
0000
1000
0010
1000
0010
1000
0000
0001
0000
0100
0000
0010
0000
,
1000
0000
0001
0000
0100
0000
0001
0000
0010
0001
0010
0000
0010
0001
0010
0000
,
0010
0000
0100
0000
1000
0000
0001
0000
0100
1000
0100
0000
0100
1000
0100
0000
,
0010
0000
0100
0000
0001
0000
1000
0000
0001
1000
0001
0000
1000
0001
1000
0000
,
0010
0000
0000
0000
1000
0000
0000
0000
0100
0000
0000
0000
0001
0000
0000
0000
0010
0000
0000
0100
0000
0000
0110
0000
0000
0000
0000
0000
0000
0000
0000
0000
,
0100
1000
0100
1000
0000
0001
0000
0001
0100
0010
0100
0010
0000
1000
0000
1000
,
0001
0010
0001
0010
0000
0100
0000
1000
0001
1000
0001
0010
0000
0100
0001
1000
,
0001
1000
0001
1000
0000
0100
0000
0010
0100
1000
0100
0010
0000
0001
0000
0001
,
0010
0100
0010
0001
0000
1001
0000
1000
0100
0010
0100
1000
0000
1001
0000
1000
,
0100
0000
1000
0100
1000
0000
0010
0000
0100
0000
0001
0000
1000
0000
1001
0000
,
0001
0000
0010
0001
0010
0000
0100
0000
0010
0000
1000
0000
0001
0000
1001
0000
,
1000
0000
0100
0010
0100
0000
0001
0000
1000
0000
0010
0000
0001
0000
1001
0000
,
0001
0000
0010
0100
0010
0000
1000
0000
0010
0000
0001
0000
1001
0000
0110
0000
,
1000
0100
1000
0000
0010
0000
0010
0000
0001
0010
0001
0000
0100
0000
0100
0000
,
0010
1000
0010
0000
0100
0000
0001
0000
1000
0001
1000
0000
0010
0000
0001
0000
,
0100
0001
0100
0000
0010
0000
1000
0000
0001
1000
0001
0000
0010
0000
0100
0000
,
1000
0100
0010
0000
0001
0010
0100
0000
1000
0001
1000
0001
1000
0000
0000
0000
;

//---------------dance-single - ----------------
#NOTES:
     dance-single:
     :
     Hard:
     16:
     0.747909,0.839863,0.269071,0.023063,1.080130,681.000000,646.000000,35.000000,3.000000,0.000000,0.000000,0.747909,0.839863,0.269071,0.023063,1.080130,681.000000,646.000000,35.000000,3.000000,0.000000,0.000000:
// measure 0
0000
0000
0000
0000
,  // measure 1
0000
0000
0000
0000
,  // measure 2
0000
0000
0000
0000
,  // measure 3
1000
0000
0100
0000
0010
0100
0000
0010
0000
1000
0000
0001
1000
0001
1000
0000
,  // measure 4
0010
1000
0100
0010
0001
0000
0010
0100
1000
0000
0001
0000
1001
0000
1100
0000
,  // measure 5
0010
0000
0001
0100
0001
0000
1000
0100
1000
0000
0100
0000
0110
0000
1100
0000
,  // measure 6
0010
0000
1000
0010
1000
0000
0001
0010
0001
0000
0100
0000
0110
0000
0011
0000
,  // measure 7
0010
0000
1000
0100
1000
0000
0001
0010
0001
0000
0100
0000
1001
0000
0110
0000
,  // measure 8
1000
0100
0010
0000
0001
0010
0100
0000
1000
0010
0100
0001
1000
0000
1001
0000
,  // measure 9
0100
1000
0100
1000
0010
0100
0010
0100
0010
0001
0010
0001
0100
0010
0100
0010
,  // measure 10
0001
0010
0001
0010
1000
0010
1000
0010
0001
0100
0001
0100
1000
0100
1000
0100
,  // measure 11
0010
0000
1000
0100
1000
0000
0010
0100
0010
0100
0010
0100
0001
1000
0001
0000
,  // measure 12
0010
0000
0001
0010
0001
0000
0100
0010
0100
0010
0100
0010
1000
0001
1000
0000
,  // measure 13
1000
0000
0100
0010
0100
0000
0001
0100
0001
0100
0001
0100
0010
1000
0010
0000
,  // measure 14
1000
0000
0001
1000
0001
0000
1000
0010
1000
0010
1000
0010
0001
0010
0001
0000
,  // measure 15
0010
0000
0100
1000
0100
0000
0010
0100
0001
0000
0010
0100
0010
0000
1000
0000
,  // measure 16
1001
0000
0100
0001
0100
0000
0010
0100
1000
0000
0010
0100
0010
0000
1000
0000
,  // measure 17
0110
0000
1000
0100
0010
0000
0001
0010
0100
0000
1000
0001
0100
0000
1100
0000
,  // measure 18
0011
0000
0001
1000
0010
0100
0001
0000
0001
0100
1000
0010
1000
0000
1001
0000
,  // measure 19
1000
0000
1000
0100
1000
0000
0100
0001
0100
0000
0001
0010
0001
0000
0010
0000
,  // measure 20
0110
0000
0001
0010
0001
0000
0100
0010
0100
0000
1000
0010
1000
0000
0100
0000
,  // measure 21
0110
0000
1000
0100
0010
0000
0001
0010
0100
0000
1000
0001
0100
0000
0010
0000
,  // measure 22
1001
0000
0001
0010
1000
0000
1000
0100
0001
0010
0100
1000
0001
0000
1001
0000
,  // measure 23
1000
0100
1000
0100
0000
0010
0100
0010
0100
0010
0001
0010
0000
0001
0010
0001
,  // measure 24
0010
0001
0010
0100
0000
0100
0010
0100
0010
0100
0010
1000
0000
0001
0010
0100
,  // measure 25
1000
0010
1000
0100
0000
1000
0100
0010
0001
0100
0001
0010
0000
0010
0100
0001
,  // measure 26
1000
0010
0100
0010
0000
0100
0010
1000
0001
0100
0010
0100
0000
0001
0100
1000
,  // measure 27
0010
0000
1000
0010
1000
0000
0001
1000
0001
0000
0100
0000
0110
0000
1001
0000
,  // measure 28
0010
0000
0001
0010
0001
0000
0010
0100
0010
0000
0100
0000
0110
0000
1001
0000
,  // measure 29
1000
0000
1000
0100
1000
0000
0100
0010
0100
0100
0010
0100
0010
0000
0001
0010
,  // measure 30
0001
0001
0010
0001
0010
0000
0100
0010
0100
0001
1000
0010
1001
0000
0000
0000
,  // measure 31
0010
0000
1000
0000
0200
0000
0310
0100
0001
0100
0001
0100
0010
1000
0010
1000
,  // measure 32
0001
0000
0010
0000
2000
0000
3001
0010
0100
1000
0100
0010
0001
0010
0100
1000
,  // measure 33
0010
0000
1000
0000
0020
0000
1030
0100
0001
0100
1000
0100
0001
0100
1000
0100
,  // measure 34
0010
0000
1000
0000
0100
0010
1000
0001
0010
0000
1000
0100
0010
0000
1001
0000
,  // measure 35
0010
0000
1000
0100
0010
0000
0001
0010
0100
0000
1000
0010
0100
0000
0001
0100
,  // measure 36
0010
0000
1000
0010
0100
0000
0001
0100
0010
0000
1000
0001
1000
0000
0010
0100
,  // measure 37
0001
0000
1000
0000
0001
0000
1000
0001
1000
0000
0010
0000
0100
0000
0001
0000
1000
0000
0010
0000
0100
0000
0010
0100
0010
0000
0100
0000
0001
0000
1000
0000
,  // measure 38
0010
1000
0010
0000
1000
0000
0010
0000
0100
0001
0100
0000
0010
0000
0100
0000
1000
0000
0000
0001
0000
0000
1001
0000
0000
0000
0000
0000
0000
0000
0000
0000
,  // measure 39
0010
1000
0010
1000
0010
0000
1000
0000
0100
0000
0001
0000
0010
0000
1000
0000
0001
1000
0001
1000
0001
0000
0100
0000
0010
0000
0100
0000
0001
0000
1000
0000
,  // measure 40
0010
0100
0010
0100
0010
0000
0100
0000
0001
0000
1000
0000
0010
0000
0100
0000
0001
1000
0001
1000
0001
0000
1000
0000
0010
0000
0100
0000
1000
0000
0100
0000
,  // measure 41
0001
0100
0001
0100
0001
0000
0100
0000
0010
0000
1000
0000
0100
0000
0001
0000
1000
0010
1000
0010
1000
0000
0100
0000
0001
0000
0100
0000
1000
0000
0010
0000
,  // measure 42
0100
0000
0000
0000
0001
0000
1000
0100
1000
0000
0000
0000
0001
0000
1000
0000
0010
0000
0100
0000
0001
0000
1000
0000
1001
0000
0000
0000
0110
0000
0000
0000
,  // measure 43
0010
0100
0010
0100
0010
0000
0100
0000
0001
0000
1000
0000
0010
0000
1000
0000
0001
1000
0001
0000
1000
0000
0010
0000
0100
0010
0100
0000
0001
0000
1000
0000
,  // measure 44
0001
1000
0001
1000
0001
0000
0010
0000
0001
0000
0100
0000
0010
0000
1000
0000
0001
1000
0001
0000
1000
0000
0010
0000
0100
0010
0100
0000
0010
0000
1000
0000
,  // measure 45
0001
0010
0001
0010
0001
0000
1000
0000
0100
0000
0010
0000
0001
0000
1000
0000
0001
1000
0001
0000
1000
0000
0010
0000
0100
0010
0100
0000
0010
0000
0100
0000
,  // measure 46
1000
0100
1000
0100
1000
0000
0100
0000
0001
0010
0001
0010
0001
0000
0010
0000
1000
0100
0000
0010
0000
1000
0001
0000
0100
0000
0110
0000
0000
0000
0000
0000
,  // measure 47
0010
1000
0100
0010
0100
0000
0001
0010
0100
0010
1000
0000
1001
0000
0110
0000
,  // measure 48
0001
0000
1000
0010
0100
0000
0001
0100
0010
1000
0010
0000
1001
0000
0110
0000
,  // measure 49
1000
0000
1000
0010
0100
0001
0100
0010
1000
0000
0001
0000
1001
0000
0110
0000
,  // measure 50
0001
0000
0100
0010
0100
0000
1000
0000
0001
0000
0100
0010
0100
0000
0001
0000
1000
0001
1000
0001
1000
0000
0100
0000
0000
0000
1001
0000
0000
0000
0000
0000
;
