#TITLE:ドラマツルギー;
#SUBTITLE:;
#ARTIST:Eve;
#TITLETRANSLIT:;
#SUBTITLETRANSLIT:;
#ARTISTTRANSLIT:;
#GENRE:Japanese Pops;
#CREDIT:;
#BANNER:;
#BACKGROUND:;
#LYRICSPATH:;
#CDTITLE:;
#MUSIC:Dramaturgy.ogg;
#OFFSET:-0.042000;
#SAMPLESTART:61.866245;
#SAMPLELENGTH:15.000000;
#SELECTABLE:YES;
#BPMS:0.000000=149.000000
;
#STOPS:
;
#BGCHANGES:0.000=Dramaturgy.avi=1.000=0=0=0=StretchNoLoop====,
99999=-nosongbg-=1.000=0=0=0 // don't automatically add -songbackground-
;
#KEYSOUNDS:;
#ATTACKS:;

//---------------dance-single - ----------------
#NOTES:
     dance-single:
     :
     Easy:
     5:
     0.287061,0.359803,0.147288,0.473425,0.000000,191.000000,177.000000,14.000000,45.000000,0.000000,0.000000,0.287061,0.359803,0.147288,0.473425,0.000000,191.000000,177.000000,14.000000,45.000000,0.000000,0.000000:
0000
0000
0000
0000
,
0000
0000
0000
0000
,
0000
0000
0000
0000
,
0000
0000
0000
0000
,
0000
0000
0000
0000
,
2000
0000
3200
0000
,
0320
0000
0000
0000
,
0032
0000
0023
0000
,
0230
0000
0000
0310
,
0001
0100
1000
0010
,
0001
0001
2002
3003
,
1000
0100
0001
0010
,
1000
1000
2002
3003
,
0200
1000
0010
0301
,
0010
0010
0220
0330
,
0020
0001
0100
1030
,
0010
0010
2002
3003
,
0200
1300
0010
0001
,
0002
0013
0100
1000
,
0200
1300
0010
0001
,
2000
3100
0010
0001
,
0200
1300
0001
0010
,
0002
0013
1000
0100
,
2000
3010
0001
0100
,
1000
0010
0001
1001
,
0200
1000
0010
0301
,
0020
0001
0100
1030
,
0100
1000
0001
1001
,
0010
0001
1000
1001
,
0200
1000
0001
0310
,
0020
0001
1000
0130
,
0001
0100
1000
1001
,
1000
0010
0001
1001
,
0200
0000
0320
0000
,
2030
0000
3002
0000
,
1003
1000
0001
0001
,
1000
1000
0001
0001
,
0100
0010
0100
0010
,
1000
0001
2002
3003
,
0200
0000
1000
1300
,
0100
0010
0001
1000
,
0020
0000
0001
0031
,
0100
1000
0001
0010
,
0200
0000
0001
0301
,
0010
1000
0001
0100
,
0020
0000
1000
1030
,
0100
1000
0001
1001
,
0100
1000
0010
1010
,
0010
0001
0100
0101
,
0100
1000
0010
0001
,
0100
1000
0001
0010
,
0200
1000
0010
0301
,
0020
0001
0100
1030
,
0200
0000
0320
0000
,
1030
0001
2002
3003
,
0200
0000
0000
0000
,
0020
0000
0000
0000
,
0330
0000
0000
0000
;

//---------------dance-single - ----------------
#NOTES:
     dance-single:
     :
     Beginner:
     1:
     0.090176,0.117830,0.010521,0.168329,0.000000,60.000000,59.000000,1.000000,16.000000,0.000000,0.000000,0.090176,0.117830,0.010521,0.168329,0.000000,60.000000,59.000000,1.000000,16.000000,0.000000,0.000000:
0000
0000
0000
0000
,
0000
0000
0000
0000
,
0000
0000
0000
0000
,
0000
0000
0000
0000
,
0000
0000
0000
0000
,
0002
0000
0003
0000
,
2000
0000
3000
0000
,
0020
0000
0030
0000
,
0200
0000
0300
0000
,
1000
0000
0000
0000
,
0100
0000
0000
0000
,
1000
0000
0000
0000
,
0010
0000
0000
0000
,
0001
0000
0000
0000
,
0100
0000
0000
0000
,
0001
0000
0000
0000
,
0010
0000
0000
0000
,
1000
0000
1000
0000
,
0200
0000
0300
0000
,
0001
0000
0001
0000
,
0200
0000
0300
0000
,
1000
0000
1000
0000
,
0020
0000
0030
0000
,
0001
0000
0001
0000
,
0020
0000
0030
0000
,
1000
0000
0000
0000
,
0100
0000
0000
0000
,
0010
0000
0000
0000
,
0001
0000
0000
0000
,
1000
0000
0000
0000
,
0010
0000
0000
0000
,
0100
0000
0000
0000
,
0001
0000
0000
0000
,
2000
0000
3000
0000
,
0002
0000
0003
0000
,
1000
0000
0000
0000
,
0001
0000
0000
0000
,
0100
0000
0000
0000
,
0010
0000
0000
0000
,
2000
0000
3000
0000
,
0010
0000
0100
0000
,
0002
0000
0003
0000
,
0100
0000
0010
0000
,
1000
0000
0000
0000
,
0001
0000
0000
0000
,
0100
0000
0000
0000
,
0010
0000
0000
0000
,
1000
0000
0100
0000
,
2000
0000
3000
0000
,
0001
0000
0010
0000
,
0002
0000
0003
0000
,
1000
0000
0000
0000
,
0010
0000
0000
0000
,
0100
0000
0000
0000
,
0001
0000
0000
0000
,
2002
0000
0000
0000
,
3003
0000
0000
0000
;

//---------------dance-single - ----------------
#NOTES:
     dance-single:
     :
     Medium:
     8:
     0.341167,0.389787,0.157808,0.305096,0.021041,227.000000,212.000000,15.000000,29.000000,0.000000,0.000000,0.341167,0.389787,0.157808,0.305096,0.021041,227.000000,212.000000,15.000000,29.000000,0.000000,0.000000:
0000
0000
0000
0000
,
0000
0000
0000
0000
,
0000
0000
0000
0000
,
0000
0000
0000
0000
,
0000
0000
0000
0000
,
2000
0000
3200
0000
,
0320
0000
0032
0000
,
0023
0000
0230
0000
,
2300
0000
0001
3001
,
0001
0100
1000
0010
,
0100
0100
0100
0000
0220
0000
0330
0000
,
0001
1000
0010
1000
,
0001
0001
0001
0000
2002
0000
3003
0000
,
0100
1000
0010
0001
,
0100
0100
0100
0000
0220
0000
0330
0000
,
1000
0010
0001
0100
,
1000
1000
1000
0000
2002
0000
3003
0000
,
0100
0000
1000
0000
0010
0010
0010
0000
,
0100
0000
0001
0000
0010
0010
0010
0000
,
0100
0000
0001
0000
1000
1000
1000
0000
,
0010
0000
1000
0000
0001
0001
0001
0000
,
1000
0100
0010
0101
,
0001
0010
0100
1010
,
0200
1000
0010
0301
,
0020
0001
0100
1030
,
0001
0000
1000
0000
0010
0010
0010
0000
,
1000
0000
0001
0000
0100
0100
0100
0000
,
0001
0000
1000
0000
0100
0100
0100
0000
,
0001
0000
1000
0000
0010
0010
0010
0000
,
0200
0001
0010
1300
,
0020
1000
0100
0031
,
0200
0001
1000
0301
,
0020
0001
1000
0031
,
1000
0000
0000
0010
0000
0000
0000
0000
0010
0000
0000
0001
0000
0000
0000
0000
,
0001
0000
0000
0100
0000
0000
0000
0000
0100
0000
0000
1000
0000
0000
0000
0000
,
0001
1000
0001
1000
,
0010
0100
0010
0100
,
0001
1000
0001
0000
0100
0010
0100
0000
,
0010
0100
0010
0100
0020
0000
0000
0000
,
0130
0000
1000
0000
0001
0001
0001
0000
,
0100
0001
0010
0100
,
0001
0000
0010
0000
1000
1000
1000
0000
,
0100
1000
0010
0010
,
0001
1000
0010
0110
,
1000
0010
0001
1001
,
0100
0000
1000
0020
0000
0100
0000
0001
,
0000
1030
0000
0101
0000
0001
0100
0000
,
1000
0000
1100
0000
1000
0010
0100
0000
,
0001
1000
0010
0100
,
0001
0000
0011
0000
0001
1000
0010
0000
,
0100
1000
0001
1001
,
0200
0001
0010
1300
,
0020
1000
0100
0031
,
1000
0000
0100
0010
0000
0001
0000
0010
,
0000
0100
1000
0000
0010
0000
1001
0000
,
0220
0000
0000
0330
,
2002
0000
0000
0000
,
3003
0000
0000
0000
;

//---------------dance-single - ----------------
#NOTES:
     dance-single:
     :
     Hard:
     11:
     0.501981,0.569688,0.284055,0.178849,0.152548,334.000000,307.000000,27.000000,17.000000,0.000000,0.000000,0.501981,0.569688,0.284055,0.178849,0.152548,334.000000,307.000000,27.000000,17.000000,0.000000,0.000000:
// measure 0
0000
0000
0000
0000
,  // measure 1
0000
0000
0000
0000
,  // measure 2
0000
0000
0000
0000
,  // measure 3
0000
0000
0000
0000
,  // measure 4
0000
0000
0000
0000
,  // measure 5
1000
0000
0000
2000
0000
0000
0000
0000
3010
0000
0000
0020
0000
0000
0000
0000
,  // measure 6
0130
0000
0000
0200
0000
0000
0000
0000
0000
0000
0000
0000
0000
0000
0000
0000
,  // measure 7
0301
0000
0000
0002
0000
0000
0000
0000
0013
0000
0000
0020
0000
0000
0130
0000
,  // measure 8
0000
0010
0100
0001
1000
0001
1001
0000
,  // measure 9
0100
1000
0010
0100
0001
1000
0010
0000
,  // measure 10
0100
0000
0001
0100
0000
0001
0100
0000
0010
0000
0100
0000
1010
0000
0000
0000
,  // measure 11
0010
1000
0001
0100
0010
1000
0001
0000
,  // measure 12
0010
0000
1000
0010
0000
1000
0010
0000
0100
0000
0010
0000
0101
0000
0000
0000
,  // measure 13
0010
0100
1000
0010
0100
0001
1001
0000
,  // measure 14
0001
0000
1000
0010
0000
0100
0001
0000
1000
0000
0010
0000
1001
0000
0000
0000
,  // measure 15
0010
1000
0001
0100
0010
1000
0001
0000
,  // measure 16
1000
0000
0001
0010
0000
0100
1000
0000
0001
0000
0100
0000
1001
0000
0000
0000
,  // measure 17
0100
0000
1000
0000
0010
0000
0100
0000
0001
0000
0000
0001
0000
0000
0001
0000
,  // measure 18
0100
0000
0010
0000
1000
0000
0001
0000
1000
0000
0000
1000
0000
0000
1000
0000
,  // measure 19
0010
0000
0100
0000
0001
0000
1000
0000
0010
0000
0000
0010
0000
0000
0010
0000
,  // measure 20
1000
0000
0001
0000
0100
0000
0010
0000
0100
0000
0000
0100
0000
0000
0100
0000
,  // measure 21
0010
0100
0001
0000
0001
1000
0010
0000
,  // measure 22
1000
0001
0100
0000
0100
1000
0001
0000
,  // measure 23
0010
1000
0001
1001
,  // measure 24
0010
1000
0001
1001
,  // measure 25
0100
0000
1000
0000
0010
0000
0100
0000
0001
0000
0000
0001
0000
0000
0001
0000
,  // measure 26
0100
0000
0010
0000
1000
0000
0100
0000
0001
0000
0000
0001
0000
0000
0001
0000
,  // measure 27
1000
0000
0010
0000
0100
0000
0001
0000
1000
0000
0000
1000
0000
0000
1000
0000
,  // measure 28
0010
0000
0100
0000
0001
0000
0100
0000
1000
0000
0000
1000
0000
0000
1000
0000
,  // measure 29
0100
0001
0010
0000
0100
1000
0010
0000
,  // measure 30
1000
0100
0001
0000
0001
0010
1000
0000
,  // measure 31
2000
0100
0010
3001
,  // measure 32
0002
0010
0100
1003
,  // measure 33
0010
1000
0000
0010
0000
0000
0000
0000
0001
0100
0000
0001
0000
0000
0000
0000
,  // measure 34
1000
0001
0000
1000
0000
0000
0000
0000
0010
0100
0000
0010
0000
0000
0000
0000
,  // measure 35
0100
0010
0100
0010
0100
0010
0100
0010
,  // measure 36
1000
0001
1000
0001
1000
0001
1000
0001
,  // measure 37
0010
0100
1000
0100
0010
0001
1000
0010
,  // measure 38
0100
0001
0100
0010
2000
0000
0000
0000
,  // measure 39
3010
0000
1001
0000
0010
1000
0100
0000
,  // measure 40
0001
0100
0010
1000
0001
0000
1001
0000
,  // measure 41
0010
0000
1001
0000
0100
0001
1000
0000
,  // measure 42
0001
1000
0010
0100
0001
1000
0010
0000
,  // measure 43
1010
0000
1001
0000
0010
0100
0001
0000
,  // measure 44
0011
0000
1001
0000
0100
1000
0010
0000
,  // measure 45
0011
0000
0100
0110
0000
0011
0000
1001
,  // measure 46
0000
1000
0001
0100
0010
0000
0110
0000
,  // measure 47
0100
1000
0001
0000
0010
0000
0110
0000
,  // measure 48
0001
1000
0010
0100
0001
0000
1001
0000
,  // measure 49
0100
0000
0110
0000
0001
1000
0010
0000
,  // measure 50
1000
0001
0100
0010
1000
0000
1001
0000
,  // measure 51
0200
1000
0010
0301
,  // measure 52
0020
0001
0100
1030
,  // measure 53
0001
0000
1000
1100
0000
0101
0000
1001
,  // measure 54
0000
0010
1000
0001
0200
0000
0320
0000
,  // measure 55
2030
0000
3000
0001
1000
0010
0100
0001
,  // measure 56
0020
2030
3002
0203
,  // measure 57
0300
0000
0000
0000
;
