#TITLE:Don't Stop!!;
#SUBTITLE:;
#ARTIST:BEMANI Sound Team "Sota F.";
#TITLETRANSLIT:;
#SUBTITLETRANSLIT:;
#ARTISTTRANSLIT:;
#GENRE:DANCERUSH;
#CREDIT:;
#BANNER:;
#BACKGROUND:;
#LYRICSPATH:;
#CDTITLE:;
#MUSIC:Don't Stop!!.ogg;
#OFFSET:-0.090000;
#SAMPLESTART:63.310005;
#SAMPLELENGTH:15.000000;
#SELECTABLE:YES;
#BPMS:0.000000=129.000000
;
#STOPS:
;
#BGCHANGES:;
#KEYSOUNDS:;
#ATTACKS:;

//---------------dance-single - ----------------
#NOTES:
     dance-single:
     :
     Beginner:
     1:
     0.087769,0.125071,0.008777,0.000000,0.000000,70.000000,69.000000,1.000000,0.000000,0.000000,0.000000,0.087769,0.125071,0.008777,0.000000,0.000000,70.000000,69.000000,1.000000,0.000000,0.000000,0.000000:
0000
0000
0000
0000
,
0000
0000
0000
0000
,
0000
0000
0000
0000
,
0000
0000
0000
0000
,
0000
0000
0000
0000
,
1000
0000
0000
0000
,
0001
0000
0000
0000
,
1000
0000
0000
0000
,
0001
0000
0000
0000
,
0100
0000
1000
0000
,
0100
0000
0000
0000
,
0010
0000
0001
0000
,
0010
0000
0000
0000
,
1000
0000
0100
0000
,
1000
0000
0000
0000
,
0001
0000
0010
0000
,
0001
0000
0000
0000
,
1000
0000
0000
0000
,
0010
0000
0000
0000
,
0100
0000
0000
0000
,
0001
0000
0000
0000
,
0001
0000
0000
0000
,
0100
0000
0000
0000
,
0010
0000
0000
0000
,
1000
0000
0000
0000
,
1000
0000
0010
0000
,
0100
0000
0000
0000
,
0001
0000
0100
0000
,
0010
0000
0000
0000
,
1000
0000
0100
0000
,
0001
0000
0000
0000
,
1000
0000
0010
0000
,
0001
0000
0000
0000
,
0110
0000
0000
0000
,
0001
0000
1000
0000
,
0001
0000
0000
0000
,
1000
0000
0001
0000
,
1000
0000
0000
0000
,
0010
0000
0010
0000
,
0010
0000
0000
0000
,
0100
0000
0100
0000
,
0100
0000
0000
0000
,
1000
0000
0000
0000
,
0010
0000
0000
0000
,
0100
0000
0000
0000
,
0001
0000
0000
0000
,
0001
0000
0000
0000
,
0100
0000
0000
0000
,
0010
0000
0000
0000
,
1000
0000
0000
0000
,
0001
0000
0001
0000
,
0100
0000
0000
0000
,
1000
0000
1000
0000
,
0100
0000
0000
0000
,
0001
0000
0001
0000
,
0010
0000
0000
0000
,
1000
0000
1000
0000
,
0010
0000
0000
0000
;

//---------------dance-single - ----------------
#NOTES:
     dance-single:
     :
     Easy:
     5:
     0.269577,0.309387,0.175539,0.219423,0.000000,215.000000,195.000000,20.000000,25.000000,0.000000,0.000000,0.269577,0.309387,0.175539,0.219423,0.000000,215.000000,195.000000,20.000000,25.000000,0.000000,0.000000:
0000
0000
0000
0000
,
0000
0000
0000
0000
,
0000
0000
0000
0000
,
0000
0000
0000
0000
,
0000
0000
0000
0000
,
1000
0010
0100
2002
,
0000
0000
0000
3003
,
0001
0100
0010
2002
,
0000
0000
0000
3003
,
1000
0010
0100
0010
,
1000
0001
1000
0001
,
0001
0100
0010
0100
,
0001
1000
0001
1000
,
0100
1000
0100
0001
,
0010
1000
0010
0001
,
0100
0010
1000
0001
,
0010
0100
0001
1000
,
0200
0010
2000
3300
,
0010
1000
0010
0100
,
0001
0010
0100
1001
,
0010
1000
0010
1001
,
0020
0100
0002
0033
,
0001
0100
0010
1000
,
0010
0100
0001
1001
,
0100
0010
1000
1001
,
0200
0000
0310
1000
,
0001
0100
0010
1001
,
0020
0000
0130
0001
,
0100
0010
1000
1001
,
0200
0010
1000
0000
,
0320
0100
0001
0000
,
1030
0001
1000
0001
,
0010
0100
0010
0100
,
2200
0000
0000
3300
,
0201
0010
2000
3300
,
0001
1000
0010
1001
,
0200
0010
2000
3300
,
0010
1000
0010
1001
,
0020
0100
0002
0033
,
0001
0010
1000
0100
,
2000
0010
0200
3300
,
0010
1000
0001
1001
,
0100
1000
0100
0001
,
0010
1000
0010
0001
,
0100
0010
1000
0010
,
0100
0001
0100
0010
,
0100
1100
0100
0001
,
0010
0011
1000
0010
,
0100
0001
0100
0010
,
2000
0001
0010
3100
,
0001
1000
0001
0000
1000
0000
1001
0000
,
0100
0010
1000
0001
,
1000
0001
1000
0000
0001
0000
1001
0000
,
0100
0010
1000
0001
,
0100
0010
0100
0000
0001
0000
1001
0000
,
0001
0100
0010
1000
,
0010
0100
0010
0000
1000
0000
1001
0000
,
0100
0010
1000
2002
,
0000
0000
0000
3003
;

//---------------dance-single - ----------------
#NOTES:
     dance-single:
     :
     Medium:
     7:
     0.354839,0.412516,0.254531,0.166762,0.000000,283.000000,254.000000,29.000000,19.000000,0.000000,0.000000,0.354839,0.412516,0.254531,0.166762,0.000000,283.000000,254.000000,29.000000,19.000000,0.000000,0.000000:
0000
0000
0000
0000
,
0000
0000
0000
0000
,
0000
0000
0000
0000
,
0000
0000
0000
0000
,
0000
0000
0000
0000
,
0010
0000
1000
0001
0000
0001
2000
0000
,
0010
0100
0020
3030
,
1000
0000
0001
1000
0000
1000
0002
0000
,
0100
0010
0200
0303
,
1000
0000
0010
0000
1000
0001
1000
0000
,
0010
0100
1000
1001
,
0010
0000
0100
0000
0001
1000
0001
0000
,
0100
0010
1000
1001
,
1000
0000
0010
0000
0100
0010
1000
0000
,
0001
0100
0010
1001
,
0001
0000
0100
0000
0010
0100
0001
0000
,
1000
0010
0100
1001
,
1000
0000
0100
0000
1000
0010
0100
0000
,
0001
0100
0010
0000
1000
0000
1001
0000
,
0010
0000
0100
0000
0001
0100
1000
0000
,
1000
0010
0001
0000
0100
0000
0110
0000
,
2000
0000
3001
0000
0010
0100
1000
0000
,
0001
0100
0010
1001
,
0020
0000
0130
0001
1000
0000
0010
0000
,
1000
0100
0001
0110
,
1000
0100
0001
0000
1000
0000
1001
0000
,
0010
0100
1000
0001
,
0001
0100
1000
0000
0001
0000
1001
0000
,
0001
0010
0100
1000
,
0020
0000
0130
0000
0001
1000
0010
0000
,
0200
0000
0310
0000
1000
0001
0010
0000
,
0200
0001
1000
0001
,
1300
0010
0100
0001
1000
0010
0100
0001
,
2000
0000
0001
3001
,
0001
0100
1000
0000
0010
0000
0110
0000
,
1000
0010
0100
0001
1000
0000
1001
0000
,
0001
0000
0100
0001
1000
0000
0110
0000
,
0001
0100
0010
1000
0001
0000
1001
0000
,
0200
0000
0310
0000
1000
0001
0100
0000
,
0110
0000
1001
0000
0001
0100
0010
0000
,
1100
0000
0101
0000
0001
1000
0010
0000
,
1010
0000
0011
0000
0001
0100
1000
0010
,
0200
0000
0310
0000
1000
0001
0100
0010
,
2000
0001
0100
0010
,
3001
0000
0110
0000
0001
1000
0010
0100
,
0002
0100
0010
1000
,
0023
0000
0130
0000
0001
1000
0010
0100
,
0001
1000
0010
0110
,
1000
0000
0001
0000
0100
0010
1000
0001
,
0100
0100
0010
0110
,
2000
0010
0100
3010
,
0001
0100
1000
0000
0010
0000
0110
0000
,
0002
0100
0010
1003
,
1000
0010
0001
0000
1000
0000
0110
0000
,
1000
0001
0100
0000
0010
0000
0110
0000
,
0001
1000
0010
0000
0100
0000
0110
0000
,
1000
0100
0001
0000
1000
0000
1001
0000
,
0001
0100
1000
0000
0001
0000
2002
0000
,
0000
0000
0000
3003
;

//---------------dance-single - ----------------
#NOTES:
     dance-single:
     :
     Hard:
     11:
     0.473954,0.515645,0.394962,0.122877,0.008777,378.000000,333.000000,45.000000,14.000000,0.000000,0.000000,0.473954,0.515645,0.394962,0.122877,0.008777,378.000000,333.000000,45.000000,14.000000,0.000000,0.000000:
// measure 0
0000
0000
0000
0000
,  // measure 1
0000
0000
0000
0000
,  // measure 2
0000
0000
0000
0000
,  // measure 3
0000
0000
0000
0000
,  // measure 4
0000
0000
0000
0000
,  // measure 5
0001
0010
0100
1000
0000
0001
2002
0000
,  // measure 6
0000
0000
0000
3003
,  // measure 7
1000
0100
0010
0001
0000
1000
2002
0000
,  // measure 8
0000
0000
3003
0110
,  // measure 9
0001
0100
0010
1000
0010
0000
1001
0000
,  // measure 10
1000
0010
0100
0001
0100
0000
1001
0000
,  // measure 11
0001
0100
1000
0100
0001
0100
1000
0000
,  // measure 12
0001
0010
1000
0010
0001
0010
1000
0000
,  // measure 13
0100
0010
1000
0010
0100
0010
1000
0000
,  // measure 14
0010
0100
0001
0100
0010
0100
0001
0000
,  // measure 15
1000
0100
0001
0100
1000
0010
0001
0000
,  // measure 16
1000
0010
0001
0010
1000
0100
0001
0000
,  // measure 17
1001
0000
0110
0000
0001
0100
1000
0010
,  // measure 18
0100
0000
0110
0000
1000
0010
0100
0001
,  // measure 19
1001
0000
0110
0000
1000
0001
0100
0000
,  // measure 20
0001
0100
1000
0000
0010
1000
0001
0100
,  // measure 21
0020
0000
0130
0000
1001
0010
0100
0000
,  // measure 22
1000
0010
0100
0001
1000
0010
1001
0000
,  // measure 23
0001
0100
1000
0100
0001
0010
0110
0000
,  // measure 24
1000
0010
0001
0010
0100
1000
0110
0000
,  // measure 25
1000
0100
0001
0100
1000
0100
0001
0000
,  // measure 26
0001
0010
1000
0010
0001
0010
1000
0000
,  // measure 27
0100
0010
0100
0010
0001
1000
0001
0000
,  // measure 28
0010
0100
0010
0100
1000
0001
1000
0000
,  // measure 29
1100
0000
0101
0000
1100
0010
0100
0000
,  // measure 30
0011
0000
1010
0000
0011
0010
1000
0000
,  // measure 31
0100
1000
0100
1000
0010
0100
0010
0100
,  // measure 32
0001
0010
0001
0010
1000
0001
1000
0001
,  // measure 33
0210
0000
0010
0310
,  // measure 34
1001
0000
0000
0000
0010
0000
1000
0000
0001
0000
0100
0010
0100
0000
0001
0000
,  // measure 35
1000
0000
1001
0000
0010
0100
0001
1000
,  // measure 36
0010
0000
0000
0000
1000
0000
0010
0000
0100
0000
0001
1000
0001
0000
0010
0000
,  // measure 37
0110
0000
1001
0000
0010
1000
1001
0000
,  // measure 38
1001
0000
1100
0000
0001
0100
0010
1000
,  // measure 39
1001
0000
0101
0000
0001
0100
0010
1000
,  // measure 40
0110
0000
1001
0000
0010
0100
1000
0010
,  // measure 41
1001
0000
0110
0000
0001
0100
1000
0010
,  // measure 42
0200
0000
0310
0001
1000
0010
0100
0001
,  // measure 43
2000
0000
0001
0000
0010
0000
3100
0010
,  // measure 44
1000
0001
0010
0100
1000
0010
1000
0100
,  // measure 45
0002
1000
0100
0013
,  // measure 46
1001
0000
0110
0001
1000
0010
0100
0001
,  // measure 47
1001
0000
0100
1000
0010
0100
0001
1000
,  // measure 48
0010
0000
0110
0001
1000
0010
0100
1000
,  // measure 49
0100
0100
0010
0010
1000
1000
0001
0001
,  // measure 50
0200
0000
0000
0300
0010
0000
1000
0000
0001
0000
0100
0000
0010
0000
1000
0000
,  // measure 51
0001
0001
1000
1000
0010
0010
0100
0100
,  // measure 52
0020
0000
0130
0001
1000
0010
0100
0001
,  // measure 53
1000
1000
0001
0001
0100
0100
0010
0010
,  // measure 54
0200
0000
0310
0010
1000
0001
0100
0010
,  // measure 55
1000
0000
1001
0010
1000
0010
0100
0001
,  // measure 56
1001
0000
0110
0001
1000
0010
0100
1000
,  // measure 57
1100
0101
1100
0220
,  // measure 58
0000
0000
0000
0330
;
