#TITLE:デラックス(Eurobeat Mix);
#SUBTITLE:;
#ARTIST:キーヤキッス remixed by Y&Co.;
#TITLETRANSLIT:;
#SUBTITLETRANSLIT:;
#ARTISTTRANSLIT:;
#GENRE:Variety;
#CREDIT:;
#BANNER:;
#BACKGROUND:;
#LYRICSPATH:;
#CDTITLE:;
#MUSIC:Deluxe (Eurobeat Mix).ogg;
#OFFSET:0.100000;
#SAMPLESTART:63.846146;
#SAMPLELENGTH:15.000000;
#SELECTABLE:YES;
#BPMS:0.000000=153.850006
;
#STOPS:
;
#BGCHANGES:;
#KEYSOUNDS:;
#ATTACKS:;

//---------------dance-single - ----------------
#NOTES:
     dance-single:
     :
     Hard:
     12:
     0.535361,0.599539,0.303619,0.156147,0.091086,432.000000,397.000000,35.000000,18.000000,0.000000,0.000000,0.535361,0.599539,0.303619,0.156147,0.091086,432.000000,397.000000,35.000000,18.000000,0.000000,0.000000:
0000
0000
0000
0000
,
0000
0000
0000
0000
,
0000
0000
0000
0000
,
0000
0000
0000
0000
,
0000
0000
0000
0000
,
1000
0000
0000
0100
0000
0000
1000
0000
0000
0100
0000
0000
1000
0000
0000
0000
,
0001
0000
0000
0010
0000
0000
0001
0000
0000
0010
0000
0000
0001
0000
0000
0000
,
1000
0000
0000
0001
0000
0000
1000
0000
0000
0001
0000
0000
1000
0000
0000
0000
,
0002
0000
2000
3003
,
1000
0100
0010
0100
1000
0100
0010
0000
,
0001
0010
0100
0010
0001
0010
0100
0000
,
1000
0100
0001
0100
1000
0100
0001
0000
,
0011
0110
1100
1001
,
1000
0100
0010
0100
1000
0100
0010
0000
,
0001
0010
0100
0010
0001
0010
0100
0000
,
1000
0001
0100
1000
0100
0001
0100
1000
,
0010
0100
0010
0000
0100
0000
0010
0100
0000
0000
0000
0000
1001
0000
0000
0000
,
0100
1000
0010
0000
0010
0001
0100
0000
,
1000
0100
0001
0100
1000
0000
1001
0000
,
1000
0010
0100
0000
0001
0100
0010
0000
,
0001
0010
1000
0010
0001
0000
1001
0000
,
1000
0010
0100
0000
0001
0100
0010
0000
,
1000
0100
0001
0100
1000
0000
1001
0000
,
0001
1000
0010
0000
1000
0001
0100
0000
,
0010
0001
0100
1000
0010
0000
1001
0000
,
0200
1000
0010
0301
,
0020
0001
0100
1030
,
0001
1000
0010
0100
0001
0000
1001
0000
,
1000
0001
0100
0010
1000
0000
1001
0000
,
0200
1000
0010
0301
,
0020
0001
0100
1030
,
0001
0100
0010
1000
0100
0000
1100
0000
,
0101
1100
2002
3003
,
0100
1000
0010
0000
0001
0000
1001
0000
,
0010
0001
0100
0000
1000
0000
1001
0000
,
0100
1000
0010
0000
0010
0001
0100
0000
,
2000
0000
0001
3001
,
0001
0100
1000
0000
1000
0100
0001
0000
,
0001
0010
1000
0000
1000
0010
0001
0000
,
1000
0010
1000
0010
0001
0100
0001
0100
,
0002
0000
0000
1000
0000
0000
1000
0000
2000
0000
0000
0000
3003
0000
0000
0000
,
0100
1000
0010
0001
1000
0000
1001
0000
,
0101
1100
0101
1001
,
0100
0001
0010
0100
1000
0000
0001
0000
,
1001
0110
2002
3003
,
0001
0100
1000
0010
0001
0000
1001
0000
,
0100
0000
1000
0000
0010
0000
0001
1000
,
0002
1000
0100
0013
,
2000
0001
0010
3100
,
0001
0100
1000
0010
0001
0000
1001
0000
,
0100
1000
0010
0000
0010
0001
0100
0000
,
0001
0100
1000
0010
0001
0000
1001
0000
,
0210
0010
0020
0330
,
0001
0100
1000
0010
0001
0000
1001
0000
,
1000
0010
0001
0100
1000
0000
1001
0000
,
0100
1000
0010
0000
0010
0001
0100
0000
,
0002
1000
1000
1003
,
0010
0100
0010
0000
1000
0001
1000
0000
,
0001
0100
1000
0010
0001
0000
1001
0000
,
1000
0010
1000
0000
0001
0100
0001
0000
,
0001
0100
1000
0010
0001
0000
1001
0000
,
1000
0000
0001
0000
1000
0000
0000
0010
0000
0010
0000
0010
0100
0000
0000
0000
,
0001
1000
0010
0100
0001
0000
1001
0000
,
1000
0000
0001
0000
1000
0000
0000
0100
0000
0100
0000
0100
0010
0000
0000
0000
,
0001
0100
1000
0010
0001
0000
1001
0000
,
0100
1000
0010
0100
0001
0100
0010
1000
,
0100
0000
0010
0000
0001
0000
0100
0000
1000
0000
0010
0000
0001
1000
0001
0000
,
1000
0010
0100
0001
0010
0100
1000
0010
,
1000
0000
0100
0000
0001
0000
0010
0000
0100
0000
1000
0000
0010
0100
0010
0000
,
0100
0001
1000
0100
0010
0100
0001
0010
,
0100
0000
1000
0000
0010
0000
0100
0000
0001
0000
1000
0000
0001
1000
0001
0000
,
1000
0010
0100
0001
0100
0010
1000
0001
,
1000
0001
1000
0000
0010
0000
0100
0010
0000
0000
0000
0010
0100
0000
0000
0000
;

//---------------dance-single - ----------------
#NOTES:
     dance-single:
     :
     Medium:
     8:
     0.431263,0.473321,0.260245,0.208196,0.000000,348.000000,318.000000,30.000000,24.000000,0.000000,0.000000,0.431263,0.473321,0.260245,0.208196,0.000000,348.000000,318.000000,30.000000,24.000000,0.000000,0.000000:
0000
0000
0000
0000
,
0000
0000
0000
0000
,
0000
0000
0000
0000
,
0000
0000
0000
0000
,
0000
0000
0000
0000
,
1000
0000
0100
0000
0010
0100
0010
0000
,
0001
0000
0010
0000
0100
0010
0100
0000
,
1000
0000
0001
0000
0100
1001
0100
0000
,
0002
0000
2000
3003
,
0100
0000
1000
0000
0010
0100
0010
0000
,
0001
0100
1000
1001
,
1000
0000
0010
0000
0001
1000
0001
0000
,
0100
0010
1000
1001
,
0100
0000
1000
0000
0010
0001
0010
0000
,
0001
0100
0010
1100
,
1000
0000
0001
0000
0100
1000
0100
0000
,
0010
1000
2002
3003
,
0100
0000
1000
0000
0010
0010
0010
0000
,
0001
0100
0010
1001
,
0010
0000
0001
0000
0100
0100
0100
0000
,
0001
1000
0010
0110
,
0001
0000
1000
0000
0100
0100
0100
0000
,
0001
1000
0010
1001
,
0010
0000
0001
0000
1000
1000
1000
0000
,
0100
0010
0100
0110
,
0200
1000
0010
0301
,
0020
0001
0100
1030
,
0001
1000
0001
0000
0100
0000
1001
0000
,
1000
0001
1000
0000
0010
0000
1001
0000
,
0200
1000
0010
0301
,
0020
0001
0100
1030
,
0001
1000
0001
0000
0100
0000
1001
0000
,
0020
0100
0200
0330
,
0001
0000
0100
0000
1000
0100
1000
0000
,
1000
0100
0010
0001
,
0100
0000
1000
0000
0010
0001
0010
0000
,
0001
0100
0010
1000
,
0002
1000
0100
0013
,
2000
0001
0010
3100
,
0001
1000
0010
0000
1000
0001
0100
0000
,
0020
0100
0200
0330
,
0001
0100
1000
0000
0001
0000
1001
0000
,
1000
0010
0001
0000
1000
0000
1001
0000
,
0100
1000
0010
0000
0010
0001
0100
0000
,
0002
1000
2000
3003
,
0100
1000
0010
0000
0001
0000
1001
0000
,
0010
0001
0100
0000
1000
0000
1001
0000
,
0200
1000
0010
0301
,
0010
0100
0010
0000
2002
0000
3003
0000
,
0001
0100
1000
0000
0010
0000
1001
0000
,
1000
1100
0101
1001
,
0001
0100
0010
0000
1000
0000
0001
0000
,
1000
0011
1010
1001
,
0100
1000
0010
0000
0001
0100
0010
0000
,
2000
0100
0001
3010
,
0001
0100
0010
0000
1000
0010
0100
0000
,
0002
1000
0010
0103
,
0001
0100
1000
0000
1000
0100
0001
0000
,
1000
0001
1000
1001
,
0001
0010
1000
0000
1000
0010
0001
0000
,
1000
0001
0100
0110
,
0001
0100
1000
0000
1000
0100
0001
0000
,
0001
1000
0001
1000
0001
0000
1001
0000
,
0001
0010
1000
0000
1000
0010
0001
0000
,
1000
0001
1000
0001
1000
0000
1001
0000
,
0200
1000
0010
0301
,
0010
0100
0010
0000
0001
1000
0001
0000
,
0020
0001
0100
1030
,
0001
1000
0001
0000
0100
0010
0100
0000
,
1000
0100
1000
0100
1000
0000
1001
0000
,
0001
0010
0001
0010
0001
0000
1001
0000
,
0100
0010
0100
0000
0001
1000
0001
0000
,
0020
0100
0100
0130
;

//---------------dance-single - ----------------
#NOTES:
     dance-single:
     :
     Easy:
     5:
     0.277595,0.315547,0.060724,0.399042,0.000000,224.000000,217.000000,7.000000,46.000000,0.000000,0.000000,0.277595,0.315547,0.060724,0.399042,0.000000,224.000000,217.000000,7.000000,46.000000,0.000000,0.000000:
0000
0000
0000
0000
,
0000
0000
0000
0000
,
0000
0000
0000
0000
,
0000
0000
0000
0000
,
0000
0000
0000
0000
,
1000
0100
2000
3000
,
0001
0010
0002
0003
,
0100
0010
0100
0010
,
2002
0000
0000
3003
,
0100
1000
0010
0001
,
1000
1000
2000
3000
,
0001
0010
1000
0100
,
0001
0001
0002
0003
,
0100
1000
0010
0001
,
0100
0100
0200
0300
,
0010
0001
0100
1000
,
0010
0010
0020
0030
,
1000
0100
0010
0000
,
0001
0010
0100
0000
,
1000
0100
0001
0000
,
0001
0010
1000
0000
,
1000
0010
0100
0000
,
0001
0100
0010
0000
,
1000
0001
0100
0000
,
0001
1000
0020
0030
,
0100
1000
0010
0000
,
0001
1000
0100
0000
,
0001
1000
0001
1000
,
0010
0100
0220
0330
,
0001
0100
0010
0000
,
1000
0010
0100
0000
,
0010
0100
0010
0100
,
0001
1000
2002
3003
,
0100
1000
0010
0000
,
0010
0001
0100
0000
,
0200
0000
2300
0000
,
3020
0000
0100
0130
,
0001
0100
0020
0030
,
1000
0010
0200
0300
,
1000
0010
0100
0001
,
0020
0100
0200
0330
,
0100
1000
0010
0100
,
0001
0010
0001
0000
,
0001
0010
0100
0010
,
0100
1000
0100
0000
,
1000
0100
0020
0030
,
0001
0010
0200
0300
,
2000
0000
3002
0000
,
1003
0100
0020
0130
,
0001
0010
0200
0300
,
1000
0100
0020
0030
,
0001
0100
1000
0010
,
0001
1000
2002
3003
,
0100
1000
0020
0030
,
0010
0001
0200
0300
,
1000
0010
0100
0001
,
2002
0000
0000
3003
,
0100
1000
0020
0030
,
0001
0100
0020
0030
,
1000
0100
0002
0003
,
0001
0010
2000
3000
,
0100
1000
0020
0030
,
0010
0001
0200
0300
,
0010
1000
0002
0003
,
0100
0001
2000
3000
,
0100
1000
0010
0001
,
1000
0001
2002
3003
,
0001
0010
1000
0100
,
0001
1000
2002
3003
,
0100
1000
0010
0001
,
0100
0010
0100
0010
,
0001
0100
0010
1000
,
0002
1000
1000
1003
;

//---------------dance-single - ----------------
#NOTES:
     dance-single:
     :
     Beginner:
     2:
     0.125165,0.157774,0.008675,0.017350,0.000000,101.000000,100.000000,1.000000,2.000000,0.000000,0.000000,0.125165,0.157774,0.008675,0.017350,0.000000,101.000000,100.000000,1.000000,2.000000,0.000000,0.000000:
// measure 0
0000
0000
0000
0000
,  // measure 1
0000
0000
0000
0000
,  // measure 2
0000
0000
0000
0000
,  // measure 3
0000
0000
0000
0000
,  // measure 4
0000
0000
0000
0000
,  // measure 5
1000
0000
1000
0000
,  // measure 6
0001
0000
0001
0000
,  // measure 7
1000
0000
1000
0000
,  // measure 8
0001
0000
0000
0000
,  // measure 9
0100
0000
0000
0000
,  // measure 10
1000
0000
1000
0000
,  // measure 11
0010
0000
0000
0000
,  // measure 12
0001
0000
0001
0000
,  // measure 13
0100
0000
0000
0000
,  // measure 14
1000
0000
1000
0000
,  // measure 15
0010
0000
0000
0000
,  // measure 16
0001
0000
0001
0000
,  // measure 17
1000
0000
0000
0000
,  // measure 18
0001
0000
0000
0000
,  // measure 19
1000
0000
0000
0000
,  // measure 20
0001
0000
0000
0000
,  // measure 21
0100
0000
0000
0000
,  // measure 22
0010
0000
0000
0000
,  // measure 23
0100
0000
0000
0000
,  // measure 24
0010
0000
0000
0000
,  // measure 25
1000
0000
0000
0000
,  // measure 26
0001
0000
0000
0000
,  // measure 27
1000
0000
0100
0000
,  // measure 28
0001
0000
0000
0000
,  // measure 29
0001
0000
0000
0000
,  // measure 30
1000
0000
0000
0000
,  // measure 31
0001
0000
0010
0000
,  // measure 32
1000
0000
0000
0000
,  // measure 33
1000
0000
0100
0000
,  // measure 34
1000
0000
0100
0000
,  // measure 35
0010
0000
0010
0000
,  // measure 36
0010
0000
0000
0000
,  // measure 37
0001
0000
0010
0000
,  // measure 38
0001
0000
0010
0000
,  // measure 39
0100
0000
0100
0000
,  // measure 40
0100
0000
0000
0000
,  // measure 41
1000
0000
0100
0000
,  // measure 42
0010
0000
0000
0000
,  // measure 43
0001
0000
0010
0000
,  // measure 44
0100
0000
0000
0000
,  // measure 45
1000
0000
0100
0000
,  // measure 46
0001
0000
0000
0000
,  // measure 47
0001
0000
0010
0000
,  // measure 48
1000
0000
0000
0000
,  // measure 49
0100
0000
1000
0000
,  // measure 50
0010
0000
0000
0000
,  // measure 51
0010
0000
0001
0000
,  // measure 52
0100
0000
0000
0000
,  // measure 53
0100
0000
1000
0000
,  // measure 54
0001
0000
0000
0000
,  // measure 55
0001
0000
1000
0000
,  // measure 56
0010
0000
0000
0000
,  // measure 57
0100
0000
1000
0000
,  // measure 58
0100
0000
0000
0000
,  // measure 59
0010
0000
0001
0000
,  // measure 60
0010
0000
0000
0000
,  // measure 61
1000
0000
0100
0000
,  // measure 62
0010
0000
0000
0000
,  // measure 63
0001
0000
0010
0000
,  // measure 64
0100
0000
0100
0000
,  // measure 65
0001
0000
0010
0000
,  // measure 66
0001
0000
0000
0000
,  // measure 67
1000
0000
0100
0000
,  // measure 68
1000
0000
0000
0000
,  // measure 69
0001
0000
0010
0000
,  // measure 70
0100
0000
0000
0000
,  // measure 71
1000
0000
0100
0000
,  // measure 72
0220
0000
0000
0330
;
