#TITLE:December in Strasbourg;
#SUBTITLE:;
#ARTIST:nana (Sevencolors) feat. mana;
#TITLETRANSLIT:;
#SUBTITLETRANSLIT:;
#ARTISTTRANSLIT:;
#GENRE:DANCERUSH;
#CREDIT:;
#BANNER:;
#BACKGROUND:;
#LYRICSPATH:;
#CDTITLE:;
#MUSIC:December in Strasbourg.ogg;
#OFFSET:-0.078000;
#SAMPLESTART:27.202044;
#SAMPLELENGTH:15.000000;
#SELECTABLE:YES;
#BPMS:0.000000=115.000000
;
#STOPS:
;
#BGCHANGES:;
#KEYSOUNDS:;
#ATTACKS:;

//---------------dance-single - ----------------
#NOTES:
     dance-single:
     :
     Hard:
     12:
     0.486853,0.492528,0.162740,0.277616,0.172313,356.000000,339.000000,17.000000,29.000000,0.000000,0.000000,0.486853,0.492528,0.162740,0.277616,0.172313,356.000000,339.000000,17.000000,29.000000,0.000000,0.000000:
// measure 0
0000
0000
0000
0000
,  // measure 1
0000
0000
0000
0000
,  // measure 2
0000
0000
0000
0000
,  // measure 3
0000
0000
0000
0000
,  // measure 4
0000
0000
0000
0000
,  // measure 5
1000
0100
2000
0000
3100
0000
0001
0100
,  // measure 6
0001
0010
0002
0000
0013
0000
0100
0010
,  // measure 7
1000
0001
0200
0000
0310
0000
0001
0100
,  // measure 8
0010
1000
0001
0000
2000
0000
3001
0000
,  // measure 9
0010
0000
1000
0000
0010
0000
0100
0000
0001
0000
0100
0000
0010
0100
1000
0000
,  // measure 10
0001
0000
0100
0000
0010
0000
1000
0000
0001
0000
0010
0000
0100
0010
0001
0000
,  // measure 11
0001
0100
1000
0100
0001
0010
1000
0010
,  // measure 12
1001
0000
0000
0110
0000
0000
2002
0000
0000
0000
0000
0000
3003
0000
0000
0000
,  // measure 13
0100
0000
1000
0000
0010
0100
0001
0000
0100
0000
0010
0000
1000
0000
0001
0000
,  // measure 14
0100
0000
0010
0000
1000
0010
0100
0000
0001
0000
0100
0000
0010
0000
1000
0000
,  // measure 15
0100
0000
0010
0000
0001
0100
1000
0000
0010
0000
0100
0000
1000
0010
0001
0000
,  // measure 16
0000
0000
1001
0000
0000
1100
0000
0000
1001
0000
0000
0000
0110
0000
0000
0000
,  // measure 17
0001
0000
0100
0000
0010
0000
1000
0000
0010
0000
0100
0000
0001
0100
0010
0000
,  // measure 18
1000
0000
0010
0000
0100
0000
0001
0000
0100
0000
0010
0000
1000
0010
0100
0000
,  // measure 19
0001
0000
0100
0000
1000
0000
0010
0000
0001
0000
0100
0000
0001
1000
0010
0000
,  // measure 20
0000
0000
1001
0000
0000
0011
0000
0000
1001
0000
0000
0000
0110
0000
0000
0000
,  // measure 21
1100
0000
1000
0000
0010
0000
0100
0000
0001
0000
0100
0000
0010
0100
0010
0000
,  // measure 22
0001
0000
1000
0000
0010
0000
0100
0000
0010
0000
1000
0000
0001
1000
0001
1000
,  // measure 23
0001
0000
0010
0000
1000
0000
0100
0000
0010
0000
0001
0000
0100
0010
0100
0000
,  // measure 24
0010
0000
0001
0000
1000
0000
0010
0000
0100
0000
0001
0000
1000
0001
1000
0001
,  // measure 25
1000
0100
1000
0100
0010
0001
0010
0001
,  // measure 26
0100
0010
0100
0010
0001
1000
0001
1000
,  // measure 27
0001
0100
0010
0000
1000
0010
0100
0000
1000
0010
0001
0000
0001
0010
1000
0000
,  // measure 28
0002
1000
0100
0013
,  // measure 29
0101
0000
0100
0000
1000
0000
0010
0000
1000
0001
0100
0000
0020
0000
0130
0000
,  // measure 30
0001
0000
1000
0000
0010
0000
0100
0000
0001
1000
0010
0000
0100
0000
1000
0000
,  // measure 31
0010
0100
0020
0130
0001
1000
0100
0010
,  // measure 32
1000
0001
2000
3001
0010
1000
0100
0010
,  // measure 33
0001
0000
0100
0000
1000
0000
0010
0000
1000
0001
0100
0000
0020
0000
0130
0000
,  // measure 34
0001
0000
0100
0000
1000
0000
0010
0000
0100
0010
1000
0000
0010
0000
0100
0000
,  // measure 35
0001
0100
1000
0010
1000
0001
0200
0310
,  // measure 36
1000
0100
0001
0000
0100
0000
0010
0000
2002
0000
3003
0000
0220
0000
0330
0000
,  // measure 37
0001
0000
0100
0000
1000
0000
0010
0000
1000
0001
0100
0000
0002
0000
0103
0000
,  // measure 38
0010
0000
1000
0000
0100
0000
0001
0000
1000
0010
0100
0000
2000
0000
3010
0000
,  // measure 39
0001
0100
2000
3100
1000
0010
0002
0013
,  // measure 40
0100
0010
0001
1000
0010
0100
0002
1003
,  // measure 41
0010
0100
1000
0010
0200
0310
2000
3001
,  // measure 42
0100
0010
1000
0001
0020
0130
0002
1003
,  // measure 43
0100
0000
0010
0000
0100
0000
0001
0000
1000
0000
0010
0000
0100
0001
1000
0001
,  // measure 44
0100
0000
0010
0000
1000
0000
0001
0000
0010
0000
0100
0000
0010
1000
0001
1000
,  // measure 45
0020
0000
0000
0000
1000
0000
0000
0000
0100
0000
0000
0000
0031
0000
0000
1001
,  // measure 46
0000
0000
0000
0000
0001
0000
0010
0000
0100
0000
0000
1000
0100
0010
0001
0000
,  // measure 47
0200
0001
0010
1300
,  // measure 48
2002
0000
0000
0000
,  // measure 49
3003
0000
0000
0000
;

//---------------dance-single - ----------------
#NOTES:
     dance-single:
     :
     Medium:
     8:
     0.306334,0.351806,0.172313,0.143594,0.009573,224.000000,206.000000,18.000000,15.000000,0.000000,0.000000,0.306334,0.351806,0.172313,0.143594,0.009573,224.000000,206.000000,18.000000,15.000000,0.000000,0.000000:
0000
0000
0000
0000
,
0000
0000
0000
0000
,
0000
0000
0000
0000
,
0000
0000
0000
0000
,
0000
0000
0000
0000
,
1000
0100
0010
0000
0001
0000
1001
0000
,
0001
0010
0100
0000
1000
0000
1001
0000
,
0100
0010
1000
1001
,
0010
0100
0001
1001
,
0100
1000
0010
0000
0001
0000
1001
0000
,
0010
0001
0100
0000
1000
0000
1001
0000
,
0100
1000
0010
0000
0010
0001
0100
0000
,
0020
0100
0001
1030
,
0100
0000
1000
0000
0010
0010
0100
0000
,
0001
1000
0010
0110
,
0001
0000
1000
0000
0100
0100
0010
0000
,
0000
0000
0001
0000
0000
1000
0000
0000
1001
0000
0000
0000
0100
0000
0000
0000
,
0010
0000
1000
0000
0001
0001
1000
0000
,
0100
0000
0010
0000
1000
0000
0001
1000
,
0010
0000
1000
0000
0010
0010
0100
0000
,
0000
0000
0001
0000
0000
1000
0000
0000
1001
0000
0000
0000
0100
0000
0000
0000
,
0020
1000
0100
0031
,
0200
0001
0010
1300
,
0020
1000
0001
0130
,
0200
0001
1000
0310
,
0010
1000
0001
0000
0001
1000
0100
0000
,
0010
0100
1000
0000
0100
0010
0001
0000
,
0100
0010
1000
0000
0010
0100
0001
0000
,
2000
0001
0001
3001
,
0100
1000
0010
0000
0001
0000
1001
0000
,
0010
0001
0100
0000
1000
0000
1001
0000
,
0200
1000
0010
0310
,
0020
0001
0100
0130
,
1000
0000
0010
0000
0100
0001
0100
0000
,
0001
0000
0010
0000
0100
1000
0100
0000
,
0020
1000
0100
0031
,
0200
0001
0010
1300
,
0001
1000
0010
0000
0001
0000
1001
0000
,
0100
0001
1000
0000
0100
0000
1001
0000
,
0100
0010
1000
0000
0010
0100
0001
0000
,
0100
1000
0010
0001
0100
0000
1001
0000
,
0010
1000
0001
0000
0100
0000
1001
0000
,
0010
1000
0001
0000
0100
0000
1001
0000
,
0100
1000
0010
0000
0010
0001
0100
0000
,
1000
0010
0100
0001
1000
0000
1001
0000
,
0200
1000
0010
0301
,
0020
0001
0100
1030
,
0200
1000
0001
0310
,
0220
0000
0000
0000
,
0330
0000
0000
0000
;

//---------------dance-single - ----------------
#NOTES:
     dance-single:
     :
     Easy:
     5:
     0.195562,0.257991,0.038292,0.315907,0.000000,143.000000,139.000000,4.000000,33.000000,0.000000,0.000000,0.195562,0.257991,0.038292,0.315907,0.000000,143.000000,139.000000,4.000000,33.000000,0.000000,0.000000:
0000
0000
0000
0000
,
0000
0000
0000
0000
,
0000
0000
0000
0000
,
0000
0000
0000
0000
,
0000
0000
0000
0000
,
2000
0000
0001
3001
,
0002
0000
1000
1003
,
1000
0100
0020
0030
,
0001
0010
0200
0300
,
1000
0100
0001
0010
,
0001
0010
1000
0100
,
2000
0000
3002
0000
,
0103
0100
0220
0330
,
0100
1000
0010
0001
,
2000
0000
0001
3001
,
0001
0100
0010
1000
,
0002
0000
1000
1003
,
0100
1000
0010
0001
,
0200
0000
0010
0310
,
0001
1000
0010
0100
,
0002
0000
2000
3003
,
0200
0000
0010
0310
,
0002
0000
1000
1003
,
2000
0000
0100
3100
,
0002
0000
0010
0013
,
0200
0000
1000
1000
,
0320
0000
0001
0001
,
0130
1000
0010
0001
,
2002
0000
0000
3003
,
0100
1000
0010
0001
,
0200
0010
1000
0310
,
0001
0100
0010
1000
,
0020
0100
0001
0130
,
0001
0100
1000
1001
,
1000
0010
0001
1001
,
0200
0000
1000
0301
,
0020
0000
0001
1030
,
0100
1000
0001
0010
,
1000
0100
0001
0010
,
0200
0000
0001
0301
,
0020
0000
1000
1030
,
0100
1000
0010
0001
,
0100
1000
0001
0010
,
2000
0000
3002
0000
,
0203
0010
0310
0000
,
0020
0000
1000
0000
,
0001
0000
0130
0000
,
0200
0000
0001
0000
,
2000
0000
0000
0000
,
3300
0000
0000
0000
;

//---------------dance-single - ----------------
#NOTES:
     dance-single:
     :
     Beginner:
     2:
     0.087524,0.117269,0.000000,0.086157,0.000000,64.000000,64.000000,0.000000,9.000000,0.000000,0.000000,0.087524,0.117269,0.000000,0.086157,0.000000,64.000000,64.000000,0.000000,9.000000,0.000000,0.000000:
0000
0000
0000
0000
,
0000
0000
0000
0000
,
0000
0000
0000
0000
,
0000
0000
0000
0000
,
0000
0000
0000
0000
,
1000
0000
0100
0000
,
1000
0000
0100
0000
,
0001
0000
0010
0000
,
0001
0000
0010
0000
,
2000
0000
0000
0000
,
3002
0000
0000
0000
,
2003
0000
0000
0000
,
3002
0000
0000
0000
,
1003
0000
0100
0000
,
0010
0000
0000
0000
,
0001
0000
0010
0000
,
0100
0000
0000
0000
,
1000
0000
0100
0000
,
0001
0000
0000
0000
,
0001
0000
0010
0000
,
1000
0000
0000
0000
,
0100
0000
1000
0000
,
0010
0000
0000
0000
,
0010
0000
0001
0000
,
0100
0000
0000
0000
,
1000
0000
0100
0000
,
0001
0000
0000
0000
,
0001
0000
0010
0000
,
2000
0000
3000
0000
,
0100
0000
1000
0000
,
0010
0000
0000
0000
,
0010
0000
0001
0000
,
0100
0000
0000
0000
,
1000
0000
0100
0000
,
0001
0000
0000
0000
,
0001
0000
0010
0000
,
1000
0000
0000
0000
,
0010
0000
1000
0000
,
0001
0000
0000
0000
,
0100
0000
0001
0000
,
1000
0000
0000
0000
,
0100
0000
0010
0000
,
1000
0000
0000
0000
,
0010
0000
0100
0000
,
0001
0000
0000
0000
,
2000
0000
0000
0000
,
3002
0000
0000
0000
,
0203
0000
0000
0000
,
0320
0000
0000
0000
,
0030
0000
0000
0000
;
