#TITLE:DAWN OF FALCON;
#SUBTITLE:;
#ARTIST:L.E.D.-G;
#TITLETRANSLIT:;
#SUBTITLETRANSLIT:;
#ARTISTTRANSLIT:;
#GENRE:REFLEC BEAT;
#CREDIT:;
#BANNER:;
#BACKGROUND:;
#LYRICSPATH:;
#CDTITLE:;
#MUSIC:DAWN OF FALCON.ogg;
#OFFSET:-0.680000;
#SAMPLESTART:42.488098;
#SAMPLELENGTH:15.000000;
#SELECTABLE:YES;
#DISPLAYBPM:155.000000;
#BPMS:0.000000=155.000000
;
#STOPS:
;
#BGCHANGES:;
#KEYSOUNDS:;
#ATTACKS:;

//---------------dance-single - ----------------
#NOTES:
     dance-single:
     :
     Beginner:
     2:
     0.126209,0.119580,0.071391,0.000000,0.000000,91.000000,8.000000,0.000000,0.000000,0.000000,0.000000,0.126209,0.119580,0.071391,0.000000,0.000000,91.000000,8.000000,0.000000,0.000000,0.000000,0.000000:
0000
0000
0000
0000
,
0000
0000
0000
0000
,
0000
0000
0000
0000
,
0000
0000
0000
0000
,
0000
0000
0000
0000
,
1000
0000
0010
0000
,
0001
0000
0001
0000
,
0010
0000
0100
0000
,
1000
0000
1000
0000
,
1001
0000
0000
0000
,
0010
0000
0010
0000
,
0110
0000
0000
0000
,
1000
0000
1000
0000
,
1001
0000
0000
0000
,
0100
0000
0100
0000
,
0110
0000
0000
0000
,
0001
0000
0001
0000
,
1001
0000
0000
0000
,
0000
0000
0000
0000
,
1000
0000
0100
0000
,
1000
0000
0000
0000
,
0001
0000
0100
0000
,
0001
0000
0000
0000
,
1000
0000
0010
0000
,
1000
0000
0000
0000
,
0001
0000
0010
0000
,
0001
0000
0000
0000
,
1001
0000
0000
0000
,
0100
0000
1000
0000
,
0010
0000
0000
0000
,
0100
0000
0001
0000
,
0010
0000
0000
0000
,
1000
0000
0001
0000
,
0100
0000
0000
0000
,
0001
0000
1000
0000
,
0010
0000
0000
0000
,
1000
0000
0100
0000
,
0010
0000
0000
0000
,
0001
0000
0010
0000
,
0100
0000
0000
0000
,
1000
0000
0000
0000
,
0001
0000
0000
0000
,
0010
0000
0000
0000
,
1001
0000
0000
0000
,
0000
0000
0000
0000
,
0000
0000
0000
0000
,
0000
0000
0000
0000
,
0100
0000
0000
0000
,
1000
0000
0000
0000
,
0010
0000
0000
0000
,
0001
0000
0000
0000
,
1000
0000
0100
0000
,
1000
0000
0100
0000
,
0001
0000
0100
0000
,
0001
0000
0100
0000
,
1000
0000
0010
0000
,
1000
0000
0010
0000
,
0001
0000
0010
0000
,
0001
0000
0000
0000
,
1000
0000
0100
0000
,
0010
0000
0001
0000
,
1000
0000
0010
0000
,
0100
0000
0001
0000
,
0001
0000
0010
0000
,
0100
0000
1000
0000
,
0001
0000
0100
0000
,
0010
0000
0000
0000
,
1001
0000
0000
0000
;

//---------------dance-single - ----------------
#NOTES:
     dance-single:
     :
     Easy:
     5:
     0.291938,0.303412,0.142782,0.169554,0.000000,194.000000,16.000000,19.000000,0.000000,0.000000,0.000000,0.291938,0.303412,0.142782,0.169554,0.000000,194.000000,16.000000,19.000000,0.000000,0.000000,0.000000:
0000
0000
0000
0000
,
0000
0000
0000
0000
,
0000
0000
0000
0000
,
0000
0000
0000
0000
,
0000
0000
0000
0000
,
1000
0100
0010
0100
,
1000
0000
1000
0000
,
0001
0010
0100
0010
,
0001
0000
0001
0000
,
1000
0100
0010
0100
,
1000
0100
0010
0000
,
0001
0010
0100
0010
,
0001
0010
0100
0000
,
1000
0100
0001
0100
,
1000
0100
0001
0100
,
1000
1000
0001
0001
,
0010
0010
0100
0010
,
0200
0000
0000
0000
,
0300
0000
0000
0000
,
1000
0100
1000
0100
,
0001
0100
0101
0000
,
0001
0010
0001
0010
,
1010
1000
1100
0000
,
0001
1000
0100
0001
,
0010
1000
1100
0000
,
0001
0100
1000
0000
,
0010
0000
0100
0000
,
1001
0001
0001
1000
,
0020
0000
0130
0100
,
1000
0001
1000
0100
,
0020
0000
0130
0001
,
1100
1000
0001
0100
,
0020
0000
0130
0001
,
1000
0010
0100
0001
,
1000
0010
0110
0110
,
0001
0010
1000
0100
,
0020
0000
0130
0001
,
1000
0010
0100
0001
,
0200
0000
0310
0010
,
1000
0001
0010
1000
,
0100
0001
0010
0100
,
0001
0100
1000
0010
,
1000
0100
0010
0001
,
2002
0000
0000
0000
,
0000
0000
0000
0003
,
0200
0000
0000
3000
,
0020
0000
0000
0300
,
0002
0000
0000
0000
,
0000
0000
0000
0030
,
2000
0000
0000
0003
,
0200
0000
0000
3300
,
0001
0100
0001
0100
,
1000
0100
1000
0100
,
0001
0100
0001
0100
,
1000
0100
1000
0100
,
0001
0010
0001
0010
,
1000
0010
1000
0010
,
0001
0010
0001
0010
,
0220
0000
0330
0000
,
0001
1000
0100
0010
,
0100
1100
0100
0101
,
0001
0010
1000
0100
,
0001
0011
0010
1010
,
1000
0100
0001
0010
,
1000
0100
0001
0010
,
1000
1000
0001
0001
,
0220
0000
0330
0001
,
2002
0000
0000
0000
,
3003
0000
0000
0000
;

//---------------dance-single - ----------------
#NOTES:
     dance-single:
     :
     Medium:
     8:
     0.396475,0.394435,0.196325,0.098163,0.066929,278.000000,22.000000,11.000000,0.000000,0.000000,0.000000,0.396475,0.394435,0.196325,0.098163,0.066929,278.000000,22.000000,11.000000,0.000000,0.000000,0.000000:
0000
0000
0000
0000
,
0000
0000
0000
0000
,
0000
0000
0000
0000
,
0000
0000
0000
0000
,
0000
0000
0000
0000
,
1000
0000
0100
0000
0010
0100
0010
0000
,
0001
0100
1000
0100
,
0001
0000
0010
0000
0100
0010
0100
0000
,
0001
1000
0100
0010
,
0101
0000
0001
0000
0001
0000
0100
0010
,
1000
1000
0010
0100
,
1001
0000
0100
0000
0100
0000
0001
1000
,
0010
1000
0100
0010
,
1100
0000
0100
0000
0010
0000
0100
0001
,
1000
0010
0100
0001
,
0011
0001
1000
0010
,
1000
0100
0010
0001
0200
0000
0310
0000
,
0220
0000
0000
0000
,
0000
0000
0000
0330
,
0001
0100
1000
0100
,
0010
1000
0010
0000
0001
0000
1001
0000
,
0100
0010
1000
0100
,
0001
0100
0001
0000
1001
0000
0000
0000
,
0110
1000
0010
0001
,
1000
0010
0100
0000
0001
0000
1000
0000
,
0001
0010
1000
0100
0010
0000
0100
0000
,
2002
0000
0000
3003
,
0001
0010
1000
0100
,
0010
1000
0010
0000
0001
1000
0001
0000
,
0010
1000
0100
0001
,
0100
0001
0100
0000
0001
1000
0001
0000
,
0010
1000
0100
0001
,
0010
1000
0100
0000
0010
0100
0001
0000
,
0001
0010
0100
0000
1100
0000
0100
0000
,
0101
0001
2002
3003
,
0010
0010
1000
0000
0001
0000
0010
0000
,
1000
0001
1000
0100
,
0001
0001
0100
0000
0010
0000
1000
0000
,
0001
0000
0010
0000
1000
0001
0100
0000
,
1000
1000
0100
0010
0100
0001
0010
0000
,
0001
0001
0010
0100
0010
1000
0100
0000
,
1000
0100
0010
0000
0010
0100
0001
0000
,
1001
0000
1001
0000
0010
0100
0010
0000
,
1000
0100
1000
0100
,
0001
0100
0001
0100
,
1000
0010
1000
0010
,
0001
0010
0001
0010
,
1000
0100
0010
0001
,
1000
0000
0000
0010
0000
0000
0100
0000
0000
0001
0000
0100
,
0001
0010
1000
0010
,
0100
0000
0000
0001
0000
0000
0010
0000
0000
0100
0000
1000
,
0100
0010
0100
0010
,
1000
1100
0100
0101
,
0001
0010
1000
0100
,
0010
0011
0010
1010
,
0001
0000
0000
1000
0000
0000
0010
0000
0000
1000
0000
0001
,
1000
0000
0000
0010
0000
0000
1000
0000
0000
0100
0000
1000
,
0001
0000
0000
0010
0000
0000
1000
0000
0100
0000
0010
0000
,
0002
0000
0000
0000
0000
0000
0100
0003
0000
0100
0000
0000
,
0010
0000
0000
1000
0000
0000
0001
0000
0000
0010
0000
1000
,
0010
0000
0000
0001
0000
0000
0010
0000
1000
0001
0000
1000
,
0001
0010
1000
0001
,
0100
0000
0000
0001
0000
0000
0100
0000
1001
0000
0001
0000
,
0110
0010
1000
0100
,
1010
0001
1000
0100
,
0101
0000
0000
0001
0000
0010
0000
0000
1000
0100
0000
0000
,
0020
0000
0000
0000
0000
0000
0130
0000
0000
1000
0100
2000
,
0002
0000
0000
0000
,
3003
0000
0000
0000
;

//---------------dance-single - ----------------
#NOTES:
     dance-single:
     :
     Hard:
     12:
     0.516310,0.546141,0.258792,0.071391,0.298950,368.000000,29.000000,8.000000,0.000000,0.000000,0.000000,0.516310,0.546141,0.258792,0.071391,0.298950,368.000000,29.000000,8.000000,0.000000,0.000000,0.000000:
// measure 0
0000
0000
0000
0000
,  // measure 1
0000
0000
0000
0000
,  // measure 2
0000
0000
0000
0000
,  // measure 3
0000
0000
0000
0000
,  // measure 4
0000
0000
0000
0000
,  // measure 5
1000
0000
0100
0000
0010
0000
0001
0100
,  // measure 6
0000
0010
0000
1000
0000
0100
0000
0001
,  // measure 7
0010
0000
1000
0000
0010
0000
1000
0100
,  // measure 8
0000
0010
0000
0100
0000
0001
1000
0010
,  // measure 9
0100
0000
1100
0000
0100
0000
0001
0100
,  // measure 10
1000
0000
0010
1000
0000
1000
0100
0010
,  // measure 11
0001
0000
0101
0000
0001
0000
0001
1000
,  // measure 12
0010
0000
0001
0100
0000
0001
0010
0100
,  // measure 13
1000
0000
1100
0000
0010
0000
1000
0010
,  // measure 14
0100
0000
0001
0010
0000
0010
0100
1000
,  // measure 15
0010
1000
0100
0000
0010
0100
0001
0000
,  // measure 16
0001
0010
1000
0100
0010
0100
0001
0010
,  // measure 17
0200
0000
0000
0000
,  // measure 18
2300
0000
0000
0000
,  // measure 19
3001
0000
0001
0000
0010
1000
0100
0010
,  // measure 20
0001
0000
0001
0000
0001
1000
0010
0100
,  // measure 21
0100
0000
0001
0000
0010
1000
0001
0010
,  // measure 22
0100
1000
1100
1000
,  // measure 23
0100
0000
0001
0010
1000
0100
0010
0000
,  // measure 24
0001
0000
1000
0001
0100
0001
0010
0000
,  // measure 25
0001
0000
1000
0010
1000
0100
0001
0010
,  // measure 26
0200
0000
0000
0000
0000
0000
0000
0000
0000
0000
0000
0300
0010
0000
0000
0000
,  // measure 27
0001
1000
0010
1000
0100
0000
1001
0000
,  // measure 28
0100
0001
0010
1000
0100
0000
1001
0000
,  // measure 29
0001
0100
0010
1000
0100
0000
1100
0000
,  // measure 30
0010
1000
0010
0100
0001
0000
0101
0000
,  // measure 31
0001
0010
1000
0100
0010
0000
1001
0000
,  // measure 32
0001
1000
0010
0100
0001
0000
0110
0000
,  // measure 33
0001
0010
1000
0100
0010
0100
0001
0000
,  // measure 34
0101
1100
1001
0010
,  // measure 35
0001
0010
1000
0100
0010
0100
0001
0010
,  // measure 36
0000
0000
1001
0000
0000
0000
1000
0000
0000
0000
0100
0000
0010
0000
0001
1000
,  // measure 37
0001
0010
1000
0100
0010
0100
0001
0010
,  // measure 38
0000
0000
1001
0000
0000
0000
1000
0000
0000
0000
0010
0000
0001
0000
1000
0001
,  // measure 39
1000
0010
1000
0100
0010
0001
0010
0100
,  // measure 40
1000
0000
0010
0000
1000
0000
0100
0000
0010
0000
0001
0000
0010
0000
1000
0010
,  // measure 41
1000
0000
0010
0000
0100
0000
0001
0000
0010
0000
0000
1001
0000
0000
0001
1000
,  // measure 42
0001
0000
0000
0100
0000
0000
0001
0000
1100
0000
0000
0110
0000
0000
0001
0010
,  // measure 43
1000
0010
1000
0001
,  // measure 44
0010
0000
0000
0100
0000
0000
0001
0000
1000
0001
0000
0001
,  // measure 45
0010
0000
0000
0010
0000
0000
1000
0000
0000
0010
0000
0001
,  // measure 46
0010
0000
0000
1000
0000
0000
0010
0100
1000
0100
0010
0001
,  // measure 47
0010
0001
0010
1000
,  // measure 48
0100
0000
0000
0010
0000
0000
1000
0000
1000
0100
0000
1000
,  // measure 49
0010
0000
0000
0001
0000
0000
0010
0000
0000
0001
0000
1000
,  // measure 50
0100
0000
0000
0010
0000
0000
0100
0010
0001
0010
0100
1000
,  // measure 51
0100
0000
0000
0001
0000
0100
0010
0000
0010
0001
0000
0001
,  // measure 52
1000
0000
0000
0010
0000
0000
1000
0000
0001
0010
0000
0010
,  // measure 53
1000
0000
0000
0010
0000
0001
0010
0000
0010
1000
0000
1000
,  // measure 54
0010
0000
0000
0001
0000
0000
0010
0000
1000
0100
0000
0100
,  // measure 55
0001
0010
1001
0010
,  // measure 56
1000
1100
0001
0101
,  // measure 57
0001
0010
0100
1000
0100
0010
0001
0000
0010
0000
0100
0000
,  // measure 58
2002
0000
3003
0110
,  // measure 59
0001
0000
0010
0100
0000
0100
1000
0000
0000
0110
0000
0000
,  // measure 60
1000
0000
1000
0100
0000
0100
0010
0001
0010
0100
1000
0100
,  // measure 61
0010
0000
0010
0100
0000
0100
1000
0000
0000
0110
0000
0000
,  // measure 62
1000
0000
1000
0100
0000
0100
0011
0000
0110
0000
1000
0100
,  // measure 63
1000
0000
1000
0010
0000
0010
0100
0000
0100
0001
0000
0001
,  // measure 64
1000
0000
1000
0100
0000
0100
0010
0000
0010
0001
0000
0000
,  // measure 65
0001
0000
0100
1000
0000
0110
0000
0000
0001
0010
0000
0000
,  // measure 66
2002
0000
0000
3003
0000
0000
0010
0100
1000
0100
0001
0010
,  // measure 67
2000
0000
0000
0000
,  // measure 68
3000
0000
0000
0000
;
