#TITLE:Cry Baby;
#SUBTITLE:;
#ARTIST:Official髭男dism (From 東京卍リベンジャーズ);
#TITLETRANSLIT:;
#SUBTITLETRANSLIT:;
#ARTISTTRANSLIT:;
#GENRE:Anime/Game;
#CREDIT:;
#BANNER:;
#BACKGROUND:;
#LYRICSPATH:;
#CDTITLE:;
#MUSIC:Cry Baby.ogg;
#OFFSET:1.159000;
#SAMPLESTART:42.036453;
#SAMPLELENGTH:15.000000;
#LASTBEATHINT:0.183263;
#SELECTABLE:YES;
#BPMS:0.000000=100.000000
;
#STOPS:
;
#BGCHANGES:5.500=Cry Baby.avi=1.000=0=0=0=StretchNoLoop====,
99999=-nosongbg-=1.000=0=0=0 // don't automatically add -songbackground-
;
#KEYSOUNDS:;
#ATTACKS:;

//---------------dance-single - ----------------
#NOTES:
     dance-single:
     :
     Easy:
     3:
     0.161732,0.225347,0.064693,0.291118,0.000000,105.000000,99.000000,6.000000,27.000000,0.000000,0.000000,0.161732,0.225347,0.064693,0.291118,0.000000,105.000000,99.000000,6.000000,27.000000,0.000000,0.000000:
0000
0000
0000
0000
,
0000
0000
0000
0000
,
0000
0000
0000
0000
,
0000
0000
0000
0000
,
1000
0000
0100
0000
,
0020
0000
0030
0000
,
0001
0000
0010
0000
,
0200
0000
0300
0000
,
1000
0000
0001
0000
,
1000
0000
0001
0001
,
0200
0000
1300
0010
,
0002
0000
1003
0100
,
0020
0000
0031
0100
,
2000
0000
0001
3001
,
0100
1000
0020
0030
,
0100
0001
0020
0030
,
0100
1000
0010
0001
,
1000
0001
2002
3003
,
0100
1000
0020
0030
,
0001
0100
0020
0030
,
2000
0000
3001
0000
,
0002
0000
1003
0100
,
0010
0010
0220
0330
,
0100
0100
0220
0330
,
1000
0100
0010
0001
,
2000
0000
0001
3001
,
0001
0100
0020
0030
,
1000
0010
0200
0300
,
1000
0100
0110
0001
,
0001
0010
0110
1000
,
0200
0000
1300
0010
,
0002
0000
1003
0100
,
0020
0000
0031
0100
,
2000
0000
0001
3001
,
0100
1000
0010
0010
,
0100
0001
0010
0010
,
1000
0001
1000
0001
,
2002
0000
0000
0000
,
3003
0000
0000
0000
;

//---------------dance-single - ----------------
#NOTES:
     dance-single:
     :
     Beginner:
     1:
     0.067773,0.099735,0.021564,0.043129,0.000000,44.000000,42.000000,2.000000,4.000000,0.000000,0.000000,0.067773,0.099735,0.021564,0.043129,0.000000,44.000000,42.000000,2.000000,4.000000,0.000000,0.000000:
0000
0000
0000
0000
,
0000
0000
0000
0000
,
0000
0000
0000
0000
,
0000
0000
0000
0000
,
0000
0000
0000
0000
,
0000
0000
0000
0000
,
1000
0000
0100
0000
,
1000
0000
0000
0000
,
0001
0000
0010
0000
,
0001
0000
0000
0000
,
1000
0000
0001
0000
,
1000
0000
0000
0000
,
0001
0000
1000
0000
,
0001
0000
0000
0000
,
0100
0000
0010
0000
,
0100
0000
0000
0000
,
0010
0000
0100
0000
,
0010
0000
0000
0000
,
1000
0000
0000
0000
,
0100
0000
0100
0000
,
0010
0000
0000
0000
,
0010
0000
0010
0000
,
0001
0000
0000
0000
,
0001
0000
0001
0000
,
1000
0000
0000
0000
,
1000
0000
1000
0000
,
0100
0000
1000
0000
,
0100
0000
0000
0000
,
0010
0000
0001
0000
,
0010
0000
0000
0000
,
1000
0000
0000
0000
,
0001
0000
0000
0000
,
0100
0000
0000
0000
,
0010
0000
0000
0000
,
2002
0000
0000
0000
,
3003
0000
0000
0000
,
0220
0000
0000
0000
,
0330
0000
0000
0000
;

//---------------dance-single - ----------------
#NOTES:
     dance-single:
     :
     Medium:
     6:
     0.241828,0.286805,0.118603,0.183296,0.000000,157.000000,146.000000,11.000000,17.000000,0.000000,0.000000,0.241828,0.286805,0.118603,0.183296,0.000000,157.000000,146.000000,11.000000,17.000000,0.000000,0.000000:
0000
0000
0000
0000
,
0000
0000
0000
0000
,
0000
0000
0000
0000
,
0000
0000
0000
0000
,
1000
0100
0001
0010
,
0100
0010
0220
0330
,
0001
0100
1000
0010
,
1000
0100
0001
0010
,
1000
0001
0100
0010
,
0200
1000
0010
0301
,
0020
0000
0000
0100
0130
0000
0001
0000
,
2000
0000
0000
0001
3001
0000
0100
0000
,
0010
1000
0010
0100
,
0002
0000
0000
0000
1000
1000
1003
0000
,
0100
1000
0010
0010
,
0100
0001
0010
0010
,
1000
0100
1000
0000
0001
0010
0001
0000
,
0200
0010
1000
0301
,
0100
1000
0010
0001
0000
0000
1001
0000
,
0001
0010
1000
0100
0000
0000
1001
0000
,
0200
1000
0301
0020
,
0031
0200
1300
0010
,
0110
0001
0100
0000
1000
0000
0010
0000
,
0110
1000
0100
0000
0001
0000
1001
0000
,
0100
1000
0010
0000
0010
0001
0100
0000
,
2000
0000
0001
3001
,
0001
1000
0001
0000
0100
0000
0010
0000
,
1000
0001
1000
0000
0010
0000
0100
0000
,
2000
0000
0001
3000
0020
0000
0130
0000
,
0001
0100
1000
0110
,
1000
0100
0001
0010
,
0100
0001
1000
0000
0010
1000
0001
0000
,
0200
1000
0010
0301
,
0020
0001
0100
1030
,
1000
0100
0010
0000
1000
0000
1010
0000
,
0001
0010
0100
0000
0001
0000
0101
0000
,
0100
1000
0010
0000
0001
0000
1001
0000
,
0220
0000
0000
0000
,
0330
0000
0000
0000
;

//---------------dance-single - ----------------
#NOTES:
     dance-single:
     :
     Hard:
     9:
     0.378915,0.389235,0.107821,0.140168,0.097039,246.000000,236.000000,10.000000,13.000000,0.000000,0.000000,0.378915,0.389235,0.107821,0.140168,0.097039,246.000000,236.000000,10.000000,13.000000,0.000000,0.000000:
// measure 0
0000
0000
0000
0000
,  // measure 1
0000
0000
0000
0000
,  // measure 2
0000
0000
0000
0000
,  // measure 3
0000
0000
0000
0000
,  // measure 4
1000
0100
0010
0000
0001
0010
0100
0000
,  // measure 5
1000
0001
1000
0001
2000
0001
3001
0000
,  // measure 6
0100
1000
0010
0001
0100
0000
1001
0000
,  // measure 7
0010
0001
1000
0100
0001
0000
0110
0000
,  // measure 8
0100
1000
0010
0000
0010
0001
0100
0000
,  // measure 9
1000
0100
0001
0010
2000
0000
3001
0000
,  // measure 10
1000
0000
0000
0000
0010
0000
0100
0010
0100
0000
0000
0000
0001
0000
1000
0000
,  // measure 11
0010
0000
0000
0000
1000
0000
0001
1000
0001
0000
0000
0000
0100
0000
1000
0000
,  // measure 12
0010
0001
0100
1000
0001
0100
0010
1000
,  // measure 13
0200
0000
0010
0000
1000
0000
0310
0010
,  // measure 14
0110
0000
0000
0000
0001
0000
1000
0001
1000
0000
0010
0000
1000
0000
0100
0000
,  // measure 15
0210
0000
0010
0000
0310
0001
0100
1000
,  // measure 16
0010
0000
0100
0010
0000
0000
0001
0000
1000
0000
0001
1000
0000
0000
0010
0000
,  // measure 17
1000
0100
0001
0010
0110
0100
1100
0000
,  // measure 18
1000
0010
0100
0001
0010
0010
0100
0100
,  // measure 19
1000
0100
0010
0001
0010
0100
0001
1000
,  // measure 20
1001
0000
0000
0001
2000
0000
0000
0000
3001
0000
0000
1000
0002
0000
0000
0000
,  // measure 21
1003
0000
0000
0100
0020
0000
0000
0000
0130
0000
0000
0000
0001
0000
0100
0000
,  // measure 22
1000
0000
0010
0000
1000
0000
0001
0000
0100
0000
0010
0100
0000
0000
0001
0000
,  // measure 23
1000
0000
0100
0000
0010
0000
0001
0000
1000
0000
0001
1000
0010
0000
0000
0000
,  // measure 24
1000
0000
0100
0001
0000
0000
0001
0000
0010
0000
0100
1000
0000
0000
1000
0000
,  // measure 25
0010
0000
0100
0000
0001
0000
1000
0000
0010
0100
0010
0000
0110
0000
0000
0000
,  // measure 26
0001
0100
1000
0010
0001
1000
0010
1000
,  // measure 27
0001
0100
0010
1000
0001
0100
0010
1000
,  // measure 28
1001
0000
0000
1000
0002
0000
0000
0000
1003
0000
0000
0001
2000
0000
0000
0000
,  // measure 29
3001
0100
1000
0010
0200
0000
0310
0000
,  // measure 30
0001
0000
0100
1000
0000
0000
0010
0000
1000
0000
0001
0000
0100
0000
0010
0000
,  // measure 31
1000
0000
0010
0001
0000
0000
0010
0000
0100
0000
0010
0100
0010
0000
0000
0000
,  // measure 32
0001
0100
1000
0010
0001
1000
0100
0001
,  // measure 33
0020
0000
0100
0000
0031
0100
1000
0100
,  // measure 34
0001
0100
0001
0100
1000
0100
1000
0100
,  // measure 35
1000
0010
1000
0010
0001
0010
0001
0010
,  // measure 36
0100
0001
1000
0010
1000
0001
0100
0010
,  // measure 37
0220
0000
0000
0000
,  // measure 38
0330
0000
0000
0000
;
