#TITLE:シンデレラ;
#SUBTITLE:;
#ARTIST:サイダーガール (From 古見さんは、コミュ症です。);
#TITLETRANSLIT:;
#SUBTITLETRANSLIT:;
#ARTISTTRANSLIT:;
#GENRE:Anime/Game;
#CREDIT:;
#BANNER:;
#BACKGROUND:;
#LYRICSPATH:;
#CDTITLE:;
#MUSIC:Cinderella.ogg;
#OFFSET:0.062000;
#SAMPLESTART:53.016022;
#SAMPLELENGTH:15.000000;
#SELECTABLE:YES;
#BPMS:0.000000=130.000000
;
#STOPS:
;
#BGCHANGES:3.500=Cinderella.avi=1.000=0=0=0=StretchNoLoop====,
99999=-nosongbg-=1.000=0=0=0 // don't automatically add -songbackground-
;
#KEYSOUNDS:;
#ATTACKS:;

//---------------dance-single - ----------------
#NOTES:
     dance-single:
     :
     Beginner:
     1:
     0.078546,0.106666,0.010997,0.000000,0.000000,50.000000,49.000000,1.000000,0.000000,0.000000,0.000000,0.078546,0.106666,0.010997,0.000000,0.000000,50.000000,49.000000,1.000000,0.000000,0.000000,0.000000:
0000
0000
0000
0000
,
0000
0000
0000
0000
,
0000
0000
0000
0000
,
0000
0000
0000
0000
,
0000
0000
0000
0000
,
1000
0000
0000
0000
,
0001
0000
0000
0000
,
1000
0000
0000
0000
,
0001
0000
0000
0000
,
0100
0000
0000
0000
,
0010
0000
0000
0000
,
0100
0000
0000
0000
,
0010
0000
0000
0000
,
1000
0000
0000
0000
,
0100
0000
0000
0000
,
1000
0000
0000
0000
,
0100
0000
0000
0000
,
0001
0000
0000
0000
,
0010
0000
0000
0000
,
0001
0000
0000
0000
,
0010
0000
0000
0000
,
1000
0000
0000
0000
,
0100
0000
0000
0000
,
0010
0000
0000
0000
,
0001
0000
0000
0000
,
1000
0000
0000
0000
,
0010
0000
0000
0000
,
0100
0000
0000
0000
,
0001
0000
0000
0000
,
1000
0000
1000
0000
,
0100
0000
0000
0000
,
0001
0000
0001
0000
,
0010
0000
0000
0000
,
1000
0000
1000
0000
,
0001
0000
0000
0000
,
0001
0000
0001
0000
,
1000
0000
0000
0000
,
0100
0000
0000
0000
,
1000
0000
0000
0000
,
0010
0000
0000
0000
,
0001
0000
0000
0000
,
1000
0000
0000
0000
,
0001
0000
0000
0000
,
0100
0000
0000
0000
,
0010
0000
0000
0000
,
0100
0000
0000
0000
,
1000
0000
0000
0000
,
0010
0000
0000
0000
,
0001
0000
1001
0000
;

//---------------dance-single - ----------------
#NOTES:
     dance-single:
     :
     Easy:
     5:
     0.235639,0.266665,0.153951,0.329895,0.000000,150.000000,136.000000,14.000000,30.000000,0.000000,0.000000,0.235639,0.266665,0.153951,0.329895,0.000000,150.000000,136.000000,14.000000,30.000000,0.000000,0.000000:
0000
0000
0000
0000
,
0000
0000
0000
0000
,
0000
0000
0000
0000
,
0000
0000
0000
0000
,
0000
0000
0000
0000
,
1000
0100
1000
0000
,
0010
0000
0010
0000
,
0001
0010
0001
0000
,
0100
0000
0100
0000
,
1000
0010
0100
0000
,
0001
0000
1001
0000
,
0001
0100
0010
0000
,
1000
0000
1001
0100
,
2000
0000
0100
0000
,
3020
0000
0100
0000
,
0032
0000
0100
0000
,
0203
0000
0010
0000
,
0301
0100
1000
0000
,
1000
0010
0001
0000
,
1000
0010
0100
0001
,
2000
0000
0002
3003
,
0001
0100
1000
0010
,
0001
1000
2002
3003
,
0010
0001
0100
1000
,
0001
1000
2002
3003
,
0100
1000
0010
0001
,
0100
0010
1000
0001
,
0200
0010
1000
0010
,
0002
0000
0303
0101
,
0100
1000
0010
0001
,
0100
0010
2020
3030
,
0001
1000
0010
1000
,
0100
0001
0202
0303
,
0001
0100
0010
1000
,
0010
0100
2002
3003
,
0001
0100
0010
1000
,
0020
0000
0230
0000
,
0301
0100
1000
0010
,
0001
1000
2002
3003
,
1000
0010
0001
0100
,
1000
0001
2002
3003
,
0100
1000
2020
3030
,
0010
0001
0202
0303
,
0100
1000
0010
0001
,
2002
0000
0000
3003
,
0100
1000
0100
0001
,
0001
0010
0100
1000
,
0010
0001
0010
1000
,
0100
0010
1001
0000
;

//---------------dance-single - ----------------
#NOTES:
     dance-single:
     :
     Medium:
     7:
     0.295335,0.401029,0.230927,0.241923,0.000000,188.000000,167.000000,21.000000,22.000000,0.000000,0.000000,0.295335,0.401029,0.230927,0.241923,0.000000,188.000000,167.000000,21.000000,22.000000,0.000000,0.000000:
// measure 0
0000
0000
0000
0000
,  // measure 1
0000
0000
0000
0000
,  // measure 2
0000
0000
0000
0000
,  // measure 3
0000
0000
0000
0000
,  // measure 4
0000
0000
0000
0000
,  // measure 5
0001
0000
1000
0000
0010
0010
0010
0000
,  // measure 6
1000
0001
0100
1001
,  // measure 7
0010
0000
1000
0000
0001
0001
0001
0000
,  // measure 8
0100
0010
1000
1001
,  // measure 9
0100
0000
1000
0000
0010
0010
0010
0000
,  // measure 10
0100
0001
0010
1001
,  // measure 11
0100
0000
1000
0000
0001
1000
0001
0000
,  // measure 12
0100
0010
0100
0010
0100
0000
0010
0000
,  // measure 13
2002
0000
0000
0003
,  // measure 14
0200
0000
0000
3000
,  // measure 15
0020
0000
0000
0300
,  // measure 16
0002
0000
0033
0000
,  // measure 17
2001
0000
0100
0000
,  // measure 18
0010
0000
3100
0000
,  // measure 19
1002
0000
0010
0000
,  // measure 20
0200
0000
0000
0303
,  // measure 21
0100
1000
0010
0001
,  // measure 22
0100
0010
2002
3003
,  // measure 23
0010
0001
0100
1000
,  // measure 24
0010
0100
2002
3003
,  // measure 25
0100
1000
0010
0001
,  // measure 26
0100
0010
1000
1001
,  // measure 27
0100
1000
0100
0000
0010
0001
0010
0000
,  // measure 28
1000
0001
1000
0001
1000
0000
1001
0000
,  // measure 29
0100
1000
0010
0001
,  // measure 30
0100
0010
0100
0000
2002
0000
3003
0000
,  // measure 31
0001
0100
0010
1000
,  // measure 32
0010
0100
0010
0000
2002
0000
3003
0000
,  // measure 33
0100
1000
0010
0001
,  // measure 34
1000
0001
1000
0000
0220
0000
0330
0000
,  // measure 35
0001
0100
0010
1000
,  // measure 36
0001
1000
0001
0000
0100
0000
1001
0000
,  // measure 37
0100
0010
1000
0001
,  // measure 38
0100
0010
0100
0000
2002
0000
3003
0000
,  // measure 39
0100
1000
0010
0001
,  // measure 40
0100
0010
0100
0000
0001
0000
1001
0000
,  // measure 41
0100
0000
1000
0000
0010
0001
0010
0000
,  // measure 42
0001
0010
0100
1100
,  // measure 43
1000
0000
0010
0000
0001
1000
0001
0000
,  // measure 44
0022
0000
0000
0033
,  // measure 45
0001
0100
0010
0000
1000
0000
1100
0000
,  // measure 46
1000
0010
0100
0011
,  // measure 47
0001
0100
1000
0000
0010
0000
1001
0000
,  // measure 48
0100
0010
0100
0000
0001
1000
0000
0000
;

//---------------dance-single - ----------------
#NOTES:
     dance-single:
     :
     Hard:
     9:
     0.428864,0.481234,0.252920,0.120962,0.027491,273.000000,250.000000,23.000000,11.000000,0.000000,0.000000,0.428864,0.481234,0.252920,0.120962,0.027491,273.000000,250.000000,23.000000,11.000000,0.000000,0.000000:
// measure 0
0000
0000
0000
0000
,  // measure 1
0000
0000
0000
0000
,  // measure 2
0000
0000
0000
0000
,  // measure 3
0000
0000
0000
0000
,  // measure 4
0000
0000
0000
0000
,  // measure 5
1000
0010
0100
0000
0001
0100
0010
0000
,  // measure 6
1000
0001
1000
0001
1000
0010
0100
0000
,  // measure 7
0001
0100
0010
0000
1000
0010
0100
0000
,  // measure 8
0001
1000
0001
1000
0001
0100
0010
0000
,  // measure 9
0100
1000
0010
0000
0010
0001
0100
0000
,  // measure 10
0001
1000
0010
0100
0001
1000
1001
0000
,  // measure 11
0100
1000
0010
0000
0010
0001
0100
0000
,  // measure 12
0010
0010
0010
0010
0220
0000
0330
0000
,  // measure 13
0002
0100
0010
1003
,  // measure 14
2000
0010
0100
3001
,  // measure 15
0020
1000
0100
0031
,  // measure 16
0200
0001
0010
1300
,  // measure 17
0001
1000
0010
0000
0001
0000
1001
0000
,  // measure 18
0010
0100
0001
0000
1000
0000
1001
0000
,  // measure 19
0100
1000
0010
0000
0010
0001
0100
0000
,  // measure 20
2002
0000
0000
3003
,  // measure 21
0001
0100
1000
0000
0010
0000
1001
0000
,  // measure 22
1000
0010
0001
0000
0100
0000
1001
0000
,  // measure 23
0100
0010
1000
0000
0010
0000
0011
0000
,  // measure 24
0001
0100
0010
0000
1000
0000
1100
0000
,  // measure 25
1000
0010
0100
0000
0001
0100
0010
0000
,  // measure 26
1000
0001
0100
0000
0001
1000
0010
0000
,  // measure 27
1000
0001
1000
0001
1000
0001
1000
0001
,  // measure 28
0001
0100
1000
0010
0001
0000
1001
0000
,  // measure 29
0100
1000
0010
0000
0010
0001
0100
0000
,  // measure 30
0010
1000
0001
0100
0010
0000
0110
0000
,  // measure 31
0001
0000
0100
1000
0000
0000
0010
0000
1000
0000
0010
0001
0000
0000
0100
0000
,  // measure 32
0010
0100
1000
0001
0100
0000
1001
0000
,  // measure 33
0100
1000
0010
0000
0010
0001
0100
0000
,  // measure 34
0001
1000
0010
0100
0001
0000
1001
0000
,  // measure 35
0100
1000
0010
0001
0100
0100
0010
0010
,  // measure 36
0220
0000
0000
0330
,  // measure 37
0001
0100
1000
0100
0001
0000
1001
0000
,  // measure 38
1000
0010
0001
0010
1000
0000
1001
0000
,  // measure 39
0100
0010
1000
0000
0010
0100
0001
0000
,  // measure 40
0100
0010
1000
0001
1001
0000
0110
0000
,  // measure 41
0001
0100
0010
0000
1000
0000
1100
0000
,  // measure 42
1000
0010
0100
0000
0001
0000
0011
0000
,  // measure 43
0001
0000
0000
1000
0000
0000
0001
0000
1000
0000
0010
0000
0100
0000
0000
0000
,  // measure 44
2001
0001
0001
3001
,  // measure 45
0010
0000
0100
0010
0100
0000
0001
0000
1000
0000
0010
0000
0100
0000
0001
0000
,  // measure 46
0010
0100
1000
0010
0001
0100
1001
0000
,  // measure 47
0010
0000
0100
0010
0100
0000
0001
0000
1000
0000
0010
0000
1000
0000
0000
0000
,  // measure 48
0001
1000
0010
0100
0001
1001
0000
0000
;
