#TITLE:Chemical Cookie;
#SUBTITLE:;
#ARTIST:YUC'e;
#TITLETRANSLIT:;
#SUBTITLETRANSLIT:;
#ARTISTTRANSLIT:;
#GENRE:beatmania IIDX;
#CREDIT:;
#BANNER:;
#BACKGROUND:;
#LYRICSPATH:;
#CDTITLE:;
#MUSIC:Chemical Cookie.ogg;
#OFFSET:0.010000;
#SAMPLESTART:24.006920;
#SAMPLELENGTH:15.000000;
#SELECTABLE:YES;
#BPMS:0.000000=179.999954
;
#STOPS:
;
#BGCHANGES:;
#KEYSOUNDS:;
#ATTACKS:;

//---------------dance-single - ----------------
#NOTES:
     dance-single:
     :
     Hard:
     13:
     0.686767,0.892458,0.609251,0.114235,0.076156,505.000000,441.000000,64.000000,12.000000,0.000000,0.000000,0.686767,0.892458,0.609251,0.114235,0.076156,505.000000,441.000000,64.000000,12.000000,0.000000,0.000000:
// measure 0
0000
0000
0000
0000
,  // measure 1
0000
0000
0000
0000
,  // measure 2
1000
0100
0010
0001
1000
0000
1001
0000
,  // measure 3
0001
0010
0100
1000
0001
0000
1001
0000
,  // measure 4
0001
0100
1000
0100
0001
0000
1000
0000
,  // measure 5
2001
0100
0002
3003
,  // measure 6
1000
0010
0100
0001
1000
0000
1001
0000
,  // measure 7
0001
0100
0010
1000
0001
0000
1001
0000
,  // measure 8
0001
0010
1000
0010
0001
0000
1000
0000
,  // measure 9
1002
0010
2000
3003
,  // measure 10
1000
0000
1000
0100
0000
0100
0010
0000
,  // measure 11
0001
0010
0100
1000
0001
0000
1001
0000
,  // measure 12
1000
0000
0001
0010
0000
0010
0100
0000
,  // measure 13
0100
0010
1000
0001
0100
0000
1001
0000
,  // measure 14
0001
1000
0001
0000
0010
0100
0010
0000
,  // measure 15
1000
0100
0010
0001
0010
0100
1000
0010
,  // measure 16
0001
0001
1000
1000
,  // measure 17
0010
0100
0010
0000
0001
1000
0001
0000
,  // measure 18
1000
0100
0000
1000
0100
0000
0110
0000
,  // measure 19
0001
0010
0000
0001
0010
0000
1001
0000
,  // measure 20
1000
0010
0000
1000
0010
0000
0110
0000
,  // measure 21
0001
0100
0000
0001
0100
0000
1001
0000
,  // measure 22
1000
0010
1000
0010
0001
0010
0001
0010
,  // measure 23
1000
0010
1000
0010
0001
0010
0001
0010
,  // measure 24
0100
0010
0100
0010
1000
0001
1000
0001
1000
0100
0010
0001
1000
0010
0100
0001
,  // measure 25
1000
0010
0001
0000
0011
0000
1010
0000
,  // measure 26
0001
0010
1000
0100
0010
0100
0001
1000
,  // measure 27
0010
0000
1001
0000
1001
0000
0010
1000
,  // measure 28
0100
0010
0100
0001
0010
1000
0100
0010
,  // measure 29
0001
0000
1001
0000
1001
0000
0001
0010
,  // measure 30
0100
1000
0010
1000
0100
0001
0010
1000
,  // measure 31
0010
0000
0110
0000
0110
0000
0001
0100
,  // measure 32
0010
1000
0010
0100
0001
0010
0100
1000
,  // measure 33
0010
1100
0101
1001
,  // measure 34
0001
1000
0010
1000
0001
0100
0010
1000
,  // measure 35
0001
0000
1001
0000
1001
0000
0010
1000
,  // measure 36
0100
0001
0010
0100
1000
0010
0100
0001
,  // measure 37
1000
0000
0110
0000
0110
0000
0001
0100
,  // measure 38
1000
0010
1000
0100
0001
0010
0001
1000
,  // measure 39
0100
0000
1100
0000
0101
0000
0001
0100
,  // measure 40
0010
1000
0100
0001
0100
0010
1000
0001
,  // measure 41
0010
0011
1010
1001
,  // measure 42
0001
0010
0100
1000
0001
0000
1001
0000
,  // measure 43
1000
0100
0010
0001
1000
0000
1001
0000
,  // measure 44
1000
0010
0001
0010
1000
0000
0001
0000
,  // measure 45
1002
0010
2000
3003
,  // measure 46
0001
0100
0010
1000
0001
0000
1001
0000
,  // measure 47
1000
0010
0100
0001
1000
0000
1001
0000
,  // measure 48
1000
0100
0001
0100
1000
0000
0001
0000
,  // measure 49
2001
0100
0002
3003
,  // measure 50
0001
0010
0000
0001
0010
0000
0110
0000
,  // measure 51
1000
0100
0000
1000
0100
0000
1001
0000
,  // measure 52
0001
0100
0000
0001
0100
0000
0110
0000
,  // measure 53
1000
0010
0000
1000
0010
0000
1001
0000
,  // measure 54
0001
0100
0001
0100
1000
0100
1000
0100
,  // measure 55
0001
0100
0001
0100
1000
0100
1000
0100
,  // measure 56
0010
0100
0010
0100
0001
1000
0001
1000
0001
0010
0100
1000
0001
0100
0010
1000
,  // measure 57
0001
0100
1000
0000
1100
0000
0202
0000
,  // measure 58
0000
0000
0000
0303
,  // measure 59
0110
0000
1001
0000
1001
0000
0100
0001
,  // measure 60
0010
0100
0010
1000
0100
0001
0010
0100
,  // measure 61
1000
0000
1001
0000
1001
0000
1000
0100
,  // measure 62
0010
0001
0100
0001
0010
1000
0100
0001
,  // measure 63
0100
0000
0110
0000
0110
0000
1000
0010
,  // measure 64
0100
0001
0100
0010
1000
0100
0010
0001
,  // measure 65
0100
0011
1010
1001
,  // measure 66
1000
0001
0100
0001
1000
0010
0100
0001
,  // measure 67
1000
0000
1001
0000
1001
0000
0100
0001
,  // measure 68
0010
1000
0100
0010
0001
0100
0010
1000
,  // measure 69
0001
0000
0110
0000
0110
0000
1000
0010
,  // measure 70
0001
0100
0001
0010
1000
0100
1000
0001
,  // measure 71
0010
0000
0011
0000
1010
0000
1000
0010
,  // measure 72
0100
0001
0010
1000
0010
0100
0001
1000
,  // measure 73
0100
1100
0101
1001
,  // measure 74
0220
0000
0000
0000
,  // measure 75
0330
0000
0000
0000
;

//---------------dance-single - ----------------
#NOTES:
     dance-single:
     :
     Medium:
     10:
     0.554854,0.571173,0.542614,0.152313,0.000000,408.000000,351.000000,57.000000,16.000000,0.000000,0.000000,0.554854,0.571173,0.542614,0.152313,0.000000,408.000000,351.000000,57.000000,16.000000,0.000000,0.000000:
0000
0000
0000
0000
,
0000
0000
0000
0000
,
1000
0100
0010
0000
0001
0000
1000
0000
,
0001
0100
0010
0000
1000
0000
0001
0000
,
0001
0010
0100
0000
0001
0000
1000
0000
,
1010
0110
0022
0033
,
0001
0100
0010
1000
0001
0000
1001
0000
,
1000
0010
0100
0001
1000
0000
1001
0000
,
0001
0100
1000
0000
1000
0100
0001
0000
,
0101
0110
2200
3300
,
0001
0100
1000
0100
,
0001
0000
0010
1000
0010
0000
1001
0000
,
0010
1000
0010
0001
,
0010
0000
0001
0010
0001
0000
1001
0000
,
0010
1000
0100
0000
0001
0000
1001
0000
,
0001
0100
0010
0000
1000
0000
1001
0000
,
0200
0010
0010
1000
,
0320
0100
0100
0001
,
0130
0000
0000
1000
0000
0000
0100
0000
,
0001
0000
0000
0100
0000
0000
1001
0000
,
0100
0000
0000
1000
0000
0000
0100
0000
,
0001
0000
0000
0100
0000
0000
1001
0000
,
0010
1000
0010
1000
,
0001
0010
0001
0010
,
1000
0100
0010
0001
1000
0010
0100
0001
,
1000
0010
0100
0000
0001
0000
1001
0000
,
0001
0100
1000
0000
0001
0100
1000
0000
,
1001
1001
0110
1000
,
1000
0010
0001
0000
1000
0010
0001
0000
,
1001
1001
0110
0101
,
0010
0100
1000
0000
0010
0100
1000
0000
,
0100
0110
1001
0010
,
0001
0010
0100
0000
0001
0010
0100
0000
,
1000
1100
0101
1001
,
0010
1000
0100
0000
0010
0100
0001
0000
,
0001
0100
1000
0100
0001
0000
1001
0000
,
1000
0010
0001
0000
0001
0010
1000
0000
,
1000
0010
0001
0010
1000
0000
1001
0000
,
1000
0100
0001
0000
0001
0100
1000
0000
,
0001
0100
1000
0100
0001
0000
1001
0000
,
1000
0010
1000
0010
0001
0010
0001
0010
,
1000
1000
0002
1003
,
0001
0010
0100
0000
1000
0000
0001
0000
,
1000
0010
0100
0000
0001
0000
1000
0000
,
1000
0100
0010
0000
1000
0000
0001
0000
,
0101
0110
2200
3300
,
1000
0010
0100
0001
1000
0000
1001
0000
,
0001
0100
0010
1000
0001
0000
1001
0000
,
1000
0010
0001
0000
0001
0010
1000
0000
,
1010
0110
0022
0033
,
0010
0000
0000
0001
0000
0000
0010
0000
,
1000
0000
0000
0010
0000
0000
1001
0000
,
0010
0000
0000
0001
0000
0000
0010
0000
,
1000
0000
0000
0010
0000
0000
1001
0000
,
0100
0001
0100
0001
,
1000
0100
1000
0100
,
0001
0010
0100
1000
0001
0100
0010
1000
,
0001
0100
0010
0000
1000
0000
2002
0000
,
0000
0000
0000
3003
,
1001
1001
0110
0001
,
0001
0100
1000
0000
0001
0100
1000
0000
,
1001
1001
0110
1010
,
0100
0010
0001
0000
0100
0010
0001
0000
,
0010
0110
1001
0100
,
1000
0100
0010
0000
1000
0100
0010
0000
,
0001
0011
1010
1001
,
0100
0001
0010
0000
0100
0010
1000
0000
,
1000
0010
0001
0010
1000
0000
1001
0000
,
0001
0100
1000
0000
1000
0100
0001
0000
,
0001
0100
1000
0100
0001
0000
1001
0000
,
0001
0010
1000
0000
1000
0010
0001
0000
,
1000
0010
0001
0010
1000
0000
1001
0000
,
0001
0100
0001
0100
1000
0100
1000
0100
,
0001
0001
2000
3001
,
2002
0000
0000
0000
,
3003
0000
0000
0000
;

//---------------dance-single - ----------------
#NOTES:
     dance-single:
     :
     Easy:
     6:
     0.387582,0.464078,0.380782,0.495017,0.000000,285.000000,245.000000,40.000000,52.000000,0.000000,0.000000,0.387582,0.464078,0.380782,0.495017,0.000000,285.000000,245.000000,40.000000,52.000000,0.000000,0.000000:
0000
0000
0000
0000
,
0000
0000
0000
0000
,
1000
0000
0000
0100
1000
0000
0000
0000
,
0010
0000
0000
0100
0010
0000
0000
0000
,
0001
0000
0000
0010
0001
0000
0000
0000
,
1000
0001
2002
3003
,
0001
0000
0000
0001
0010
0000
0000
0000
,
0010
0000
0000
0010
0100
0000
0000
0000
,
0100
0000
0000
0100
1000
0000
0000
0000
,
1000
0100
2002
3003
,
0001
0100
1000
0100
,
0001
0010
0200
0310
,
0001
0010
1000
0010
,
0001
0100
0020
0130
,
1000
0100
0001
0100
,
1000
0100
0001
0100
,
0020
0000
0230
0000
,
0302
2003
3002
2003
,
3010
0000
0000
0100
0000
0000
0010
0000
,
0100
0000
0000
0010
0000
0000
0110
0000
,
0001
0000
0000
1000
0000
0000
0001
0000
,
1000
0000
0000
0001
0000
0000
1001
0000
,
0010
1000
0010
1000
,
0001
0010
0001
0010
,
1000
0100
0010
0001
,
1000
0001
1000
0000
2002
0000
3003
0000
,
0001
0100
1000
0100
,
0001
0002
0200
0303
,
1000
0100
0001
0100
,
1000
2000
0200
3300
,
0010
1000
0010
0001
,
0010
0020
0200
0330
,
1000
0100
0001
0010
,
0100
0200
0310
0001
,
1001
0010
0100
1000
,
1100
1100
2200
3300
,
0010
1000
0001
0100
,
0011
0011
0022
0033
,
0001
0100
1000
0010
,
0110
0110
0220
0330
,
1000
0010
0100
0001
,
1001
0110
2002
3003
,
0001
0000
0000
0010
0001
0000
0000
0000
,
0100
0000
0000
0010
0100
0000
0000
0000
,
1000
0000
0000
0100
1000
0000
0000
0000
,
0001
1000
2002
3003
,
1000
0000
0000
1000
0100
0000
0000
0000
,
0100
0000
0000
0100
0010
0000
0000
0000
,
0010
0000
0000
0010
0001
0000
0000
0000
,
0001
0010
2002
3003
,
0100
0000
0000
0010
0000
0000
0100
0000
,
0010
0000
0000
0100
0000
0000
0110
0000
,
1000
0000
0000
0001
0000
0000
1000
0000
,
0001
0000
0000
1000
0000
0000
1001
0000
,
0100
0001
0100
0001
,
1000
0100
1000
0100
,
0001
0010
0100
1000
,
0001
1000
0001
0000
2002
0000
3003
0000
,
0000
0000
0000
0000
,
1100
0110
0022
0033
,
0001
0010
1000
0010
,
0001
0002
0020
0033
,
0100
0001
0100
1000
,
0100
0200
0020
0330
,
0001
0010
1000
0100
,
0010
0020
0130
1000
,
1001
0100
0010
0001
,
0011
0011
0022
0033
,
0100
0001
1000
0010
,
1100
1100
2200
3300
,
1000
0010
0001
0100
,
0110
0110
0220
0330
,
0001
0100
0010
1000
,
1001
0110
2002
3003
,
0220
0000
0000
0000
,
0330
0000
0000
0000
;

//---------------dance-single - ----------------
#NOTES:
     dance-single:
     :
     Beginner:
     4:
     0.201270,0.246556,0.009520,0.076156,0.000000,148.000000,147.000000,1.000000,8.000000,0.000000,0.000000,0.201270,0.246556,0.009520,0.076156,0.000000,148.000000,147.000000,1.000000,8.000000,0.000000,0.000000:
0000
0000
0000
0000
,
0000
0000
0000
0000
,
1000
0000
0100
0000
,
1000
0000
0100
0000
,
0010
0000
0100
0000
,
0010
0000
0100
0000
,
0010
0000
0001
0000
,
0010
0000
0001
0000
,
1000
0000
0001
0000
,
1000
0000
0001
0000
,
1000
0000
0100
0000
,
1000
1000
1000
0000
,
0001
0000
0100
0000
,
0001
0001
0001
0000
,
1000
0000
0010
0000
,
1000
0000
0010
0000
,
0001
0000
0010
0000
,
0001
0000
0010
0000
,
0200
0000
0000
0000
,
0310
0000
0000
0000
,
0020
0000
0000
0000
,
0130
0000
0000
0000
,
2000
0000
0000
0000
,
3001
0000
0000
0000
,
0002
0000
0000
0000
,
1003
0000
0000
0000
,
1000
0000
0100
0000
,
1000
1000
1000
0000
,
0001
0000
0100
0000
,
0001
0001
0001
0000
,
1000
0000
0010
0000
,
1000
1000
1000
0000
,
0001
0000
0010
0000
,
0001
0001
0001
0000
,
0100
0000
0010
0000
,
0100
0010
0100
0000
,
0001
0000
1000
0000
,
0001
1000
0001
0000
,
1000
0000
0100
0000
,
1000
0100
1000
0000
,
0001
0000
0010
0000
,
0001
0010
0001
0000
,
0001
0000
0010
0000
,
0001
0000
0010
0000
,
0100
0000
0010
0000
,
0100
0000
0010
0000
,
0100
0000
1000
0000
,
0100
0000
1000
0000
,
0001
0000
1000
0000
,
0001
0000
1000
0000
,
0020
0000
0000
0000
,
0130
0000
0000
0000
,
0200
0000
0000
0000
,
0310
0000
0000
0000
,
0002
0000
0000
0000
,
1003
0000
0000
0000
,
2000
0000
0000
0000
,
3001
0000
0000
0000
,
0001
0000
0010
0000
,
0001
0001
0001
0000
,
1000
0000
0010
0000
,
1000
1000
1000
0000
,
0001
0000
0100
0000
,
0001
0001
0001
0000
,
1000
0000
0100
0000
,
1000
1000
1000
0000
,
0010
0000
0100
0000
,
0010
0100
0010
0000
,
1000
0000
0001
0000
,
1000
0001
1000
0000
,
0001
0000
0010
0000
,
0001
0010
0001
0000
,
1000
0000
0100
0000
,
1000
0100
1000
0000
,
1001
0000
0000
0000
;
