#TITLE:カタルシスの月;
#SUBTITLE:;
#ARTIST:日向美ビタースイーツ♪;
#TITLETRANSLIT:Catharsis no tsuki;
#SUBTITLETRANSLIT:;
#ARTISTTRANSLIT:Hinatabi Bittersweets♪;
#GENRE:REFLEC BEAT;
#CREDIT:;
#BANNER:;
#BACKGROUND:;
#LYRICSPATH:;
#CDTITLE:;
#MUSIC:Catharsis no tsuki.ogg;
#OFFSET:1.035000;
#SAMPLESTART:63.134159;
#SAMPLELENGTH:15.000000;
#SELECTABLE:YES;
#DISPLAYBPM:200.000000;
#BPMS:0.000000=199.979996
,208.000000=200.500000
,216.000000=199.979996
,304.000000=199.899994
;
#STOPS:
;
#BGCHANGES:0.000=Catharsis no tsuki.avi=1.000=0=0=1=====,
99999=-nosongbg-=1.000=0=0=0 // don't automatically add -songbackground-
;
#KEYSOUNDS:;
#ATTACKS:;

//---------------dance-single - ----------------
#NOTES:
     dance-single:
     :
     Beginner:
     3:
     0.138140,0.159685,0.070971,0.017743,0.000000,99.000000,8.000000,2.000000,0.000000,0.000000,0.000000,0.138140,0.159685,0.070971,0.017743,0.000000,99.000000,8.000000,2.000000,0.000000,0.000000,0.000000:
0000
0000
0000
0000
,
0000
0000
0000
0000
,
0000
0000
0000
0000
,
0000
0000
0000
0000
,
0000
0000
0000
0000
,
0000
0000
0000
0000
,
1000
0000
0100
0000
,
0001
0000
0010
0000
,
0100
0000
1000
0000
,
0001
0000
0000
0000
,
0010
0000
1000
0000
,
0010
0000
1000
0000
,
0100
0000
0001
0000
,
0100
0000
0001
0000
,
1001
0000
0000
0000
,
0010
0000
0000
0000
,
1001
0000
0000
0000
,
0100
0000
0000
0000
,
1000
0000
0000
0000
,
0100
0000
0000
0000
,
0010
0000
0000
0000
,
0001
0000
0000
0000
,
2000
0000
0000
0000
,
3000
0000
0000
0000
,
0002
0000
0000
0000
,
0003
0000
0000
0000
,
0001
0000
0000
0000
,
0010
0000
0000
0000
,
0100
0000
0000
0000
,
1000
0000
0000
0000
,
0010
0000
0010
0000
,
0010
0000
0000
0000
,
0100
0000
0100
0000
,
0100
0000
0000
0000
,
1001
0000
0000
0000
,
0000
0000
0000
0000
,
0100
0000
0000
0000
,
0100
0000
0000
0000
,
1001
0000
0000
0000
,
0000
0000
0000
0000
,
0010
0000
0000
0000
,
0010
0000
0000
0000
,
1000
0000
0000
0000
,
0100
0000
0000
0000
,
0010
0000
0000
0000
,
0001
0000
0000
0000
,
0100
0000
0000
0000
,
0100
0000
0000
0000
,
0010
0000
0000
0000
,
0010
0000
0000
0000
,
0001
0000
0000
0000
,
1000
0000
0000
0000
,
1001
0000
0000
0000
,
0000
0000
0000
0000
,
0100
0000
0000
0000
,
0100
0000
0010
0000
,
0100
0000
0000
0000
,
1000
0000
0001
0000
,
1000
0000
0000
0000
,
0010
0000
0100
0000
,
0010
0000
0000
0000
,
0001
0000
1000
0000
,
0001
0000
0000
0000
,
1000
0000
0100
0000
,
0010
0000
0000
0000
,
0001
0000
0010
0000
,
0100
0000
0000
0000
,
0100
0000
0000
0000
,
0100
0000
0000
0000
,
0000
0000
0000
0000
,
1000
0000
0000
0000
,
0100
0000
0000
0000
,
0010
0000
0000
0000
,
0001
0000
0000
0000
,
0100
0000
0000
0000
,
0110
0000
0000
0000
,
0000
0000
0000
0000
,
0000
0000
0000
0000
,
0001
0000
0000
0000
,
0001
0000
0000
0000
,
0001
0000
0010
0000
,
1000
0000
0100
0000
,
0010
0000
0001
0000
,
1000
0000
0000
0000
,
0100
0000
0001
0000
,
0100
0000
0001
0000
,
0010
0000
1000
0000
,
0010
0000
1000
0000
,
1001
0000
0000
0000
,
0100
0000
0000
0000
,
1001
0000
0000
0000
;

//---------------dance-single - ----------------
#NOTES:
     dance-single:
     :
     Easy:
     6:
     0.344717,0.326467,0.275013,0.035486,0.000000,237.000000,31.000000,4.000000,0.000000,0.000000,0.000000,0.344717,0.326467,0.275013,0.035486,0.000000,237.000000,31.000000,4.000000,0.000000,0.000000,0.000000:
// measure 0
0000
0000
0000
0000
,  // measure 1
0000
0000
0000
0000
,  // measure 2
0000
0000
0000
0000
,  // measure 3
0000
0000
0000
0000
,  // measure 4
0000
0000
0000
0000
,  // measure 5
0000
0000
0000
0000
,  // measure 6
1000
0000
0100
0010
,  // measure 7
0001
0000
0001
0010
,  // measure 8
0100
0000
1000
0100
,  // measure 9
0010
0000
0010
0100
,  // measure 10
1000
0001
1000
0001
,  // measure 11
0010
0000
0010
0000
,  // measure 12
0001
1000
0001
1000
,  // measure 13
0100
0000
0100
0000
,  // measure 14
1000
0000
1000
0100
,  // measure 15
1100
0000
0001
0100
,  // measure 16
0101
0000
0001
1000
,  // measure 17
1001
0000
0000
0000
,  // measure 18
2000
0000
0100
0000
,  // measure 19
0100
0000
3100
0000
,  // measure 20
0002
0000
0100
0000
,  // measure 21
0100
0000
0103
0000
,  // measure 22
0010
0000
1000
0000
,  // measure 23
0010
0000
0001
0000
,  // measure 24
0100
0000
0100
0000
,  // measure 25
0110
0000
1001
0000
,  // measure 26
0001
0010
0100
1000
,  // measure 27
0100
0000
0100
0000
,  // measure 28
1000
0100
0010
0001
,  // measure 29
0100
0000
0100
0000
,  // measure 30
0001
1000
0010
1000
,  // measure 31
0100
0000
1100
0000
,  // measure 32
0010
1000
0001
0010
,  // measure 33
0100
0010
0100
0001
,  // measure 34
0011
0000
0101
0000
,  // measure 35
1100
0000
1010
0000
,  // measure 36
0001
1000
0001
1000
,  // measure 37
0010
0000
0010
0000
,  // measure 38
0101
0000
0011
0000
,  // measure 39
1010
0000
1100
0000
,  // measure 40
1000
0010
0100
0001
,  // measure 41
0100
0000
1100
0000
,  // measure 42
0101
0001
0010
0000
,  // measure 43
1100
1000
0010
0000
,  // measure 44
0001
1000
0010
1000
,  // measure 45
0100
0010
0001
0010
,  // measure 46
0100
0100
0010
0000
,  // measure 47
1000
1000
0001
0000
,  // measure 48
0001
0010
1000
0100
,  // measure 49
0010
0100
0001
0010
,  // measure 50
0100
0000
0100
0000
,  // measure 51
0010
0000
0010
0000
,  // measure 52
1001
0000
0000
0000
0000
0000
0000
0110
,  // measure 53
0000
0000
0000
0000
1001
0000
0000
0010
,  // measure 54
0000
1000
0000
0010
,  // measure 55
0100
0001
0000
0010
,  // measure 56
0000
0001
0000
0100
,  // measure 57
0001
1000
0000
0010
,  // measure 58
0000
1000
0000
0010
,  // measure 59
1000
0100
0010
0001
,  // measure 60
0100
0000
0100
0000
,  // measure 61
0010
0000
1100
0101
,  // measure 62
0010
0000
0010
0000
,  // measure 63
0001
0100
0010
1000
,  // measure 64
0100
0000
0100
0000
,  // measure 65
1000
0010
0100
0001
,  // measure 66
0010
0000
0010
0000
,  // measure 67
0110
0000
0110
0000
,  // measure 68
0100
0000
0100
0000
,  // measure 69
1001
0000
1001
0000
,  // measure 70
0001
0100
1000
0100
,  // measure 71
0001
0100
1000
0000
,  // measure 72
1000
0010
0001
0010
,  // measure 73
1000
0010
0001
0000
,  // measure 74
0010
1000
0100
0010
,  // measure 75
0101
0000
1100
0000
,  // measure 76
1001
0001
0010
1000
,  // measure 77
0000
1000
0100
0010
,  // measure 78
0000
0100
0010
0001
,  // measure 79
0000
0001
0100
1000
,  // measure 80
0001
0000
0010
0100
,  // measure 81
1000
0000
1000
0100
,  // measure 82
0010
0000
0001
0010
,  // measure 83
0100
0000
0100
0010
,  // measure 84
0001
1000
0001
1000
,  // measure 85
0100
0000
0100
0000
,  // measure 86
1000
0001
1000
0001
,  // measure 87
0010
0000
0010
0000
,  // measure 88
0001
0000
0001
0010
,  // measure 89
0011
0000
1000
0010
,  // measure 90
2020
0000
0000
0000
,  // measure 91
0000
0000
0000
0000
,  // measure 92
3030
0000
0000
0000
;

//---------------dance-single - ----------------
#NOTES:
     dance-single:
     :
     Medium:
     9:
     0.447371,0.408084,0.390341,0.079842,0.000000,300.000000,44.000000,9.000000,0.000000,0.000000,0.000000,0.447371,0.408084,0.390341,0.079842,0.000000,300.000000,44.000000,9.000000,0.000000,0.000000,0.000000:
// measure 0
0000
0000
0000
0000
,  // measure 1
0000
0000
0000
0000
,  // measure 2
0000
0000
0000
0000
,  // measure 3
0000
0000
0000
0000
,  // measure 4
0000
0000
0000
0000
,  // measure 5
0000
0000
0000
0000
,  // measure 6
1010
0000
0100
0000
0010
0100
0001
0000
,  // measure 7
0010
0001
0100
0010
,  // measure 8
0011
0000
0100
0000
0001
0010
1000
0000
,  // measure 9
0010
0100
1100
0000
,  // measure 10
1010
0001
0100
0010
,  // measure 11
1000
0100
0001
0100
,  // measure 12
0101
0010
1000
0100
,  // measure 13
0001
0010
0100
1000
,  // measure 14
1100
0000
0000
0000
1000
0000
1000
0100
,  // measure 15
0010
0000
0000
0000
0100
0000
0100
0010
,  // measure 16
0001
0000
0000
0000
0001
0000
0001
0010
,  // measure 17
0200
0000
0000
0000
,  // measure 18
1300
0000
1000
0000
,  // measure 19
1100
0000
1100
0000
,  // measure 20
0001
0000
0001
0000
,  // measure 21
0101
0000
0101
0000
,  // measure 22
0010
0000
0010
0000
,  // measure 23
0110
0000
0110
0000
,  // measure 24
1000
0000
1000
0000
,  // measure 25
1001
0000
1001
0000
,  // measure 26
0001
0000
0010
0000
1000
0100
1000
0000
,  // measure 27
0010
1000
0100
0001
,  // measure 28
0010
0000
0001
0000
0001
0010
0001
0000
,  // measure 29
0010
0100
0001
1000
,  // measure 30
2100
0000
3100
0000
,  // measure 31
0102
0000
0103
0000
,  // measure 32
0001
0010
1000
0100
,  // measure 33
0010
0010
0100
0100
,  // measure 34
1100
0000
0101
0000
,  // measure 35
1001
0000
1001
0000
,  // measure 36
0010
0010
1000
1000
,  // measure 37
0100
0000
0100
0000
0010
0100
0001
0000
,  // measure 38
0010
0000
0010
0000
,  // measure 39
1000
0000
1000
0000
,  // measure 40
0001
0001
0100
0100
,  // measure 41
0010
0000
0010
0000
1000
0010
0100
0000
,  // measure 42
0001
1100
1000
0010
,  // measure 43
1000
0011
0001
0100
,  // measure 44
0010
1000
0001
0100
,  // measure 45
0010
0010
0100
0100
,  // measure 46
0002
0000
0103
0000
,  // measure 47
2000
0000
3100
0000
,  // measure 48
0002
0000
0013
0000
,  // measure 49
2000
0000
3010
0000
,  // measure 50
0001
0000
0000
0100
0000
0000
1000
0000
,  // measure 51
0000
0100
0000
0000
0010
0000
0100
0000
,  // measure 52
0101
0000
0000
0000
0000
0000
0000
1100
,  // measure 53
0000
0000
0000
0000
1001
0000
0000
0110
,  // measure 54
0000
0000
0001
0000
0010
0100
1000
0000
,  // measure 55
1000
0100
0010
1000
,  // measure 56
0001
0000
0010
0000
1000
0100
0010
0000
,  // measure 57
0001
0100
0010
1000
,  // measure 58
0001
0101
0010
1000
,  // measure 59
0100
1100
0010
1000
,  // measure 60
0001
0010
1000
0100
,  // measure 61
0010
0000
0100
0000
0001
0100
0000
1100
,  // measure 62
0000
0100
0010
1000
,  // measure 63
0001
0000
0010
0000
1000
0100
0000
0101
,  // measure 64
0000
0010
0100
0001
,  // measure 65
0010
0000
1000
0000
0001
0010
0000
1010
,  // measure 66
0000
1100
0000
0101
,  // measure 67
0000
0011
0101
1010
,  // measure 68
0001
0000
0001
1000
0000
1000
0100
0000
,  // measure 69
0100
0010
0000
0000
0001
0000
0101
0000
,  // measure 70
0001
0000
0100
0000
1000
0100
1000
0000
,  // measure 71
0010
1000
0100
0001
,  // measure 72
1000
0000
0100
0000
0010
0001
0010
0000
,  // measure 73
0001
0010
0100
1000
,  // measure 74
0001
0010
0001
0000
1000
0100
1000
0000
,  // measure 75
1002
0000
0100
0000
,  // measure 76
0013
0001
0010
1000
,  // measure 77
0100
0100
1000
1000
,  // measure 78
0010
0100
0001
0010
,  // measure 79
0010
0010
0001
0001
,  // measure 80
0101
0000
0010
0000
0100
0010
1000
0000
,  // measure 81
0100
1000
0010
0100
,  // measure 82
1100
0000
0010
0000
1000
0100
0001
0000
,  // measure 83
0100
0010
0011
0000
,  // measure 84
0101
1000
0010
0100
,  // measure 85
0001
0010
1000
0010
,  // measure 86
1010
0100
0001
0010
,  // measure 87
1000
0100
0010
0001
,  // measure 88
0011
0000
0000
0000
0001
0000
0001
0010
,  // measure 89
0100
0000
0000
0000
0010
0000
0010
0100
,  // measure 90
2000
0000
0000
0000
,  // measure 91
0000
0000
0000
0000
,  // measure 92
3000
0000
0000
0000
;

//---------------dance-single - ----------------
#NOTES:
     dance-single:
     :
     Hard:
     12:
     0.607056,0.652934,0.434698,0.088714,0.000000,420.000000,49.000000,10.000000,0.000000,0.000000,0.000000,0.607056,0.652934,0.434698,0.088714,0.000000,420.000000,49.000000,10.000000,0.000000,0.000000,0.000000:
// measure 0
0000
0000
0000
0000
,  // measure 1
0000
0000
0000
0000
,  // measure 2
0000
0000
0000
0000
,  // measure 3
0000
0000
0000
0000
,  // measure 4
0000
0000
0000
0000
,  // measure 5
0000
0000
0000
0000
,  // measure 6
1100
0000
0100
0000
0010
0100
0001
0000
,  // measure 7
0010
0000
0011
0000
0001
0100
0010
0000
,  // measure 8
1000
0000
1100
0000
1000
0010
0100
0000
,  // measure 9
0001
0010
0100
1000
0010
1000
0100
0010
,  // measure 10
0100
0000
0101
0000
0010
0100
1000
0000
,  // measure 11
0010
0000
1100
0000
1000
0100
0010
0000
,  // measure 12
0001
0000
0101
0000
0001
0010
0100
0000
,  // measure 13
1000
0100
0010
0100
0001
0010
0100
1000
,  // measure 14
0100
0000
0000
0000
1000
0000
1000
0100
,  // measure 15
1100
0000
0000
0000
0001
0000
0001
0100
,  // measure 16
0101
0000
0000
0000
0001
0000
1000
0001
,  // measure 17
1001
0000
0000
0000
,  // measure 18
1000
0000
0100
0000
,  // measure 19
1000
0100
0010
0100
0001
0000
0000
0000
,  // measure 20
0010
0000
0001
0000
,  // measure 21
0001
0100
0010
1000
0100
0000
0000
0000
,  // measure 22
1100
0000
0101
0000
,  // measure 23
0001
0010
0100
1000
0100
0010
0100
0001
,  // measure 24
0010
0000
1100
0000
,  // measure 25
0101
0010
0100
1000
0010
1000
0100
0010
,  // measure 26
0100
0000
1100
0000
1000
0100
0010
0000
,  // measure 27
0100
0000
0101
0000
0001
0010
0100
0000
,  // measure 28
0001
0010
0100
1000
0100
0010
0100
0000
,  // measure 29
0001
0000
0010
0000
1000
0200
0000
1000
,  // measure 30
0000
0000
1000
0000
0000
0000
1300
0001
,  // measure 31
0000
0002
0000
0103
,  // measure 32
0010
1000
0100
0010
0100
0001
0010
0100
,  // measure 33
1000
1100
0100
0101
,  // measure 34
0020
0000
0000
0000
0100
0000
0000
0100
,  // measure 35
0000
0100
0130
0000
,  // measure 36
2000
0000
0000
0000
0001
0000
0000
0001
,  // measure 37
0000
0001
3001
0000
,  // measure 38
0020
0000
0000
0000
0100
0000
0000
0100
,  // measure 39
0000
0100
0130
0000
,  // measure 40
0002
0000
0000
0000
1000
0000
0000
1000
,  // measure 41
0000
1000
1003
0000
,  // measure 42
1100
0000
0100
0000
0010
0000
0100
0001
,  // measure 43
0010
0100
1000
0000
1100
0000
0100
0000
,  // measure 44
0001
0000
0100
0000
0001
0010
1000
0100
,  // measure 45
0010
0100
0001
0000
0011
0000
0101
0000
,  // measure 46
0110
0000
0100
0000
0001
0010
0100
1000
,  // measure 47
0100
0000
1100
0000
1000
0100
0010
0100
,  // measure 48
0001
0000
0010
0000
0001
0010
0100
1000
,  // measure 49
0010
0100
0010
0100
0001
0010
0100
0000
,  // measure 50
0010
1000
0100
0010
0100
0001
0010
0100
,  // measure 51
1000
0010
1000
0100
0010
0100
0001
0010
,  // measure 52
0100
0000
0000
0000
0000
0000
0000
1100
,  // measure 53
0000
0000
0000
0000
0101
0000
0000
1001
,  // measure 54
0000
0000
0010
0000
1000
0100
0010
0100
,  // measure 55
0000
0001
0010
0000
0010
0100
0001
0010
,  // measure 56
0000
0010
1000
0000
1000
0100
0010
0100
,  // measure 57
0000
0001
0010
0000
0001
0010
0100
1000
,  // measure 58
0100
1100
1000
0101
,  // measure 59
0001
0010
0100
1000
0010
1000
0001
0100
,  // measure 60
0010
0101
0001
1100
,  // measure 61
0010
1000
0100
0010
0001
0100
0000
0101
,  // measure 62
0000
0000
1010
0000
0001
0010
1000
0100
,  // measure 63
0000
0000
1100
0000
0001
0100
0010
0010
,  // measure 64
0000
0000
0011
0000
0001
0010
0100
1000
,  // measure 65
0000
0000
1100
0000
1000
0010
0100
0000
,  // measure 66
0001
0010
0100
1000
0010
1000
0100
0010
,  // measure 67
0001
0010
0100
0010
0100
0001
0010
0000
,  // measure 68
0001
0100
0000
0100
1000
0000
1000
0100
,  // measure 69
0000
0100
0101
0000
0001
0010
0100
1000
,  // measure 70
0010
0000
1100
0000
0010
1000
0100
0000
,  // measure 71
0010
0000
0011
0000
0001
0010
0100
0000
,  // measure 72
0001
0010
0100
1000
0010
0100
0100
0000
,  // measure 73
0001
0000
0100
0000
0010
1000
0100
0000
,  // measure 74
0010
1000
0100
0010
0100
0001
0010
0010
,  // measure 75
0200
0000
0320
0000
,  // measure 76
1030
0000
0001
0000
0100
0001
0010
0100
,  // measure 77
1000
0000
1100
0000
1000
0010
0100
0001
,  // measure 78
0010
0000
0011
0000
0001
0010
0100
1000
,  // measure 79
0010
0000
1001
0000
0010
1000
0100
0000
,  // measure 80
0011
0000
0010
0000
0100
0010
1000
0000
,  // measure 81
0100
0000
1100
0000
1000
0010
0100
0000
,  // measure 82
0001
0000
0011
0000
0001
0100
0010
0000
,  // measure 83
1000
0100
0010
0001
0100
0001
0010
0100
,  // measure 84
0010
0000
1010
0000
0100
0010
0001
0000
,  // measure 85
0100
0000
0011
0000
0001
0010
0100
0000
,  // measure 86
1000
0000
1010
0000
1000
0100
0010
0000
,  // measure 87
0001
0010
0100
0010
1000
0100
0010
0001
,  // measure 88
0010
0000
0000
0000
0001
0000
0001
0010
,  // measure 89
0011
0000
0000
0000
1000
0000
1000
0010
,  // measure 90
2020
0000
0000
0000
,  // measure 91
0000
0000
0000
0000
,  // measure 92
3030
0000
0000
0000
;
