#TITLE:Caring Dance;
#SUBTITLE:;
#ARTIST:猫叉Master;
#TITLETRANSLIT:;
#SUBTITLETRANSLIT:;
#ARTISTTRANSLIT:Nekomata Master;
#GENRE:pop'n music;
#CREDIT:;
#BANNER:;
#BACKGROUND:;
#LYRICSPATH:;
#CDTITLE:;
#MUSIC:Caring Dance.ogg;
#OFFSET:1.570000;
#SAMPLESTART:78.019997;
#SAMPLELENGTH:15.000000;
#LASTBEATHINT:0.900812;
#SELECTABLE:YES;
#BPMS:0.000000=101.000000
;
#STOPS:
;
#BGCHANGES:;
#KEYSOUNDS:;
#ATTACKS:;

//---------------dance-single - ----------------
#NOTES:
     dance-single:
     :
     Easy:
     5:
     0.212421,0.258249,0.110144,0.275361,0.000000,189.000000,175.000000,14.000000,35.000000,0.000000,0.000000,0.212421,0.258249,0.110144,0.275361,0.000000,189.000000,175.000000,14.000000,35.000000,0.000000,0.000000:
0000
0000
0000
0000
,
0000
0000
0000
0000
,
0000
0000
0000
0000
,
0000
0000
0000
0000
,
0000
0000
0000
0000
,
1000
1000
0200
0300
,
0001
0001
0200
0300
,
1000
1000
0020
0030
,
0001
0001
0020
0030
,
0110
1000
0010
0100
,
0002
0100
0010
0103
,
0001
0100
0010
1000
,
2000
0001
0100
3010
,
1000
0010
0100
0010
,
2000
0001
0100
3001
,
0001
0100
0010
0100
,
0002
1000
0100
0013
,
0000
1001
0100
1000
,
0100
1001
0100
0001
,
0100
1001
0100
1000
,
0100
0020
0100
0100
,
0130
1001
0010
0001
,
0010
1001
0010
1000
,
0010
1001
0010
0001
,
0010
0200
0010
0010
,
0310
2000
3100
0200
,
0310
0020
0031
0002
,
1003
0002
0203
0320
,
2030
3002
1000
0100
,
0013
2000
3010
0020
,
0130
0200
0301
0002
,
1003
0002
0203
0320
,
2030
3002
1000
1000
,
1003
0000
0210
0310
,
1000
0010
0001
0100
,
0001
0100
1000
0010
,
0010
0100
0100
1000
,
0001
2002
3003
0001
,
0100
0010
1000
1000
,
0010
0100
0001
1000
,
1000
0001
0001
0100
,
0010
0220
0330
0001
,
0100
0010
1000
1000
,
0010
0100
0001
0001
,
0100
1000
0100
1000
,
0010
0001
0010
0100
,
1000
0100
1000
0010
,
0001
0010
0001
0100
,
0010
1000
0001
0100
,
0100
0010
0010
2002
,
3003
0000
0110
0110
0110
0000
0000
0000
;

//---------------dance-single - ----------------
#NOTES:
     dance-single:
     :
     Medium:
     9:
     0.327061,0.357576,0.086542,0.409107,0.027536,291.000000,280.000000,11.000000,52.000000,0.000000,0.000000,0.327061,0.357576,0.086542,0.409107,0.027536,291.000000,280.000000,11.000000,52.000000,0.000000,0.000000:
0000
0000
0000
0000
,
0000
0000
0000
0000
,
0000
0000
0000
0000
,
0000
0000
0000
0000
,
0000
0000
0000
0000
,
1000
0100
0010
0100
2000
0000
3001
0000
,
0001
0010
0100
0010
0002
0000
1003
0000
,
0100
0010
1000
0010
0200
0000
0310
0000
,
0010
0100
0001
0100
0020
0000
0130
0000
,
1000
0100
0010
0100
1000
0100
0010
0000
,
0001
0010
0100
0010
0001
0010
0100
0000
,
1000
0100
0001
0100
1000
0100
0001
0000
,
1000
0010
0001
0010
1000
0010
0001
0000
,
0100
0010
1000
0010
0100
0010
1000
0000
,
0100
0001
0100
0010
0100
0001
0100
0000
,
1000
0100
0001
0010
1000
0100
0002
0000
,
0013
0100
1000
0010
0001
0100
2000
0000
,
3001
0000
1001
0000
0110
0000
1000
0010
,
0100
0001
0110
0000
1001
0000
0001
0100
,
0010
1000
1001
0000
0110
0000
1000
0100
,
0010
0001
0200
0000
0320
0000
2030
0000
,
3002
0000
0103
1000
0010
0100
0002
0000
,
1003
0000
1000
0010
0100
0001
2000
0001
,
3001
0000
0100
0010
1000
0010
0100
0001
,
0100
0010
2000
0000
3200
0000
0302
0000
,
0023
0032
0103
0200
,
1300
0000
2000
0000
3010
0100
0002
0000
,
0103
0000
0020
0000
1030
0100
0020
0000
,
0130
0001
2000
0000
0001
0000
3200
0000
,
0010
0302
2003
3020
,
0230
0000
0302
0000
1003
0010
0200
0000
,
0320
0000
2030
0000
3001
0100
0020
0000
,
2030
3002
0100
2003
,
0010
0000
3000
0000
0110
0000
1001
0010
,
1000
0010
0002
0000
1003
0000
0001
0010
,
1000
0010
0002
0000
1003
0000
1000
0100
,
0001
0100
2000
0000
3001
0000
1000
0010
,
0001
0010
2000
0000
3001
0000
1000
0010
,
0100
0001
0100
0010
2000
0000
3001
0100
,
0010
1000
0010
0100
0002
0000
1003
0100
,
0010
0001
0010
0100
2000
0000
3001
0010
,
0100
1000
0100
0010
0002
0000
1003
0010
,
0100
0010
1000
0010
0100
0010
1000
0000
,
0010
0000
0000
0010
0001
0000
0000
0001
0100
0000
0000
0000
0001
0000
0100
0000
,
0010
0000
0100
0000
0001
0000
0100
0000
0010
0000
0100
0000
0001
0000
0000
0001
,
1000
0000
0000
1000
0010
0000
0000
0010
0100
0000
0000
0000
1000
0000
0100
0000
,
0001
0100
1000
0010
0001
0010
2000
0000
,
3002
0000
0203
0000
0320
0000
1030
0001
,
0010
0100
1000
0010
0100
0001
2000
0000
,
3002
0000
0000
0000
0023
0000
0000
0000
0230
0000
0000
0000
1300
0100
1000
0000
,
0001
0010
0001
0000
1001
0000
1100
0000
0101
0000
0000
0000
0000
0000
0000
0000
;

//---------------dance-single - ----------------
#NOTES:
     dance-single:
     :
     Beginner:
     1:
     0.092162,0.158922,0.023602,0.062940,0.000000,82.000000,79.000000,3.000000,8.000000,0.000000,0.000000,0.092162,0.158922,0.023602,0.062940,0.000000,82.000000,79.000000,3.000000,8.000000,0.000000,0.000000:
0000
0000
0000
0000
,
0000
0000
0000
0000
,
0000
0000
0000
0000
,
0000
0000
0000
0000
,
0000
0000
0000
0000
,
1000
0000
1000
0000
,
1000
0000
1000
0000
,
0001
0000
0001
0000
,
0001
0000
0001
0000
,
1000
0000
0100
0000
,
1000
0000
0100
0000
,
0001
0000
0010
0000
,
0001
0000
0010
0000
,
1000
0000
0001
0000
,
1000
0000
0001
0000
,
0100
0000
0010
0000
,
0100
0000
0010
0000
,
0000
2000
0000
3000
,
0000
0200
0000
0300
,
0000
2000
0000
3000
,
0000
0020
0000
0030
,
0000
0002
0000
0003
,
0000
0200
0000
0300
,
0000
0002
0000
0003
,
0000
0020
0000
0030
,
0000
1000
0000
0100
,
0000
0010
0000
0000
,
0000
0001
0000
0010
,
0000
0100
0000
0000
,
0000
1000
0000
0001
,
0000
1000
0000
0000
,
0000
0001
0000
1000
,
0000
0001
0000
0000
,
0000
0000
0000
0100
,
0000
0100
0000
0010
,
0000
0010
0000
0100
,
0000
0100
0000
0010
,
0000
0010
0000
1000
,
0000
1000
0000
0001
,
0000
0001
0000
1000
,
0000
1000
0000
0001
,
0000
0001
0000
1000
,
0000
0100
0000
1000
,
0000
0100
0000
0001
,
0000
0010
0000
0001
,
0000
0010
0000
1000
,
0000
0100
0000
0010
,
0000
0001
0000
0001
,
0000
0010
0000
0100
,
0000
1000
0000
1001
,
0000
0110
0110
0000
;

//---------------dance-single - ----------------
#NOTES:
     dance-single:
     :
     Hard:
     12:
     0.402364,0.476767,0.125879,0.472047,0.283228,358.000000,342.000000,16.000000,60.000000,0.000000,0.000000,0.402364,0.476767,0.125879,0.472047,0.283228,358.000000,342.000000,16.000000,60.000000,0.000000,0.000000:
// measure 0
0000
0000
0000
0000
,  // measure 1
0000
0000
0000
0000
,  // measure 2
0000
0000
0000
0000
,  // measure 3
0000
0000
0000
0000
,  // measure 4
0000
0000
0000
0000
,  // measure 5
1000
0000
0100
0010
1000
0000
0001
0000
0100
0000
0010
0000
0110
0000
0000
0000
,  // measure 6
0001
0000
0010
0100
0001
0000
1000
0000
0010
0000
0100
0000
0110
0000
0000
0000
,  // measure 7
1000
0000
0001
1000
0010
0000
0100
0000
0001
0000
1000
0000
1001
0000
0000
0000
,  // measure 8
0020
2030
3020
0230
0301
0110
1200
0000
,  // measure 9
2300
0000
0100
0000
0010
0000
3100
0010
,  // measure 10
0001
0000
0000
0000
1000
0000
0000
0001
0100
0000
0000
0100
0010
0000
0000
0010
,  // measure 11
2000
0000
0000
0000
0001
0000
0000
0000
0100
0000
0000
3000
0010
0000
0100
0000
,  // measure 12
0010
0000
0000
1000
0010
0000
0000
0010
0100
0000
0000
0100
0010
0000
0000
0010
,  // measure 13
0002
0000
0010
0000
0100
0000
0013
0100
,  // measure 14
0001
0000
0000
0001
0010
0000
0000
0010
0100
0000
0000
0100
1000
0000
0000
1000
,  // measure 15
0002
0000
0100
0000
0010
0000
1003
0010
,  // measure 16
0100
0000
0000
0010
0100
0000
0000
1000
0010
0000
0000
0001
1000
0000
0002
0000
,  // measure 17
0000
0000
0000
0000
0013
0000
0000
0010
0000
0000
0010
0000
1000
0000
0001
0000
,  // measure 18
0100
0000
0010
0000
1000
0000
0000
1000
0000
0000
1000
0000
0001
0000
0100
0000
,  // measure 19
0010
0000
1000
0000
0001
0000
0000
0001
0000
0000
0001
0000
1000
0000
0010
0000
,  // measure 20
0100
0000
0001
0000
2000
0000
0010
0000
0010
3000
0000
0000
0002
0000
0010
0000
,  // measure 21
0013
0000
1000
0010
0100
0001
1100
0100
,  // measure 22
0101
0000
0001
1000
0010
0100
0011
0010
,  // measure 23
1010
0000
1000
0010
0100
0001
0100
0010
,  // measure 24
1000
0001
0200
0001
0301
0010
2000
0010
,  // measure 25
3010
0100
0002
0000
0203
0000
2300
0000
,  // measure 26
3020
0000
0230
0000
0302
2003
3020
0000
,  // measure 27
0230
0000
0302
0000
2003
3020
0230
0000
,  // measure 28
0302
0023
1000
0230
,  // measure 29
0001
0320
0032
2003
,  // measure 30
3200
0000
2300
0000
3002
0203
0320
0000
,  // measure 31
2030
0000
3002
0000
2003
3020
0230
0000
,  // measure 32
0302
2003
0010
3002
,  // measure 33
0100
0000
0003
0000
0001
0100
1000
0010
,  // measure 34
0100
0001
1000
0010
0100
0000
0001
0000
2002
0000
3003
0000
0001
0000
0100
0000
,  // measure 35
0010
1000
0001
0100
0010
0000
1000
0000
2002
0000
3003
0000
0001
0010
0001
0100
,  // measure 36
0010
0100
0001
1000
0010
0000
1000
0000
0220
0000
0330
0000
0001
0000
1000
0000
,  // measure 37
0100
0000
0001
0000
2000
0000
0001
0000
3001
0000
0000
0000
1000
0010
0100
0001
,  // measure 38
0100
0010
1000
0000
0100
0000
0010
0000
1001
0000
0000
0000
0001
0100
0010
1000
,  // measure 39
0010
0100
0001
0000
0010
0000
0100
0000
1001
0000
0000
0000
0010
1000
0010
0100
,  // measure 40
0001
0100
0010
1000
0010
0000
0100
0000
0001
0000
1000
0000
0200
0000
0310
0000
,  // measure 41
0020
0000
0130
0000
2000
0000
0001
0000
3001
0000
1001
0000
0001
1000
0010
1000
,  // measure 42
0010
0100
0001
0100
0010
0000
1000
0100
1000
0000
0001
0010
0002
0000
0000
0000
,  // measure 43
0100
0000
0000
0000
1000
0000
0000
0000
0013
0000
0000
0000
0001
0100
0010
1000
,  // measure 44
0010
0100
0001
0100
0010
0000
0100
0010
0100
0000
0010
0100
0020
0000
0000
0001
,  // measure 45
1000
0000
0000
1000
0001
0000
0000
0001
1030
0000
0000
0000
1000
0010
0100
0001
,  // measure 46
0010
0100
1000
0010
0100
0000
0001
1000
0010
0000
0100
0000
2000
0000
0000
0000
,  // measure 47
0010
0000
0000
0000
0100
0000
0000
0000
3001
0000
0000
0000
0001
0100
0010
1000
,  // measure 48
0010
0100
0001
0100
0010
0000
1000
0100
0001
0000
0100
0000
0200
0000
0000
0001
,  // measure 49
1000
0000
0000
0000
0000
0000
1000
0000
0001
0000
0000
0000
0000
0000
0001
0000
1300
0000
0000
0000
0000
0000
0000
0000
0001
0000
0100
0000
1000
0100
1000
0000
,  // measure 50
0100
0010
0001
0010
1000
0000
0010
0100
0110
0000
0000
0000
0000
0000
0000
0000
;
