#TITLE:シオカラ節 (REDALiCE Remix);
#SUBTITLE:;
#ARTIST:REDALiCE;
#TITLETRANSLIT:Calamari Inkantation (REDALiCE Remix);
#SUBTITLETRANSLIT:;
#ARTISTTRANSLIT:;
#GENRE:Anime/Game;
#CREDIT:;
#BANNER:;
#BACKGROUND:;
#LYRICSPATH:;
#CDTITLE:;
#MUSIC:Calamari Inkantation (REDALiCE Remix).ogg;
#OFFSET:1.045000;
#SAMPLESTART:86.314957;
#SAMPLELENGTH:15.000000;
#SELECTABLE:YES;
#BPMS:0.000000=180.000000
;
#STOPS:
;
#BGCHANGES:;
#KEYSOUNDS:;
#ATTACKS:;

//---------------dance-single - ----------------
#NOTES:
     dance-single:
     :
     Easy:
     7:
     0.405937,0.514152,0.281930,0.304188,0.000000,383.000000,345.000000,38.000000,41.000000,0.000000,0.000000,0.405937,0.514152,0.281930,0.304188,0.000000,383.000000,345.000000,38.000000,41.000000,0.000000,0.000000:
// measure 0
0000
0000
0000
0000
,  // measure 1
0000
0000
0000
0000
,  // measure 2
0000
0000
0000
0000
,  // measure 3
0000
0000
0000
0000
,  // measure 4
0000
0000
0000
0000
,  // measure 5
0001
0001
0001
0001
,  // measure 6
1000
1000
1000
1000
,  // measure 7
0010
0010
0010
0010
,  // measure 8
0100
0100
0100
0100
,  // measure 9
0001
0100
0001
0100
,  // measure 10
1000
0100
1000
0100
,  // measure 11
0001
0010
0001
0010
,  // measure 12
1000
0010
1000
0010
,  // measure 13
0001
0100
1000
0100
,  // measure 14
0001
0010
1000
0010
,  // measure 15
1000
0100
0001
0100
,  // measure 16
1000
0010
0001
0010
,  // measure 17
0200
0010
0010
0310
,  // measure 18
2001
0000
3002
0000
,  // measure 19
0203
0000
0310
0010
,  // measure 20
1002
0000
0203
0000
,  // measure 21
0010
0010
0020
0330
,  // measure 22
0001
0100
1000
0100
,  // measure 23
0010
0001
0010
0100
,  // measure 24
0200
0310
0020
0130
,  // measure 25
2001
0001
0001
3001
,  // measure 26
0110
1000
0010
0100
,  // measure 27
0001
0001
0100
0100
,  // measure 28
0001
0010
1000
0100
,  // measure 29
0001
0100
0010
0110
,  // measure 30
1000
0100
0010
0001
,  // measure 31
1000
1000
0100
0100
,  // measure 32
0001
0100
1000
0010
,  // measure 33
0200
0010
1000
0310
,  // measure 34
0001
0100
2002
3003
,  // measure 35
0010
1000
0100
0001
,  // measure 36
1000
0010
2002
3003
,  // measure 37
0100
1000
0010
0100
,  // measure 38
0001
0010
0022
0033
,  // measure 39
0100
0001
0100
0010
,  // measure 40
1000
0100
1200
0300
,  // measure 41
0210
0010
0010
0310
,  // measure 42
1001
1000
1001
0000
,  // measure 43
1001
0001
1001
0000
,  // measure 44
0110
0100
0110
0000
,  // measure 45
0110
0010
0110
0000
,  // measure 46
1000
0100
0020
0030
,  // measure 47
0001
0010
0200
0300
,  // measure 48
1000
0100
0001
0001
,  // measure 49
0010
0100
0001
1000
,  // measure 50
2001
0000
3002
0000
,  // measure 51
0203
0000
0310
0001
,  // measure 52
2000
0000
3020
0000
,  // measure 53
0031
0100
2000
3010
,  // measure 54
0002
0000
0103
0000
,  // measure 55
2000
0000
3100
0010
,  // measure 56
0002
0000
0203
0000
,  // measure 57
0310
0010
0010
0010
,  // measure 58
1001
0100
0100
0100
,  // measure 59
1001
0100
0100
0100
,  // measure 60
1001
0100
0100
0100
,  // measure 61
1001
0100
0100
0100
,  // measure 62
1001
0100
1001
0100
,  // measure 63
1001
0100
1001
0100
,  // measure 64
0210
0010
0010
0010
,  // measure 65
0020
0000
0000
0000
,  // measure 66
0330
0000
0000
1001
,  // measure 67
0110
0010
0100
1000
,  // measure 68
0010
0010
1000
0001
,  // measure 69
0100
0100
0001
1000
,  // measure 70
0010
1000
0100
0001
,  // measure 71
0110
1000
0010
0100
,  // measure 72
0001
0010
1000
0100
,  // measure 73
0002
0013
2000
3100
,  // measure 74
0010
1000
0001
1001
,  // measure 75
0020
1000
0100
0031
,  // measure 76
0200
0001
0010
1300
,  // measure 77
0002
1000
0100
0013
,  // measure 78
2000
0001
0010
3100
,  // measure 79
0110
1000
1100
1000
,  // measure 80
1001
0101
0110
1000
,  // measure 81
0200
0010
0001
1300
,  // measure 82
0020
0100
0001
1030
,  // measure 83
0100
0001
0100
0001
,  // measure 84
0100
1000
0100
1000
,  // measure 85
0010
1000
0010
1000
,  // measure 86
0010
0001
0010
0001
,  // measure 87
0100
1000
0010
0001
,  // measure 88
0100
1000
0010
0001
,  // measure 89
0001
0010
0100
1000
,  // measure 90
0001
0010
0100
1000
,  // measure 91
0001
0100
0001
0100
,  // measure 92
1000
0100
1000
0100
,  // measure 93
0001
0010
0001
0010
,  // measure 94
1000
0010
1000
0010
,  // measure 95
0001
0001
0001
0001
,  // measure 96
1000
1000
1000
1000
,  // measure 97
0010
0010
0010
0010
,  // measure 98
0100
0100
0100
0100
,  // measure 99
1001
0000
0000
0000
;

//---------------dance-single - ----------------
#NOTES:
     dance-single:
     :
     Beginner:
     5:
     0.191840,0.293801,0.155804,0.103869,0.000000,181.000000,160.000000,21.000000,14.000000,0.000000,0.000000,0.191840,0.293801,0.155804,0.103869,0.000000,181.000000,160.000000,21.000000,14.000000,0.000000,0.000000:
0000
0000
0000
0000
,
0000
0000
0000
0000
,
0000
0000
0000
0000
,
0000
0000
0000
0000
,
0000
0000
0000
0000
,
1001
0000
0100
0000
,
0100
0000
0100
0000
,
1001
0000
0010
0000
,
0010
0000
0010
0000
,
0110
0000
0001
0000
,
0001
0000
0001
0000
,
0110
0000
1000
0000
,
1000
0000
1000
0000
,
1001
0000
0100
0000
,
0100
0000
0100
0000
,
1001
0000
0010
0000
,
0010
0000
0010
0000
,
0020
0000
0000
0030
,
2000
0000
0000
0000
,
3002
0000
0000
0000
,
2003
0000
0000
0000
,
3002
0000
0000
0000
,
0203
0000
0000
0000
,
0320
0000
0000
0000
,
0130
0000
0100
0000
,
0010
0000
0010
0000
,
1000
0000
0100
0000
,
1000
0000
0100
0000
,
0001
0000
0100
0000
,
0001
0000
0100
0000
,
1000
0000
0010
0000
,
1000
0000
0010
0000
,
0001
0000
0010
0000
,
0001
0000
0010
0000
,
0100
0000
0200
0000
,
0300
0000
1000
0000
,
0010
0000
0010
0000
,
0001
0000
0001
0000
,
0010
0000
0020
0000
,
0030
0000
0001
0000
,
0100
0000
0100
0000
,
0010
0010
0010
0000
,
1001
0000
0000
0000
,
0100
0000
0000
0000
,
0010
0000
0000
0000
,
0100
0000
0000
0000
,
0001
0000
0000
0000
,
1000
0000
0000
0000
,
0001
0000
0000
0000
,
1000
0000
0000
0000
,
0110
0000
0000
0000
,
0010
0000
0000
0000
,
0100
0000
0000
0000
,
0010
0000
0000
0000
,
1000
0000
0000
0000
,
0001
0000
0000
0000
,
1000
0000
0000
0000
,
0001
0000
0000
0000
,
1001
0000
0000
0000
,
1001
0000
0000
0000
,
1001
0000
0000
0000
,
1001
0000
0000
0000
,
1001
0000
0000
0000
,
0100
0000
0000
0000
,
0100
0000
0100
0000
,
0200
0000
0000
0000
,
0310
0010
0010
1001
,
0100
0000
0100
0000
,
0010
0000
0010
0000
,
1000
0000
1000
0000
,
0001
0000
0001
0000
,
1000
0000
0100
0000
,
0010
0000
0010
0000
,
0001
0000
0010
0000
,
0100
0000
0100
0000
,
1000
0000
0100
0000
,
0001
0000
0001
0000
,
0010
0000
0100
0000
,
1000
0000
1000
0000
,
0010
0000
0100
0000
,
0001
0000
0010
0000
,
1000
0000
0100
0000
,
0010
0000
0100
0000
,
2001
0000
0001
0000
,
0001
0000
3001
0000
,
1002
0000
1000
0000
,
1000
0000
1003
0000
,
0210
0000
0010
0000
,
0010
0000
0310
0000
,
0120
0000
0100
0000
,
0100
0000
0130
0000
,
1001
0000
0100
0000
,
0100
0000
0100
0000
,
1001
0000
0010
0000
,
0010
0000
0010
0000
,
1000
0000
0100
0000
,
0010
0000
0001
0000
,
0100
0000
0010
0000
,
0100
0000
0010
0000
,
1001
0000
0000
0000
;

//---------------dance-single - ----------------
#NOTES:
     dance-single:
     :
     Medium:
     11:
     0.487549,0.624328,0.252254,0.111288,0.000000,460.000000,426.000000,34.000000,15.000000,0.000000,0.000000,0.487549,0.624328,0.252254,0.111288,0.000000,460.000000,426.000000,34.000000,15.000000,0.000000,0.000000:
0000
0000
0000
0000
,
0000
0000
0000
0000
,
0000
0000
0000
0000
,
0000
0000
0000
0000
,
0000
0000
0000
0000
,
1010
0100
0100
0100
,
0101
0010
0010
0010
,
1001
0100
0100
0100
,
1001
0010
0010
0010
,
0101
0100
1000
0010
,
1010
0010
0001
0100
,
0101
0100
1000
0010
,
1010
0010
0001
0100
,
0010
0010
0100
0100
,
0001
0001
1000
1000
,
0010
1000
0010
0100
,
0001
0100
0010
1000
,
2001
0001
0001
3001
,
0010
0100
0010
0100
,
0001
1000
0001
1000
,
1000
0100
0010
0001
,
0100
0010
1000
0001
,
0010
0100
0010
0100
,
0001
1000
0001
1000
,
0001
0010
0100
1000
0100
0010
0001
0010
,
0100
0010
0100
0010
1000
0001
1000
0001
,
0010
1000
0100
0010
,
0001
0000
0100
0000
0010
0100
0010
0000
,
1000
0100
0001
0010
,
0100
0000
1000
0000
0001
1000
0001
0000
,
1000
0100
0010
0001
,
0100
0000
1000
0000
0001
1000
0001
0000
,
1000
0100
0001
0010
,
1000
0000
0010
0000
0100
0010
0100
0000
,
1001
0100
1000
0010
,
0100
0000
0100
0000
0010
0100
0010
0000
,
1000
0100
0010
0001
,
0010
0000
0010
0000
0100
0001
0100
0000
,
1000
0010
0001
0100
,
0001
0000
0001
0000
1000
0010
1000
0000
,
0100
1000
0001
0010
,
0210
0010
0020
0330
,
0001
0100
1000
0010
,
1000
0010
0001
0100
,
0100
1000
0001
0010
,
1000
0010
1000
0000
0001
0000
1001
0000
,
0010
1000
0001
0000
0100
0000
0010
0000
,
1000
0010
0100
0000
0001
0000
0010
0000
,
0001
0000
0001
0100
0010
0000
1000
0010
,
0100
0001
0100
1001
,
0020
0000
0130
0000
0001
0000
0100
0010
,
2000
0000
3010
0000
1000
0000
0001
0100
,
0020
0000
0130
0000
0001
0000
1000
0001
,
0200
0000
0310
0000
0001
0000
1000
0100
,
1001
0000
0100
0000
1000
0000
0010
0100
,
1010
0000
0100
0000
0001
0000
0100
0010
,
0101
0000
0100
0001
0010
0000
1000
0010
,
0100
0000
0001
0000
0100
0000
1000
0001
,
0210
0010
0010
0310
,
2001
0001
0001
3001
,
0021
0001
0001
0031
,
0210
0000
0010
0000
0010
0000
0310
0010
,
0101
0100
1100
1000
,
1010
0010
0011
0001
,
0001
0010
0100
1000
0100
0010
0001
0010
,
0200
0000
0000
0000
,
0010
0010
0310
1001
,
1000
0000
0100
0000
1000
0000
0010
0100
,
0001
1000
0010
0100
,
0001
0000
0001
0010
0100
0000
1000
0100
,
0010
1000
0001
1001
,
1000
0000
0010
0100
0001
0000
1000
0010
,
0100
1000
0001
0010
,
2000
0000
3100
0010
0002
0000
0013
0100
,
1000
0000
0010
0000
0100
0000
0001
1000
,
0010
1000
0100
0001
,
0100
0000
0010
0000
1000
0000
0001
0010
,
1000
0100
0010
1000
,
0001
0000
0100
0000
0010
0000
1000
0001
,
0100
0000
0010
0000
1000
0000
0001
0010
,
1000
0000
0100
0000
0010
0000
1000
0010
,
0100
0000
0001
0100
0010
0000
1000
0000
,
2001
0010
0100
3001
,
1001
0010
0010
0010
,
0100
0100
0100
0100
,
1000
1000
1000
1000
,
0001
0001
0001
0001
,
1000
0100
0010
0001
,
0100
0010
1000
0001
,
0001
0100
0010
1000
,
0010
0100
0001
1001
,
0110
1000
0010
0100
,
0011
0100
0010
1000
,
1100
0001
0100
0010
,
1001
0000
0100
0000
1000
0000
0001
0100
,
0010
1000
0001
0100
,
0010
0000
1000
0000
0100
1000
0010
0000
,
0100
0001
1000
0000
0010
0100
0001
0000
,
1000
0100
0010
0000
0001
0010
0100
0000
,
1001
0000
0000
0000
;

//---------------dance-single - ----------------
#NOTES:
     dance-single:
     :
     Hard:
     14:
     0.644413,0.734503,0.341284,0.089031,0.063063,608.000000,562.000000,46.000000,12.000000,0.000000,0.000000,0.644413,0.734503,0.341284,0.089031,0.063063,608.000000,562.000000,46.000000,12.000000,0.000000,0.000000:
0000
0000
0000
0000
,
0000
0000
0000
0000
,
0000
0000
0000
0000
,
0000
0000
0000
0000
,
0000
0000
0000
0000
,
1010
0100
0001
1000
,
0101
0010
1000
0001
,
0100
1000
0010
0101
,
1000
0010
0001
0110
,
1000
0010
1000
1000
,
0100
0010
0001
0001
,
0100
0010
1000
1000
,
0010
0100
0001
0001
,
0100
1000
0001
0110
,
0001
1000
0010
0110
,
1000
0001
0100
1001
,
0010
1000
0100
1001
,
0210
0010
0010
0310
,
0001
0000
0100
0010
1000
0000
0100
0010
,
0001
0000
0100
0010
1000
0001
0010
0100
,
1000
0000
1000
0100
0001
0000
0001
0010
,
1000
0010
0100
1000
0001
0000
0010
0100
,
1000
0000
0010
0100
0001
0000
1000
0100
,
0010
0100
0001
0010
0100
1000
0010
0100
,
0001
0000
0001
0100
1000
0000
1000
0010
,
0001
0100
0010
1000
0010
0100
0001
1000
,
2001
0010
0100
3001
,
0120
0100
0001
0130
,
2001
0010
0100
3001
,
0010
1000
0100
0000
0010
0100
0001
0010
,
1010
0000
0001
0000
1000
0010
0100
0000
,
0001
0000
0100
0000
0010
0000
0000
0000
0001
0100
0000
0100
0001
0000
1000
0000
,
0001
0000
0100
0000
0010
1000
0001
0000
,
0010
1000
0100
0010
0001
1000
1001
0000
,
0010
1000
0200
0000
0310
0000
0011
0000
,
1010
0000
1000
0010
0100
0001
0010
1000
,
0010
0000
0100
0001
0010
0000
1000
0001
,
0100
0010
1000
0010
0100
0100
0010
0000
,
1001
0000
0010
1000
0100
0000
0010
0100
,
0001
0010
1000
0100
0010
0010
0100
0100
,
1000
0000
0010
0100
0001
1000
0100
0010
,
0200
1000
0001
1300
,
0020
1000
0100
0031
,
0200
0001
0010
1300
,
0100
0000
1000
0000
0001
0100
0010
0000
,
1000
0000
0001
0000
0100
1000
0010
0000
,
0100
1000
0001
0000
0010
1000
0100
0000
,
0010
0100
0001
0010
0100
1000
0010
0000
,
1000
0000
0010
1000
0001
0000
1000
0100
,
0001
0100
0010
1000
0100
0001
0010
0000
,
0201
0010
1000
0310
,
1020
0100
0001
0130
,
2001
0100
0001
3100
,
1002
0100
1000
0103
,
0010
1000
0100
0000
0010
0100
0001
0000
,
0001
0010
0100
1000
0010
1000
0100
0001
,
0010
0000
0010
0100
1000
0000
1000
0100
,
0010
0100
0001
0010
0100
1000
0010
0100
,
1001
0001
1001
1000
,
1001
1000
1001
0001
,
1001
1000
1001
1000
,
1001
0000
0001
0000
1001
0000
0001
0001
,
0100
0010
1000
0100
0010
0100
0001
0010
,
0100
1000
0010
0100
0001
1000
0010
0100
,
0010
0000
0100
0000
0001
0000
0100
0000
0001
1000
0001
1000
0001
1000
0001
1000
,
0000
0000
0000
0000
,
1100
0101
1100
1001
,
0010
0000
1000
0010
0100
0000
0001
0100
,
0010
0000
1000
0100
0010
0100
0001
0010
,
0100
0000
0010
0100
0001
0000
1000
0100
,
0010
0000
0100
0000
0001
0000
0010
0000
0100
0000
0000
0000
0001
0000
1000
0001
,
1000
0000
0010
1000
0100
0000
0010
0100
,
0001
0010
1000
0100
0010
0100
0001
0010
,
0110
0000
0100
1000
1100
0000
1000
0100
,
0010
0100
0001
0010
0100
1000
0010
0100
,
0101
0000
0010
0100
1100
0000
1000
0100
,
0101
0000
0001
0010
0100
1000
0010
0100
,
0110
0000
0001
0010
1010
0000
1000
0100
,
0011
0000
0001
0000
0010
0000
1000
0000
0100
0000
0010
0000
0100
0000
0001
1000
,
0001
0000
0010
0100
1001
0000
0100
1000
,
0010
0000
0100
0000
0001
0000
0100
0000
0010
0000
1000
0000
0001
0000
1000
0001
,
1000
0000
0000
0000
0010
0000
0100
0010
0100
0000
0000
0000
0001
0000
1000
0001
,
1000
0000
0100
0000
0001
0000
0100
0000
0010
0000
1000
0000
0001
1000
0001
1000
,
0001
0000
1000
0100
0010
0000
0001
0010
,
0100
0000
1000
0100
0010
0100
0001
0100
,
0010
0000
0100
0010
1000
0000
0010
0100
,
0001
0000
1000
0100
0010
0100
0001
0100
,
0101
0000
0100
1000
0010
0000
0100
0001
,
0010
0000
0000
0000
1000
0000
0010
0000
0100
1000
0000
1000
0100
0000
0001
0000
,
0100
0000
1000
0100
0010
0000
0001
0100
,
0010
0100
1000
0010
1000
0100
0001
0100
,
1001
0000
0001
0010
0100
0000
1000
0100
,
0010
0000
0001
0010
0100
0010
1000
0010
,
0100
0000
0010
0100
0001
0000
0100
0010
,
1000
0000
0001
0010
0100
0010
1000
0010
,
1010
0000
0010
0001
0100
0000
0010
1000
,
0100
0000
0000
0000
0001
0000
0100
0000
0010
0001
0000
0001
0010
0000
1000
0000
,
0010
0000
0001
0010
0100
0000
1000
0010
,
0100
0010
0001
0100
0001
0010
1000
0010
,
1001
0000
0000
0000
;
