#TITLE:CRAZY NOISY BIZARRE TOWN ~EDM ARRANGE VER.~;
#SUBTITLE:;
#ARTIST:The DU;
#TITLETRANSLIT:;
#SUBTITLETRANSLIT:;
#ARTISTTRANSLIT:;
#GENRE:Anime/Game;
#CREDIT:Nanolite;
#BANNER:;
#BACKGROUND:;
#LYRICSPATH:;
#CDTITLE:;
#MUSIC:CRAZY NOISY BIZARRE TOWN -EDM ARRANGE VER-.ogg;
#OFFSET:1.670000;
#SAMPLESTART:49.486031;
#SAMPLELENGTH:15.000000;
#LASTBEATHINT:1.428106;
#SELECTABLE:YES;
#BPMS:0.000000=136.000000
;
#STOPS:
;
#BGCHANGES:;
#KEYSOUNDS:;
#ATTACKS:;

//---------------dance-single - ----------------
#NOTES:
     dance-single:
     :
     Easy:
     4:
     0.238933,0.313818,0.081304,0.360059,0.005807,144.000000,137.000000,7.000000,31.000000,0.000000,0.000000,0.238933,0.313818,0.081304,0.360059,0.005807,144.000000,137.000000,7.000000,31.000000,0.000000,0.000000:
// measure 0
0000
0000
0000
0000
,  // measure 1
0000
0000
0000
0000
,  // measure 2
0000
0000
0000
0000
,  // measure 3
0000
0000
0000
0000
,  // measure 4
1000
0000
1000
0000
,  // measure 5
0001
0000
0001
0000
,  // measure 6
0200
0000
0300
0000
,  // measure 7
0010
0010
0010
0010
,  // measure 8
0001
0000
0001
0000
,  // measure 9
1000
0000
1000
0000
,  // measure 10
0200
0300
2000
3000
,  // measure 11
0002
0003
0020
0030
,  // measure 12
1000
0100
1000
0100
,  // measure 13
0010
0010
0020
0030
,  // measure 14
0001
0010
0001
0010
,  // measure 15
0100
0100
0200
0300
,  // measure 16
1000
0100
1000
0100
,  // measure 17
0010
0001
0010
0001
,  // measure 18
2000
0000
3002
0000
,  // measure 19
2003
0000
3002
0000
,  // measure 20
1003
0100
0010
1001
,  // measure 21
0001
0010
0100
1001
,  // measure 22
1000
0100
1000
0100
,  // measure 23
0001
0010
0001
0010
,  // measure 24
1000
0100
0010
1001
,  // measure 25
0001
0010
0100
1001
,  // measure 26
1000
0010
0100
0001
,  // measure 27
2002
0000
0000
3003
,  // measure 28
0020
0100
0200
0330
,  // measure 29
0001
0100
1000
0100
,  // measure 30
0001
0010
0020
0030
,  // measure 31
1000
0100
0001
0100
,  // measure 32
1000
0010
0020
0030
,  // measure 33
1000
0010
0100
0001
,  // measure 34
0100
0010
2000
0000
,  // measure 35
3002
0000
0023
0000
,  // measure 36
0230
0000
2300
3000
,  // measure 37
1000
0010
0001
0010
,  // measure 38
1000
0100
0200
0300
,  // measure 39
0001
0010
1000
0010
,  // measure 40
0001
0100
0200
0300
,  // measure 41
0001
0100
0010
1000
,  // measure 42
0010
0100
0002
0000
,  // measure 43
2003
0000
3200
0000
,  // measure 44
0320
0000
0032
0000
,  // measure 45
1003
1000
2000
0000
,  // measure 46
3001
0001
0002
0000
,  // measure 47
1003
0000
0100
0000
,  // measure 48
0010
0000
0000
0000
0000
0000
0000
0000
0001
0000
0000
0000
0000
0000
0000
1001
,  // measure 49
0000
0110
0000
0000
0000
0000
0000
0000
;

//---------------dance-single - ----------------
#NOTES:
     dance-single:
     :
     Beginner:
     2:
     0.136059,0.170738,0.023230,0.000000,0.000000,82.000000,80.000000,2.000000,0.000000,0.000000,0.000000,0.136059,0.170738,0.023230,0.000000,0.000000,82.000000,80.000000,2.000000,0.000000,0.000000,0.000000:
// measure 0
0000
0000
0000
0000
,  // measure 1
0000
0000
0000
0000
,  // measure 2
0000
0000
0000
0000
,  // measure 3
0000
0000
0000
0000
,  // measure 4
1000
0000
0000
0000
,  // measure 5
0001
0000
0000
0000
,  // measure 6
1000
0000
0000
0000
,  // measure 7
0001
0000
0000
0000
,  // measure 8
0100
0000
0000
0000
,  // measure 9
0010
0000
0000
0000
,  // measure 10
0100
0000
0000
0000
,  // measure 11
0010
0000
0000
0000
,  // measure 12
1000
0000
1000
0000
,  // measure 13
1000
0000
0000
0000
,  // measure 14
0001
0000
0001
0000
,  // measure 15
0001
0000
0000
0000
,  // measure 16
1000
0000
1000
0000
,  // measure 17
1000
0000
0000
0000
,  // measure 18
0001
0000
0001
0000
,  // measure 19
0001
0000
0000
0000
,  // measure 20
0100
0000
0100
0000
,  // measure 21
0010
0000
0000
0000
,  // measure 22
0010
0000
0010
0000
,  // measure 23
0100
0000
0000
0000
,  // measure 24
0100
0000
0100
0000
,  // measure 25
0010
0000
0000
0000
,  // measure 26
0010
0000
0010
0000
,  // measure 27
0100
0000
0000
0000
,  // measure 28
1001
0000
0000
0000
,  // measure 29
1000
0000
0100
0000
,  // measure 30
1000
1000
1000
0000
,  // measure 31
0001
0000
0010
0000
,  // measure 32
0001
0001
0001
0000
,  // measure 33
1000
0000
0010
0000
,  // measure 34
1000
1000
1000
0000
,  // measure 35
0001
0000
0100
0000
,  // measure 36
0001
0001
0001
0000
,  // measure 37
0001
0000
0010
0000
,  // measure 38
0001
0001
0001
0000
,  // measure 39
1000
0000
0100
0000
,  // measure 40
1000
1000
1000
0000
,  // measure 41
0001
0000
0100
0000
,  // measure 42
0001
0001
0001
0000
,  // measure 43
1000
0000
0010
0000
,  // measure 44
1000
1000
1000
0000
,  // measure 45
0001
0000
0100
0000
,  // measure 46
0001
0000
0000
0000
,  // measure 47
1000
0000
0010
0000
,  // measure 48
1000
0000
0000
0000
,  // measure 49
1001
0000
0000
0000
;

//---------------dance-single - ----------------
#NOTES:
     dance-single:
     :
     Medium:
     7:
     0.328533,0.342346,0.127763,0.429748,0.023230,198.000000,187.000000,11.000000,37.000000,0.000000,0.000000,0.328533,0.342346,0.127763,0.429748,0.023230,198.000000,187.000000,11.000000,37.000000,0.000000,0.000000:
// measure 0
0000
0000
0000
0000
,  // measure 1
0000
0000
0000
0000
,  // measure 2
0000
0000
0000
0000
,  // measure 3
0000
0000
0000
0000
,  // measure 4
1000
0100
1000
0010
,  // measure 5
1000
0001
1000
0100
,  // measure 6
0001
0010
0001
0100
,  // measure 7
0001
1000
0001
0100
,  // measure 8
1000
0010
0100
0010
,  // measure 9
1000
0000
0001
0000
0100
0000
0010
0001
,  // measure 10
0000
0000
0100
1000
0000
0000
0010
0001
,  // measure 11
0000
0100
0010
0200
0000
0000
0010
0000
,  // measure 12
0310
0001
0100
1000
,  // measure 13
0010
1000
2002
3003
,  // measure 14
1000
0010
0100
0001
,  // measure 15
0010
0100
0220
0330
,  // measure 16
1000
0000
0010
0000
0001
1000
0001
0000
,  // measure 17
0010
0000
0100
0000
1000
0001
1000
0000
,  // measure 18
0020
0100
0001
0100
,  // measure 19
2030
0000
0000
0000
3002
0000
0000
0003
0200
0000
0000
0000
0320
0000
0000
0000
,  // measure 20
1030
0001
1000
0000
0010
0000
1001
0000
,  // measure 21
0100
0010
0220
0330
,  // measure 22
0001
1000
0001
0000
0100
0000
0110
0000
,  // measure 23
1000
0001
0220
0330
,  // measure 24
0001
0100
1000
0000
0010
0000
0100
0000
,  // measure 25
1000
0001
0100
0010
,  // measure 26
1000
0100
0010
0002
0000
2003
0000
3002
,  // measure 27
0000
0000
1000
0000
1000
0000
1003
0010
,  // measure 28
0000
0010
0100
0010
0200
0000
0310
0000
,  // measure 29
0001
0100
0010
1000
,  // measure 30
0001
1000
0000
2002
0000
0000
3003
0000
,  // measure 31
0001
0100
1000
0010
,  // measure 32
0100
0010
0000
0220
0000
0000
0330
0000
,  // measure 33
0001
1000
0100
0010
,  // measure 34
1000
0000
0001
2000
0000
0000
0001
0000
,  // measure 35
3001
0200
2300
3020
,  // measure 36
0032
0000
1000
0000
1000
0000
1003
0100
,  // measure 37
1000
0010
0100
0001
,  // measure 38
1000
0001
0000
2002
0000
0000
3003
0000
,  // measure 39
1000
0010
0001
0100
,  // measure 40
0010
0100
0000
0220
0000
0000
0330
0000
,  // measure 41
1000
0001
0010
0100
,  // measure 42
0001
0000
1000
0002
0000
0000
1000
0000
,  // measure 43
1003
0020
0032
0203
,  // measure 44
2300
0000
0001
0000
0001
0000
3001
0010
,  // measure 45
0000
0000
0100
0010
0000
0000
0001
1000
,  // measure 46
0000
0001
1000
0001
0000
1000
0000
1000
,  // measure 47
0001
0000
0100
0000
0000
1000
0000
0000
0100
0000
0000
0001
0000
0000
0100
0000
,  // measure 48
0000
1000
0000
0000
0002
0000
0000
0000
0000
0000
0000
0000
0103
0000
0000
1000
,  // measure 49
0000
1001
0000
0000
0000
0000
0000
0000
;

//---------------dance-single - ----------------
#NOTES:
     dance-single:
     :
     Hard:
     11:
     0.532622,0.656164,0.220681,0.267141,0.081304,321.000000,302.000000,19.000000,23.000000,0.000000,0.000000,0.532622,0.656164,0.220681,0.267141,0.081304,321.000000,302.000000,19.000000,23.000000,0.000000,0.000000:
// measure 0
0000
0000
0000
0000
,  // measure 1
0000
0000
0000
0000
,  // measure 2
0000
0000
0000
0000
,  // measure 3
0000
0000
0000
0000
,  // measure 4
1000
0100
0010
0100
0001
0100
0010
0100
,  // measure 5
1000
0001
0100
0010
1000
0100
0010
0100
,  // measure 6
0002
1000
0100
0013
,  // measure 7
2000
0001
0010
3100
,  // measure 8
0001
0100
0010
1000
0010
0100
0001
1000
,  // measure 9
0010
0100
0001
0010
0100
1000
0100
1100
,  // measure 10
0000
0100
0010
0110
0000
0001
0010
0011
,  // measure 11
0000
0010
0100
1001
0010
0100
1000
0010
,  // measure 12
0100
0001
0100
1000
0010
0000
1001
0000
,  // measure 13
1000
0010
0100
0001
1000
0010
0100
0000
,  // measure 14
0001
0100
0010
1000
0001
0000
1001
0000
,  // measure 15
1000
0100
0001
0100
1000
0100
0001
0010
,  // measure 16
1000
0010
0100
0001
1000
0000
1001
0000
,  // measure 17
0001
0010
1000
0010
0001
0010
1000
0010
,  // measure 18
0001
0100
0010
1000
0001
1000
0010
0100
,  // measure 19
0001
0100
0001
0100
1000
0100
1000
0100
,  // measure 20
1000
0010
0100
0001
0100
0010
2000
0000
,  // measure 21
3001
0100
0010
1000
0010
0100
0002
0000
,  // measure 22
1003
0010
0100
0001
0010
0100
2000
0000
,  // measure 23
3001
0100
0010
1000
0100
0010
0002
0000
,  // measure 24
0103
0010
1000
0001
0100
0001
0100
0010
,  // measure 25
1000
0100
0001
0100
1000
0100
1000
0010
,  // measure 26
0100
0001
1000
0020
0000
0230
0000
0302
,  // measure 27
0000
0000
1000
0000
1003
0000
1000
0010
,  // measure 28
0100
0010
0100
0000
1000
0001
1000
0000
0001
0010
0001
0010
0001
0000
0000
0000
,  // measure 29
0001
0100
0010
1000
1100
0000
1001
0000
,  // measure 30
0001
0100
0010
2000
0000
0000
3001
0000
,  // measure 31
0001
0100
0010
1000
1001
0000
0101
0000
,  // measure 32
1000
0010
0100
0002
0000
0000
1003
0000
,  // measure 33
0001
0100
1000
0001
0100
0010
1000
0000
,  // measure 34
1000
0010
0001
1000
0010
0100
0001
0000
,  // measure 35
0200
0320
2030
3002
,  // measure 36
0203
0000
0010
0000
0001
0000
1300
0010
,  // measure 37
1000
0010
0100
0001
0011
0000
1001
0000
,  // measure 38
1000
0010
0100
0002
0100
0000
1003
0000
,  // measure 39
1000
0010
0100
0001
1001
0000
1010
0000
,  // measure 40
0001
0100
0010
2000
0010
0000
3001
0000
,  // measure 41
1000
0010
0001
1000
0010
0100
0001
0000
,  // measure 42
0001
0100
1000
0001
0100
0010
1000
0000
,  // measure 43
0020
0230
0302
2003
,  // measure 44
3020
0000
0100
0000
1000
0000
0031
0100
,  // measure 45
0000
0100
0010
0110
0000
0010
0001
0011
,  // measure 46
0000
0001
1000
1001
0000
0001
0100
1000
,  // measure 47
0100
0000
0010
0000
0001
0010
0000
0010
0100
0000
0100
1000
0000
1000
0010
0000
,  // measure 48
0010
0001
0000
0001
1000
0000
1000
0001
0000
0000
0001
0010
0100
1000
0001
1000
,  // measure 49
0000
1001
0000
0000
0000
0000
0000
0000
;
