#TITLE:Brain Power;
#SUBTITLE:;
#ARTIST:NOMA;
#TITLETRANSLIT:;
#SUBTITLETRANSLIT:;
#ARTISTTRANSLIT:;
#GENRE:SOUND VOLTEX;
#CREDIT:;
#BANNER:;
#BACKGROUND:;
#LYRICSPATH:;
#CDTITLE:;
#MUSIC:Brain Power.ogg;
#OFFSET:-1.335000;
#SAMPLESTART:71.861000;
#SAMPLELENGTH:15.000000;
#SELECTABLE:YES;
#BPMS:0.000000=170.011993
,172.000000=170.250000
,180.000000=170.750000
,186.000000=171.250000
,194.000000=171.899994
,201.000000=172.699997
,202.000000=172.850006
,204.000000=173.000000
;
#STOPS:
;
#BGCHANGES:;
#KEYSOUNDS:;
#ATTACKS:;

//---------------dance-single - ----------------
#NOTES:
     dance-single:
     :
     Beginner:
     4:
     0.183877,0.164176,0.008756,0.078804,0.000000,137.000000,1.000000,9.000000,0.000000,0.000000,0.000000,0.183877,0.164176,0.008756,0.078804,0.000000,137.000000,1.000000,9.000000,0.000000,0.000000,0.000000:
0000
0000
0000
0000
,
0000
0000
0000
0000
,
0000
0000
0000
0000
,
1000
0000
0100
0000
,
1000
0000
0100
0000
,
0010
0000
0100
0000
,
0010
0000
0100
0000
,
0001
0000
0010
0000
,
0001
0000
0010
0000
,
1000
0000
0100
0000
,
0010
0000
0001
0000
,
1000
0000
0100
0000
,
0010
0000
0001
0000
,
1000
0000
0010
0000
,
0100
0000
0001
0000
,
1000
0000
0010
0000
,
0100
0000
0001
0000
,
0100
0000
0100
0000
,
2000
0000
3000
0000
,
0010
0000
0010
0000
,
0002
0000
0003
0000
,
0100
0000
1000
0000
,
0020
0000
0030
0000
,
0001
0000
0100
0000
,
0020
0000
0030
0000
,
1000
0000
1000
0000
,
0020
0000
0030
0000
,
0001
0000
0001
0000
,
0200
0000
0300
0000
,
1000
0000
0010
0000
,
0200
0000
0300
0000
,
0001
0000
0010
0000
,
0200
0000
0300
0000
,
1000
0000
0010
0000
,
1000
0000
0100
0000
,
1000
0000
0010
0000
,
0100
0000
0010
0000
,
0001
0000
0010
0000
,
0001
0000
0100
0000
,
0001
0000
0010
0000
,
0100
0000
0010
0000
,
1000
0000
0100
0000
,
1000
0000
0100
0000
,
0001
0000
0100
0000
,
0001
0000
0100
0000
,
1000
0000
0010
0000
,
1000
0000
0010
0000
,
0001
0000
0010
0000
,
0001
0000
0010
0000
,
0200
0000
0000
0000
,
0300
0000
0000
0000
,
1000
0000
0100
0000
,
1000
0000
0100
0000
,
0001
0000
0100
0000
,
0001
0000
0100
0000
,
1000
0000
0010
0000
,
1000
0000
0010
0000
,
0001
0000
0010
0000
,
0001
0000
0010
0000
,
1000
0000
0100
0000
,
0010
0000
0001
0000
,
1000
0000
0010
0000
,
0100
0000
0001
0000
,
1000
0000
0100
0000
,
0010
0000
0001
0000
,
1000
0000
0010
0000
,
0100
0000
0001
0000
,
1000
0000
0100
0000
,
1000
1000
1000
0000
,
0001
0000
0010
0000
,
0001
0001
0001
0000
,
0100
0000
0010
0000
,
0100
0100
0100
0000
,
1000
0000
0100
0000
,
0010
0000
0001
0000
,
1001
0000
0000
0000
;

//---------------dance-single - ----------------
#NOTES:
     dance-single:
     :
     Easy:
     7:
     0.424042,0.459692,0.402777,0.105072,0.000000,281.000000,46.000000,12.000000,0.000000,0.000000,0.000000,0.424042,0.459692,0.402777,0.105072,0.000000,281.000000,46.000000,12.000000,0.000000,0.000000,0.000000:
0000
0000
0000
0000
,
0000
0000
0000
0000
,
0000
0000
0000
0000
,
1000
0100
1000
0100
,
0001
0100
0001
0100
,
1000
0100
1000
0100
,
0001
0100
0001
0100
,
1000
0100
1000
0100
,
0001
0100
0001
0100
,
0010
1000
0010
1000
,
0010
0001
0010
0001
,
1000
0010
1000
0010
,
0001
0010
0001
0010
,
1000
0010
0100
0001
,
1000
0010
0100
0001
,
0100
0010
1000
0001
,
0100
0010
1000
1001
,
0010
1000
0001
1000
,
0010
0100
0001
1001
,
0010
1000
0100
0001
,
0010
1000
0010
0110
,
0001
1000
0100
0010
,
0001
0100
0010
1001
,
0010
1000
0001
0100
,
0010
0000
1000
0000
0001
1000
0001
0000
,
0010
1000
0010
0100
,
0001
1000
0010
1001
,
0010
1000
0001
1000
,
0010
0100
0001
1001
,
0010
1000
0100
0001
,
0010
1000
0010
0110
,
0001
1000
0010
1000
,
0001
0000
0100
0000
0010
0000
0010
0100
,
0002
0000
0103
0010
,
2000
0000
3010
0100
,
0002
0000
0103
0010
,
2000
0000
3010
0100
,
0020
0000
0031
1000
,
0200
0000
1300
0001
,
0020
0000
0031
1000
,
0200
0000
0310
0001
,
1000
0010
1000
0010
,
0001
0010
0001
0010
,
1000
0100
1000
0100
,
0001
0100
0001
0100
,
0010
1000
0010
0100
,
0001
0010
0100
1000
,
0020
1000
0001
0130
,
0002
0100
1000
0010
,
0200
0000
0000
0000
,
0303
0000
0001
1000
,
1001
1001
0010
0010
,
1001
1001
0100
0100
,
1100
1100
0010
0010
,
1100
1100
0001
0001
,
0011
0011
1000
1000
,
0011
0011
0100
0100
,
1000
0010
0100
0001
,
0100
0010
1000
1001
,
1100
0100
0101
0001
,
0101
0100
1100
1000
,
1010
0010
0011
0001
,
1001
1000
1100
0101
,
0100
1000
0010
0100
,
0001
0100
0010
0110
,
1000
0001
0100
0010
,
1000
0000
0010
0000
0001
1000
0001
0000
,
1000
1100
0001
0101
,
0001
0011
1010
0011
,
1001
1001
0010
0110
,
1010
1001
0101
0110
,
0011
0001
0010
0000
0001
0000
1000
0000
,
1100
1000
0100
0000
0010
0000
1000
0000
,
0011
0001
0010
0000
0001
0000
1000
0000
,
0020
0000
0130
0001
,
1001
0000
0000
0000
;

//---------------dance-single - ----------------
#NOTES:
     dance-single:
     :
     Medium:
     11:
     0.527864,0.492527,0.105072,0.122584,0.000000,396.000000,12.000000,14.000000,0.000000,0.000000,0.000000,0.527864,0.492527,0.105072,0.122584,0.000000,396.000000,12.000000,14.000000,0.000000,0.000000,0.000000:
0000
0000
0000
0000
,
0000
0000
0000
0000
,
0000
0000
0000
0000
,
1000
0100
1000
0000
0010
0000
0110
0000
,
0001
0010
0001
0000
1000
0000
1001
0000
,
0001
0100
1000
0000
0010
0000
0110
0000
,
1000
0010
0001
0000
0100
0000
0110
0000
,
0001
0100
1000
0000
0010
0000
1001
0000
,
0010
1000
0100
0000
0001
0000
0100
0000
,
0010
1000
0001
0000
0200
0000
0310
0000
,
1000
0001
0010
0000
0020
0000
0130
0000
,
0001
1000
0010
0000
0002
0000
1003
0000
,
0010
0100
1000
0000
0200
0000
0301
0000
,
0010
1000
0001
0000
0001
0100
1000
0000
,
0010
0010
0100
0100
,
1000
0010
0001
0000
0100
0010
0001
0000
,
2000
0000
3020
0000
,
0031
0000
0100
0000
0010
1000
0001
0000
,
0100
0010
1000
0001
,
0100
0000
0010
0000
1000
0010
0001
0000
,
0100
0010
1000
1001
,
0010
1000
0001
0000
0100
0000
0010
0000
,
1000
0001
0010
0100
,
0001
0100
0010
0000
1000
0000
0010
0000
,
0200
0001
1000
0001
,
0310
0000
0001
0000
1000
0010
0001
0000
,
1000
0000
0010
0000
0100
0001
0010
0000
,
1000
0000
0001
0000
0001
0010
1000
0000
,
0001
0100
0010
1001
,
1000
0000
0010
0000
1000
0001
0100
0000
,
0010
0000
1000
0000
0001
0100
0010
0000
,
1000
0000
0010
0000
0001
1000
0010
0000
,
0200
0010
0001
0010
,
1300
0000
1010
0001
,
0102
0000
0100
0000
,
0013
1000
1010
0001
,
0012
0000
0010
0103
,
1000
1000
0010
0010
,
0100
0100
0001
0001
,
2000
0010
0001
3010
,
0002
0000
0010
0000
0100
0000
0010
0003
,
0010
0000
0100
0000
0010
1000
0001
0000
,
0100
0000
0010
0000
1000
0001
0010
0000
,
0100
0000
0010
0000
1000
0001
0010
0000
,
1000
0000
0010
0000
0100
0001
0010
0000
,
1000
0000
0010
0000
0001
0100
1000
0000
,
0010
0000
1000
0000
0001
1000
0010
0000
,
1000
0010
0100
0000
0001
0000
1000
0000
,
0001
0100
0010
0000
1000
0000
0010
0000
,
0200
0010
1000
0010
,
0020
0000
0000
0330
,
0001
0100
0001
0100
0001
0100
0001
0100
,
0001
0100
1000
0100
0001
0100
1000
0000
,
1000
0010
1000
0010
1000
0010
1000
0010
,
1000
0010
0001
0010
1000
0010
0001
0000
,
0010
0100
0010
0100
0010
0100
0010
0100
,
0010
0100
1000
0100
0010
0100
1000
0000
,
0001
0010
0001
0010
0001
0010
0001
0010
,
0001
0010
0100
0010
0001
0010
0100
0000
,
0010
1000
0001
1000
0010
1000
0001
1000
,
0010
1000
0001
0100
0010
1000
0001
0000
,
0001
0100
0010
0100
0001
0100
0010
0100
,
0001
0100
0010
1000
0001
0100
0010
0000
,
1000
0010
0100
0010
1000
0010
0100
0010
,
1000
0010
0100
0001
0010
1000
0100
0000
,
0001
0100
1000
0100
0001
0100
1000
0100
,
0001
0100
1000
0010
0001
0010
1000
0000
,
0010
1000
0001
0100
0010
1000
0001
0100
,
0001
0100
0010
1000
0010
0100
0001
0000
,
0010
1000
0010
0100
0010
1000
0010
0001
,
0010
1000
0010
0100
0001
0010
1000
0000
,
0010
1000
0001
0010
0100
1000
0010
1000
,
0100
0001
0010
0100
0010
1000
0001
0000
,
0010
1000
0001
0100
0010
0001
0100
1000
,
0010
1000
0100
0010
0100
0001
0100
0000
,
1001
0000
0000
0000
;

//---------------dance-single - ----------------
#NOTES:
     dance-single:
     :
     Hard:
     13:
     0.724249,0.656702,0.140096,0.105072,0.232035,551.000000,16.000000,12.000000,0.000000,0.000000,0.000000,0.724249,0.656702,0.140096,0.105072,0.232035,551.000000,16.000000,12.000000,0.000000,0.000000,0.000000:
0000
0000
0000
0000
,
0000
0000
0000
0000
,
0000
0000
0000
0000
,
0001
0010
0100
0000
0010
1000
0100
0000
,
1000
0100
0010
0000
0100
0010
0001
0000
,
0010
0100
0001
0000
0001
0100
1000
0000
,
0010
1000
0010
0000
0100
0001
0010
0000
,
1000
0010
0100
0000
0001
0010
1000
0000
,
0001
0010
0001
0000
0010
0100
1000
0000
,
0001
0100
0010
1000
0010
0100
0001
0000
,
1000
0010
0100
0001
0100
0010
1000
0000
,
0010
1000
0001
0010
1000
0010
0001
0000
,
1000
0010
0100
0001
0010
0100
1000
0000
,
0010
1000
0010
1000
0001
1000
0001
1000
,
0001
0100
0001
0100
0001
0010
0100
0010
,
0100
1000
0010
1000
0100
0001
0010
0100
,
2001
0000
0000
0001
0000
0000
0001
0000
0000
0001
0000
0000
3001
0000
0000
0000
,
0010
1000
0100
0010
0100
0001
1001
0000
,
0001
0100
0010
1000
0001
1000
1001
0000
,
0010
1000
0100
0001
0010
0100
0110
0000
,
0001
0100
0010
1000
0100
0010
1100
0000
,
0100
0010
1000
0001
0010
0100
0011
0000
,
0001
0010
0100
0001
1000
0010
1001
0000
,
0010
1000
0100
0010
0001
0100
0101
0000
,
1001
0010
1000
0010
0100
0000
1001
0000
,
0010
1000
0100
0010
0100
0001
0101
0000
,
0100
0010
1000
0100
1000
0010
0110
0000
,
0001
0010
1000
0010
0100
0001
1100
0000
,
0010
1000
0010
1000
0001
0010
0011
0000
,
0010
0100
0010
1000
0001
0100
0010
1000
,
0001
0001
0100
0100
0010
0010
1000
1000
,
0001
0100
0010
1000
0100
0001
0010
0100
,
1000
1000
0010
0010
0100
0100
0001
0001
,
0200
0010
1000
0010
,
0302
0100
0010
0100
,
2003
0010
0100
0010
,
3002
0010
0100
1000
,
0203
0010
1000
0010
,
0320
0001
0100
0001
,
1030
0010
0100
0001
,
2000
3020
0032
0023
,
0130
0001
1000
0010
0100
0001
1000
0000
,
0010
1000
0010
0100
0001
0010
0100
0000
,
0010
1000
0001
0010
0100
1000
0010
0000
,
1000
0010
0100
0001
0010
0100
1000
0000
,
1000
0100
1000
0100
0001
0100
0001
0100
,
0001
0010
0001
0010
1000
0010
1000
0010
,
1000
0001
0010
0100
1000
0010
1000
0100
,
0010
0100
0001
0010
0100
1000
0010
0100
,
0002
0100
0010
0100
,
0013
0000
0000
0100
0000
0000
0001
0000
0000
1000
0000
0000
1001
0000
0000
0000
,
0001
1000
0001
0000
0001
1000
0001
0000
0001
1000
0001
0000
0001
1000
0001
0000
,
0001
0001
0010
0100
0010
1000
0001
0100
,
0010
0100
0010
0000
0010
0100
0010
0000
0010
0100
0010
0000
0010
0100
0010
0000
,
0001
0010
1000
0100
0010
0001
0010
1000
,
1000
0100
1000
0000
1000
0100
1000
0000
1000
0100
1000
0000
1000
0100
1000
0000
,
0100
0010
0100
0001
0010
1000
0100
0010
,
0001
0010
0001
0000
0001
0010
0001
0000
0001
0010
0001
0000
0001
0010
0001
0000
,
0001
0010
0100
1000
0010
1000
0100
0010
,
1000
0010
1000
0000
0010
0100
0010
0000
1000
0010
1000
0000
0010
0100
0010
0000
,
0001
0010
0100
1000
0010
0001
0010
0100
,
0100
0010
0100
0000
0001
0100
0001
0000
0100
0010
0100
0000
0001
0100
0001
0000
,
0010
0100
1000
0010
0100
0001
0010
1000
,
0001
1000
0001
0000
1000
0010
1000
0000
0001
1000
0001
0000
1000
0010
1000
0000
,
0001
0010
1000
0100
0010
0001
0010
1000
,
0001
1000
0001
0000
0100
0001
0100
0000
0001
1000
0001
0000
0100
0001
0100
0000
,
0001
0010
1000
0100
0010
0001
0010
1000
,
0010
0100
0001
0000
0100
0010
1000
0000
0010
0100
0001
0000
0100
0010
1000
0000
,
0010
1000
0001
0010
0100
1000
0010
0100
,
0001
0010
0100
0000
1000
0100
0010
0000
0001
0010
0100
0000
1000
0100
0010
0000
,
0001
0010
1000
0100
0010
0001
1000
0010
,
1000
0010
0100
0000
0001
0100
0010
0000
1000
0010
0100
0000
0001
0100
0010
0000
,
1000
0010
0100
0001
0010
1000
0100
0010
,
0001
0100
0010
0000
1000
0010
0100
0000
0001
0010
0100
0000
1000
0100
0010
0000
,
0001
0000
0010
0000
1000
0000
0010
0000
0100
0000
0010
0100
0001
0000
1000
0000
,
1001
0000
0000
0000
;
