#TITLE:Boundcloud;
#SUBTITLE:;
#ARTIST:DJ SIMON;
#TITLETRANSLIT:;
#SUBTITLETRANSLIT:;
#ARTISTTRANSLIT:;
#GENRE:DDR;
#CREDIT:;
#BANNER:;
#BACKGROUND:;
#LYRICSPATH:;
#CDTITLE:;
#MUSIC:Boundcloud.ogg;
#OFFSET:1.620000;
#SAMPLESTART:37.151028;
#SAMPLELENGTH:15.000000;
#LASTBEATHINT:1.257087;
#SELECTABLE:YES;
#BPMS:0.000000=130.000000
;
#STOPS:
;
#BGCHANGES:;
#KEYSOUNDS:;
#ATTACKS:;

//---------------dance-single - ----------------
#NOTES:
     dance-single:
     :
     Easy:
     3:
     0.198068,0.244140,0.043058,0.576979,0.000000,161.000000,156.000000,5.000000,67.000000,0.000000,0.000000,0.198068,0.244140,0.043058,0.576979,0.000000,161.000000,156.000000,5.000000,67.000000,0.000000,0.000000:
0000
0000
0000
0000
,
0000
0000
0000
0000
,
0000
0000
0000
0000
,
0000
0000
0000
0000
,
0000
0000
0000
0000
,
2002
0000
0000
3003
,
2000
0000
3002
0000
,
0023
0000
0000
0000
,
0130
0100
0001
1000
,
0020
0000
0130
0000
,
0002
1003
2000
3001
,
0020
0000
0000
0000
,
1030
1000
0001
0100
,
2000
0000
3100
0000
,
0020
0130
2000
3001
,
0010
1000
0100
0010
,
0002
0000
0203
0000
,
1300
0010
0200
0310
,
0001
0100
0020
0130
,
2000
0000
3002
0000
,
1003
0010
0200
0000
,
0310
1000
0010
0001
,
0200
0010
0010
0310
,
0002
0000
2003
0000
,
3001
0100
0010
1001
,
0200
0000
0310
0000
,
1000
0010
0100
0001
,
0020
0000
0130
0000
,
0001
0100
0010
1000
,
1100
0100
2000
0000
,
3020
0100
0130
0000
,
0011
0001
0020
0000
,
0230
0010
0310
0000
,
1000
0200
0310
0000
,
0001
0010
0100
0000
,
2000
0000
3002
0000
,
1003
0010
0100
0001
,
0200
0000
0000
0000
,
0310
1000
0010
1000
,
0020
0000
0000
0000
,
0130
0001
0100
0001
,
0200
0000
0000
0000
,
0301
1000
0001
1000
,
0002
0000
2003
0000
,
3010
0100
0020
0000
,
0130
2000
0000
3200
,
0000
0320
0000
0032
,
0000
0203
0000
0320
,
0000
2030
0000
3002
,
0000
0203
0000
2300
,
0000
3020
0000
0032
,
0000
0203
0000
0320
,
0000
1030
0001
1001
,
2000
3000
2000
3000
,
0200
0300
0200
0300
,
0020
0030
0020
0030
,
0002
0003
0002
0003
,
1000
0100
2000
0000
,
3001
0100
0002
0000
,
1003
0010
2000
0000
,
3001
0010
0002
0000
,
2003
0000
3200
0000
,
0320
0000
0032
0000
,
0003
0000
0000
0000
;

//---------------dance-single - ----------------
#NOTES:
     dance-single:
     :
     Beginner:
     1:
     0.075044,0.106784,0.051670,0.146398,0.000000,61.000000,55.000000,6.000000,17.000000,0.000000,0.000000,0.075044,0.106784,0.051670,0.146398,0.000000,61.000000,55.000000,6.000000,17.000000,0.000000,0.000000:
0000
0000
0000
0000
,
0000
0000
0000
0000
,
0000
0000
0000
0000
,
0000
0000
0000
0000
,
0000
0000
0000
0000
,
0002
0000
0000
0000
,
1003
0000
1000
0000
,
2000
0000
0000
0000
,
3000
0000
0000
0000
,
2000
0000
0000
0000
,
3001
0000
0001
0000
,
0002
0000
0000
0000
,
0003
0000
0000
0000
,
0200
0000
0000
0000
,
0310
0000
0010
0000
,
0020
0000
0000
0000
,
0030
0000
0000
0000
,
0020
0000
0000
0000
,
0130
0000
0100
0000
,
0200
0000
0000
0000
,
0300
0000
0000
0000
,
1000
0000
0000
0000
,
0100
0000
0000
0000
,
1000
0000
0000
0000
,
0010
0000
0000
0000
,
1000
0000
0000
0000
,
0100
0000
0000
0000
,
1000
0000
0000
0000
,
0010
0000
0000
0000
,
0001
0000
0000
0000
,
0100
0000
0000
0000
,
0001
0000
0000
0000
,
0010
0000
0000
0000
,
0001
0000
0000
0000
,
0100
0000
0000
0000
,
0001
0000
0000
0000
,
0010
0000
0000
0000
,
1001
0000
0000
0000
,
0000
0000
0000
0000
,
0110
0000
0000
0000
,
0000
0000
0000
0000
,
1001
0000
0000
0000
,
0000
0000
0000
0000
,
0110
0000
0000
0000
,
0200
0000
0000
0000
,
0320
0000
0000
0000
,
1030
0000
1000
0000
,
2000
0000
0000
0000
,
3000
0000
0000
0000
,
2000
0000
0000
0000
,
3010
0000
0010
0000
,
0020
0000
0000
0000
,
0030
0000
0000
0000
,
0200
0000
0000
0000
,
0301
0000
0001
0000
,
0002
0000
0000
0000
,
0003
0000
0000
0000
,
0002
0000
0000
0000
,
0103
0000
0100
0000
,
0200
0000
0000
0000
,
0300
0000
0000
0000
,
1001
0000
0000
0000
,
0110
0000
0000
0000
;

//---------------dance-single - ----------------
#NOTES:
     dance-single:
     :
     Medium:
     6:
     0.290335,0.379271,0.129174,0.482251,0.004306,236.000000,221.000000,15.000000,56.000000,0.000000,0.000000,0.290335,0.379271,0.129174,0.482251,0.004306,236.000000,221.000000,15.000000,56.000000,0.000000,0.000000:
0000
0000
0000
0000
,
0000
0000
0000
0000
,
0000
0000
0000
0000
,
0000
0000
0000
0000
,
1000
0100
0010
1001
,
0002
0100
0100
0103
,
0001
0100
0010
1000
,
0200
0010
0010
0010
,
1000
1000
1000
1300
,
2100
0100
0100
3100
,
0010
0100
0001
1000
,
0020
0001
0001
0001
,
0100
0100
0100
0130
,
0002
0100
0010
0103
,
2000
0010
0100
3010
,
0002
1000
0100
0013
,
2000
0001
0010
3100
,
0020
1000
0100
0031
,
0200
0001
0010
1300
,
0002
0013
2000
3100
,
0020
0000
1000
0030
0200
0000
0301
0000
,
0010
1000
0010
0100
,
0002
0203
0320
2030
,
3002
0100
0010
1000
,
0100
0100
1000
1003
,
0010
0100
0001
1000
,
0020
0032
2003
3200
,
0320
1000
0100
0001
,
0100
0100
1000
1030
,
0001
1000
0010
0110
,
1000
0001
0100
0110
,
0002
0103
2000
3100
,
0002
0013
2000
3010
,
0001
1000
0001
0000
0100
0000
0110
0000
,
1000
0001
1000
0000
0010
0000
0110
0000
,
2000
3100
0200
0310
,
0020
0031
0002
1003
,
0020
1000
1000
0030
,
0002
0100
0010
0100
,
0203
0001
0001
0300
,
0010
1000
0010
0100
,
2000
0010
0010
3000
,
0001
0100
0010
1000
,
0002
0100
0100
0003
,
1000
0010
0100
0001
,
2100
0100
0000
0100
,
0000
0010
0000
0010
,
3002
0100
0000
0100
,
0000
0010
0000
0010
,
0203
0010
0000
0010
,
0000
1000
0000
1000
,
0320
0100
0000
0100
,
0001
0001
0002
0033
,
0001
0100
0010
1100
,
1000
0010
0100
0011
,
0002
0103
2000
3100
,
0002
0013
2000
3010
,
0200
2300
3020
0032
,
0203
0320
2030
3002
,
0103
1000
0010
0100
,
1001
1001
0110
0110
,
2002
0000
0000
3003
,
0001
0000
0000
0100
0000
0000
0010
0000
0000
1000
0000
1001
;

//---------------dance-single - ----------------
#NOTES:
     dance-single:
     :
     Hard:
     8:
     0.346926,0.406361,0.155009,0.516698,0.073199,282.000000,264.000000,18.000000,60.000000,0.000000,0.000000,0.346926,0.406361,0.155009,0.516698,0.073199,282.000000,264.000000,18.000000,60.000000,0.000000,0.000000:
0000
0000
0000
0000
,
0000
0000
0000
0000
,
0000
0000
0000
0000
,
0000
0000
0000
0000
,
1000
0000
0100
0000
0010
0000
0001
0000
0000
1001
0000
0000
,
0001
0100
1000
0010
,
0200
2300
3020
0230
,
0302
0103
2000
3100
,
0002
0013
2000
3010
,
0001
0100
0010
1000
,
0002
0203
0320
2030
,
3002
0103
2000
3100
,
0002
0013
2000
3010
,
1000
0010
0100
0000
0001
0000
1001
0000
,
0001
0100
0010
0000
1000
0000
1001
0000
,
1000
0001
0010
0000
0010
0000
0110
0000
,
0001
1000
0100
0000
0100
0000
0110
0000
,
2000
3100
0020
0130
,
0002
0013
0200
1300
,
0001
0100
1000
0000
0010
0000
1001
0000
,
1000
0010
0001
0000
0100
0000
1001
0000
,
0100
1000
0010
0100
,
0002
0203
0320
2030
,
3001
0000
0100
1000
0010
0000
1000
0010
,
0100
0000
0001
0100
0010
1000
1001
0000
,
0010
0001
0100
0010
,
2000
3020
0230
0302
,
1003
0000
0010
0001
0100
0000
0001
0100
,
0010
0000
1000
0010
0100
0001
1001
0000
,
2000
3100
0200
0310
,
0020
0031
0002
1003
,
0001
0100
0010
1000
,
2000
3020
0230
0302
,
1003
0000
0110
0000
1000
0001
0100
0000
,
0010
0000
1001
0000
0010
0100
1000
0000
,
0002
0103
2000
3100
,
0002
0013
2000
3010
,
0001
1000
0000
2000
0000
0000
0000
0000
0000
0000
0000
0000
3010
0000
0010
0200
,
0000
0010
0010
0310
,
1000
0010
0000
0020
0000
0000
0000
0000
0000
0000
0000
0000
0031
0000
0001
0200
,
0000
0001
0001
0301
,
0010
0100
0000
0020
0000
0000
0000
0000
0000
0000
0000
0000
1030
0000
0001
2000
,
0000
0010
0100
3010
,
0001
0000
0000
1000
0000
0000
0000
0000
0010
0000
0000
0100
0000
0000
0000
0000
,
1000
0000
0000
0100
0000
0000
0010
0000
0011
0000
0000
0000
1001
0000
0000
0000
,
0020
0100
0000
1000
,
0000
0100
0000
0001
,
0230
0001
0000
0010
,
0000
1000
0000
0310
,
0001
0000
0100
0000
0010
1000
0010
0000
,
1000
0000
0010
0000
0001
0100
0001
0000
,
2000
3100
0002
0013
,
2000
3010
0002
0013
,
1000
0010
0100
0000
0001
0000
0101
0000
,
0001
0100
0010
0000
1000
0000
1010
0000
,
1000
0010
0100
0000
0001
0100
0010
0000
,
2000
3200
0320
0032
,
1003
0001
0100
0010
1000
0000
1001
0000
,
0001
1000
0010
0100
0001
0000
1001
0000
,
0100
1000
0010
0000
0100
0001
0010
0000
,
2000
3010
0002
0013
,
2000
0100
3002
0100
,
1003
0000
0010
0000
0100
0000
0001
0000
0000
0000
0000
1001
;

//---------------dance-single - ----------------
#NOTES:
     dance-single:
     :
     Challenge:
     10:
     0.434272,0.568906,0.206679,0.671707,0.150704,353.000000,329.000000,24.000000,78.000000,0.000000,0.000000,0.434272,0.568906,0.206679,0.671707,0.150704,353.000000,329.000000,24.000000,78.000000,0.000000,0.000000:
// measure 0
0000
0000
0000
0000
,  // measure 1
0000
0000
0000
0000
,  // measure 2
0000
0000
0000
0000
,  // measure 3
0000
0000
0000
0000
,  // measure 4
1000
0100
0010
0001
0010
0100
1000
0000
0000
1001
0000
0000
,  // measure 5
0110
0000
1000
0000
0010
0100
0001
0000
,  // measure 6
2000
3100
0020
0031
,  // measure 7
0010
0100
0001
0000
1000
0010
0100
0000
,  // measure 8
0001
0100
0010
1000
0001
0100
0110
0000
,  // measure 9
2000
3010
0002
0013
,  // measure 10
1000
0010
0100
0000
0001
0100
0010
0000
,  // measure 11
2000
3100
0200
0310
,  // measure 12
0001
0100
0010
1000
0010
0100
0001
0000
,  // measure 13
0200
0301
0020
1030
,  // measure 14
0100
0010
1000
0000
0001
0100
0010
0000
,  // measure 15
1000
0100
0010
0001
0100
0010
1001
0000
,  // measure 16
0020
0230
2300
3002
,  // measure 17
0103
0010
1000
0000
0001
0100
0010
0000
,  // measure 18
1000
0010
0100
0001
0010
0100
1001
0000
,  // measure 19
0200
2300
3020
0032
,  // measure 20
0203
0010
1000
0310
,  // measure 21
0101
0000
1100
0000
0010
1000
0001
0000
,  // measure 22
2000
3020
0230
0302
,  // measure 23
2003
0000
0000
0000
3010
0000
0100
0010
0200
0000
0000
0000
0301
0000
1000
0001
,  // measure 24
1000
0000
0010
0000
0100
0000
0001
0000
0100
0000
0010
0000
1000
0100
0010
0100
,  // measure 25
1000
0000
0011
0000
0100
0001
1000
0000
,  // measure 26
0002
0203
0320
2030
,  // measure 27
3002
0000
0000
0000
0103
0000
0010
0100
0020
0000
0000
0000
1030
0000
0001
1000
,  // measure 28
0001
0000
0100
0000
0010
0000
1000
0000
0010
0000
0100
0000
0001
0010
0100
0010
,  // measure 29
0001
0101
1000
1100
,  // measure 30
1000
0010
0100
0001
0100
0010
1010
0000
,  // measure 31
1000
1010
0001
0011
,  // measure 32
0001
0100
0010
1000
0010
0100
0101
0000
,  // measure 33
0200
2300
3020
0032
,  // measure 34
0203
0310
2000
3001
,  // measure 35
0200
2300
3020
0032
,  // measure 36
0023
0100
0001
0130
,  // measure 37
1000
0010
0000
0200
0000
0000
0000
0000
0010
0000
0000
0000
0301
0000
0010
0200
,  // measure 38
0000
1000
0001
1300
,  // measure 39
0100
1000
0000
0002
0000
0000
0000
0000
1000
0000
0000
0000
0013
0000
1000
0002
,  // measure 40
0000
0100
0010
0103
,  // measure 41
0010
0001
0000
2000
0000
0000
0000
0000
0001
0000
0000
0000
3100
0000
0001
2000
,  // measure 42
0000
0010
0100
3010
,  // measure 43
0001
1000
0000
1000
0010
0000
0100
0000
1000
0001
0000
0001
0100
0000
0010
0000
,  // measure 44
0101
0000
0000
1100
0000
0000
1001
0000
1001
0000
0001
0000
0000
0100
0000
0000
,  // measure 45
2000
3200
0320
0032
,  // measure 46
0203
0320
2030
3002
,  // measure 47
0203
1000
0001
1000
,  // measure 48
0320
1000
0001
1000
,  // measure 49
0032
0023
0230
2300
,  // measure 50
3020
0230
0302
2003
,  // measure 51
3020
0001
1000
0001
,  // measure 52
0230
0001
1000
0001
,  // measure 53
0301
0100
0010
1000
0001
1000
1001
0000
,  // measure 54
1000
0010
0100
0001
1000
0001
1001
0000
,  // measure 55
1000
0100
0001
0100
1000
0100
1001
0000
,  // measure 56
0001
0010
1000
0010
0001
0010
1001
0000
,  // measure 57
1000
0100
0020
0000
0130
0001
2000
0000
,  // measure 58
3010
0100
0002
0000
1003
0010
0200
0000
,  // measure 59
2300
3200
0320
0032
,  // measure 60
1003
0000
0010
0100
0001
1000
0110
0000
,  // measure 61
2000
3200
0320
0032
,  // measure 62
1003
0010
0100
0001
0100
0010
1000
0001
0100
0010
1000
1001
;
