#TITLE:ぼくらの16bit戦争;
#SUBTITLE:;
#ARTIST:sasakure.UK;
#TITLETRANSLIT:;
#SUBTITLETRANSLIT:;
#ARTISTTRANSLIT:;
#GENRE:Vocaloid;
#CREDIT:;
#BANNER:;
#BACKGROUND:;
#LYRICSPATH:;
#CDTITLE:;
#MUSIC:Bokura no 16bit sensou.ogg;
#OFFSET:0.425000;
#SAMPLESTART:63.765076;
#SAMPLELENGTH:15.000000;
#SELECTABLE:YES;
#DISPLAYBPM:122.000000;
#BPMS:0.000000=122.000000
;
#STOPS:
;
#BGCHANGES:2.000=Bokura no 16bit sensou.avi=1.000=0=0=0=StretchNoLoop====,
99999=-nosongbg-=1.000=0=0=0 // don't automatically add -songbackground-
;
#KEYSOUNDS:;
#ATTACKS:;

//---------------dance-single - ----------------
#NOTES:
     dance-single:
     :
     Hard:
     13:
     0.585913,0.643177,0.078204,0.052136,0.625635,472.000000,463.000000,9.000000,6.000000,0.000000,0.000000,0.585913,0.643177,0.078204,0.052136,0.625635,472.000000,463.000000,9.000000,6.000000,0.000000,0.000000:
// measure 0
0000
0000
0000
0000
,  // measure 1
0000
0000
0000
0000
,  // measure 2
0000
0000
0000
0000
,  // measure 3
0000
0000
0000
0000
,  // measure 4
2000
0100
3100
0002
,  // measure 5
0100
0103
2000
0010
,  // measure 6
3010
0002
0010
0013
,  // measure 7
0001
1000
0001
1000
0001
1000
0010
0100
,  // measure 8
0010
0100
0010
0100
0001
0010
0100
1000
,  // measure 9
0001
0010
1000
0100
0010
0001
1000
0100
,  // measure 10
0010
0001
1000
0001
1000
0000
0010
0100
,  // measure 11
0010
0000
0001
0010
0100
1000
0010
0100
,  // measure 12
0001
0000
0000
0000
1000
0100
1000
0100
1000
0100
0000
0000
0001
0010
0001
0010
,  // measure 13
0001
0010
0000
0000
0001
1000
0001
1000
0001
0000
0100
0000
0010
0000
1000
0000
,  // measure 14
0001
0010
0100
0010
0001
0010
0100
1000
,  // measure 15
0100
0010
0100
1000
0100
0001
0100
1000
,  // measure 16
0100
0001
0010
1000
0010
0001
0010
1000
,  // measure 17
0010
0000
0001
0000
1000
0000
0010
0000
0100
0000
0001
0000
1000
0001
1000
0001
,  // measure 18
1000
0000
0000
0000
0010
0000
1000
0000
0001
0000
0100
0000
0010
0100
0010
0100
,  // measure 19
0010
0000
0000
0000
1000
0100
1000
0100
1000
0100
0000
0000
0001
0010
0001
0010
,  // measure 20
0001
0010
0000
0000
0100
0000
0010
0000
0100
0010
0100
0010
0100
0000
0010
0000
,  // measure 21
1000
0001
1000
0010
0100
0001
1000
0001
,  // measure 22
0100
0001
1000
0010
1000
0001
0100
0010
,  // measure 23
1000
0000
0001
0000
0100
0000
0010
0000
1000
0000
0100
0010
0000
0001
0000
0010
,  // measure 24
0000
0100
0000
1000
0000
0010
0000
0000
0110
0000
0000
0000
0001
0000
1000
0000
,  // measure 25
0010
0110
0000
0001
1000
0010
0100
1001
,  // measure 26
0000
0001
1000
0010
1010
0000
1000
0010
,  // measure 27
0100
0001
0101
0000
0001
0100
0010
1001
,  // measure 28
0000
0000
1000
0000
0010
0000
0100
0000
0001
0000
0110
0000
0000
0000
0001
0100
,  // measure 29
0000
0001
0100
0000
0010
0000
1000
0000
0000
0000
1000
0100
0000
1000
0100
0000
,  // measure 30
0010
0000
0001
0000
0000
0000
0001
0010
0000
0001
0010
0000
0100
0000
1000
0000
,  // measure 31
0000
0000
1000
0001
0000
1000
0001
0000
1000
0000
0010
0100
0010
0100
0000
0000
,  // measure 32
0001
1000
0001
1000
0000
0000
0001
0010
0100
1000
0010
0000
0001
1000
0000
1000
,  // measure 33
0001
0000
0100
0000
1000
0001
0000
0001
1000
0000
0100
0000
1000
0100
0000
0100
,  // measure 34
0010
0000
0001
0000
0001
0010
0000
0010
0100
0000
0100
0000
0001
1000
0000
1000
,  // measure 35
0001
0000
0100
0000
0001
1000
0000
1000
0010
0000
0001
0000
1000
0001
0000
0001
,  // measure 36
1000
0000
0010
0000
1000
0001
0000
0001
0100
0000
0010
0000
0100
0001
0000
0001
,  // measure 37
1000
0000
0100
0000
0001
0010
0000
0010
1000
0000
0010
0000
1000
0001
0000
0001
,  // measure 38
0100
0000
1000
0000
0010
1000
0000
1000
0001
0000
0010
0000
0100
1000
0000
0000
,  // measure 39
0001
0000
1000
0000
0010
0100
0000
0000
0001
0000
1000
0000
0010
0100
0000
0001
,  // measure 40
0000
0010
0000
1000
0000
0100
0000
0010
1000
0001
0100
0000
0010
1000
0000
1000
,  // measure 41
0010
0100
0010
0000
0010
0001
0000
0001
0100
0010
0100
0000
0100
1000
0000
1000
,  // measure 42
0100
0010
0001
0000
0001
0010
0000
0010
1000
0100
0001
0000
0001
1000
0000
1000
,  // measure 43
0100
0001
0010
0000
0010
1000
0000
1000
0001
0100
0010
0000
0001
0000
0100
0000
,  // measure 44
0010
0000
1000
0000
0001
0000
1000
0001
1000
0000
0001
0000
1000
0010
0000
0100
,  // measure 45
0001
0001
0100
0000
0010
1000
0000
0100
1000
1000
0100
0000
0100
0001
0000
0001
,  // measure 46
1000
1000
0100
0000
0001
1000
0000
1000
0001
0001
0010
0000
0100
1000
0000
0000
,  // measure 47
1000
0000
0100
0000
0010
0001
0000
0000
0100
0000
0001
0000
0100
0010
0000
1000
,  // measure 48
0000
0100
0000
0010
0000
0100
0000
0001
0010
0000
2000
0000
0000
0000
0000
0000
,  // measure 49
0000
0000
0000
0000
0000
3002
0000
0000
,  // measure 50
0000
0000
1003
0000
0000
0000
1000
0000
0100
0000
0010
0100
0000
0100
0000
0010
,  // measure 51
0100
0000
0001
0000
1000
0000
0001
1000
0000
1000
0000
0001
1000
0000
0010
0000
,  // measure 52
1000
0000
0001
0100
0000
0001
0000
0001
0100
0000
0010
0000
1000
0000
0100
1000
,  // measure 53
0000
0100
0000
0100
1000
0000
0010
0000
1000
0001
0100
0000
0010
0000
0001
0010
,  // measure 54
0100
1000
0000
0110
0000
1000
0001
0000
0100
0000
1000
0100
0010
0001
0000
0110
,  // measure 55
0000
0000
0001
0100
0001
0100
0000
0000
1000
0010
1000
0010
0000
0000
0001
1000
,  // measure 56
0001
1000
0000
0000
0010
0100
0010
0100
0001
1000
0001
1000
0010
0100
0001
1000
;

//---------------dance-single - ----------------
#NOTES:
     dance-single:
     :
     Medium:
     9:
     0.378609,0.593702,0.052136,0.052136,0.095583,305.000000,299.000000,6.000000,6.000000,0.000000,0.000000,0.378609,0.593702,0.052136,0.052136,0.095583,305.000000,299.000000,6.000000,6.000000,0.000000,0.000000:
// measure 0
0000
0000
0000
0000
,  // measure 1
0000
0000
0000
0000
,  // measure 2
0000
0000
0000
0000
,  // measure 3
0000
0000
0000
0000
,  // measure 4
2000
0100
0100
3200
,  // measure 5
0010
0010
0320
0001
,  // measure 6
0001
0032
1000
1003
,  // measure 7
1000
0100
1000
0000
0010
0000
0001
0010
,  // measure 8
0001
0000
0100
0000
1000
0100
1000
0000
,  // measure 9
0010
0000
0001
0010
0001
0000
0100
0000
,  // measure 10
0100
0000
0010
1000
0100
0000
0010
1000
,  // measure 11
0100
0000
0010
0001
0100
0001
0010
0001
,  // measure 12
0100
0000
1000
1000
1000
0000
0001
0001
,  // measure 13
0001
0000
0100
0010
0100
0010
0100
0000
,  // measure 14
0001
0000
0100
0000
1000
0100
1000
0000
,  // measure 15
0010
0000
0001
0010
0001
0000
0100
0000
,  // measure 16
1000
0100
1000
0000
0010
0000
0001
0010
,  // measure 17
0001
0010
0100
0010
0100
0000
1000
0001
,  // measure 18
1000
0000
0001
0100
1000
0100
0001
0100
,  // measure 19
1000
0000
1000
1000
1000
0000
0001
0001
,  // measure 20
0001
0000
0100
0000
0010
0000
0100
0010
,  // measure 21
0100
1000
0100
0000
0010
0000
0001
0010
,  // measure 22
0001
0000
0100
0000
1000
0100
1000
0000
,  // measure 23
0010
0000
0000
0000
0001
0000
0010
0000
0001
0000
0000
0100
0000
0100
0000
0100
,  // measure 24
0000
0100
0000
0100
0000
0000
0000
0000
1000
0000
0000
0000
0100
0000
0000
0000
,  // measure 25
0010
0010
0000
0001
0000
0011
0000
0100
,  // measure 26
0000
1000
0000
0001
0001
0000
1000
0000
,  // measure 27
1010
0000
0100
0000
0001
0000
0010
0010
,  // measure 28
0000
1000
0000
0001
1000
0001
1000
0010
,  // measure 29
0000
0001
0000
1000
0001
0100
0000
0001
,  // measure 30
0000
0100
0001
1000
0000
0010
0000
0010
,  // measure 31
1000
0000
0001
0000
0000
0000
0010
0000
0000
0000
1000
0100
1000
0100
0000
0000
,  // measure 32
0001
0100
0001
0100
0000
0000
1000
0100
1000
0000
0001
0000
0100
0000
0010
0000
,  // measure 33
0000
1000
0000
1001
0000
1000
0010
0100
,  // measure 34
0000
0001
0000
1001
0000
0001
0100
1000
,  // measure 35
0000
0010
0000
0110
0000
1000
0100
0001
,  // measure 36
0000
0010
0000
0110
0000
1000
0100
0010
,  // measure 37
0100
1000
0000
0010
0000
0001
0010
0100
,  // measure 38
0010
0001
0000
0100
0000
1000
0100
0000
,  // measure 39
0001
0010
0100
0000
1000
0001
1000
0000
,  // measure 40
0010
0100
0010
0100
0000
0001
0000
0100
,  // measure 41
0000
1000
0100
1000
0000
1000
0000
0100
,  // measure 42
0000
0001
0010
0001
0000
1000
0000
0010
,  // measure 43
0000
0001
0100
0001
0000
0010
0000
0001
,  // measure 44
0000
1000
0100
1000
0000
0010
0000
1000
,  // measure 45
0000
0001
1000
0001
0000
0100
0000
0010
,  // measure 46
0000
1000
0001
1000
0000
1000
0100
1000
,  // measure 47
0000
0001
0010
0001
0000
1000
0010
0100
,  // measure 48
0001
1000
0000
0010
0000
0002
0000
0000
,  // measure 49
0000
0000
0000
0000
0000
2003
0000
0000
,  // measure 50
0000
3001
0000
0001
0100
1000
0000
0010
,  // measure 51
0000
1000
0100
0001
0000
0010
0000
0001
,  // measure 52
0100
1000
0000
0010
0000
1000
0100
0001
,  // measure 53
0000
0010
0000
0001
0100
1000
0010
0001
,  // measure 54
0000
0100
0000
0001
0010
1000
0000
0100
,  // measure 55
0000
0000
0001
0010
0001
0010
0000
0000
1000
0010
1000
0010
0000
0000
0001
0010
,  // measure 56
0001
0010
0000
0000
1000
0001
1000
0001
1000
0001
1000
0001
1000
0001
1000
0001
;

//---------------dance-single - ----------------
#NOTES:
     dance-single:
     :
     Easy:
     6:
     0.268129,0.321236,0.060826,0.165098,0.000000,216.000000,209.000000,7.000000,19.000000,0.000000,0.000000,0.268129,0.321236,0.060826,0.165098,0.000000,216.000000,209.000000,7.000000,19.000000,0.000000,0.000000:
// measure 0
0000
0000
0000
0000
,  // measure 1
0000
0000
0000
0000
,  // measure 2
0000
0000
0000
0000
,  // measure 3
0000
0000
0000
0000
,  // measure 4
0002
1000
1003
2000
,  // measure 5
0001
3001
0002
1000
,  // measure 6
1003
2000
0001
3001
,  // measure 7
1000
0100
0010
0001
,  // measure 8
0010
0100
1000
0100
,  // measure 9
0001
0010
0100
0001
,  // measure 10
1000
0020
0100
0001
,  // measure 11
0130
0200
0010
1000
,  // measure 12
0310
0000
1000
0001
1000
0000
0010
0000
,  // measure 13
0010
0000
0001
1000
0001
0000
0100
0000
,  // measure 14
0100
1000
0100
0100
,  // measure 15
0001
0100
0010
1000
,  // measure 16
0010
0010
0001
0010
,  // measure 17
0100
1000
1000
0001
,  // measure 18
0001
0200
1000
0010
,  // measure 19
0301
0010
0001
0100
,  // measure 20
1000
0000
0001
1000
0001
0000
0010
0000
,  // measure 21
1000
0100
0010
0001
,  // measure 22
0010
0100
1000
0100
,  // measure 23
0001
0001
0010
1000
,  // measure 24
1000
1000
0002
0000
,  // measure 25
0000
0103
0000
0000
0000
2000
0000
0100
,  // measure 26
0000
0000
3100
0100
,  // measure 27
0010
0000
0002
0000
0000
0000
0000
0103
,  // measure 28
0000
1000
0000
0100
0000
0010
0000
1001
,  // measure 29
0000
0010
0000
0100
0000
1000
0000
0001
,  // measure 30
0000
0010
0000
0110
0000
1000
0000
0100
,  // measure 31
0000
0010
0000
0001
0000
2000
0000
0000
,  // measure 32
3002
0000
0000
2003
0000
3001
0000
0001
,  // measure 33
0000
0001
0000
1000
0000
0100
0000
0100
,  // measure 34
0000
0100
0000
0010
0000
1000
0000
0100
,  // measure 35
0000
0010
0000
0110
0000
0001
0000
0010
,  // measure 36
0000
0100
0000
0110
0000
1000
0000
0100
,  // measure 37
0000
0001
0000
0010
0000
0001
0000
0010
,  // measure 38
0000
1000
0000
0100
0000
0001
0000
0001
,  // measure 39
0000
1000
0000
1000
0000
0100
0000
0010
,  // measure 40
0000
0220
0000
0330
0000
0100
0000
1000
,  // measure 41
0000
0010
0000
0010
0000
0100
0000
0001
,  // measure 42
0000
0010
0000
0010
0000
1000
0000
0100
,  // measure 43
0000
0001
0000
0001
0000
0001
0000
0010
,  // measure 44
0000
1000
0000
1000
0000
0100
0000
1000
,  // measure 45
0000
0010
0000
0010
0000
0001
0000
0100
,  // measure 46
0000
0010
0000
0010
0000
1000
0000
0100
,  // measure 47
0000
0010
0000
0001
0000
1000
0000
0010
,  // measure 48
0000
0100
0000
0001
0000
2002
0000
0000
,  // measure 49
0000
0000
0000
3003
0000
0220
0000
0000
,  // measure 50
0000
0330
0000
1000
0000
0100
0000
0100
,  // measure 51
0000
0001
0000
0100
0000
0100
0000
1000
,  // measure 52
0000
0010
0000
0010
0000
0001
0000
0010
,  // measure 53
0000
0010
0000
0010
0000
0100
0000
1000
,  // measure 54
1000
1000
0000
0100
0000
0001
0001
0001
,  // measure 55
0000
0010
0010
0000
0100
0100
0000
0001
,  // measure 56
0001
0000
1000
1000
1000
1000
1000
1000
;

//---------------dance-single - ----------------
#NOTES:
     dance-single:
     :
     Beginner:
     2:
     0.106755,0.172593,0.026068,0.156409,0.000000,86.000000,83.000000,3.000000,18.000000,0.000000,0.000000,0.106755,0.172593,0.026068,0.156409,0.000000,86.000000,83.000000,3.000000,18.000000,0.000000,0.000000:
// measure 0
0000
0000
0000
0000
,  // measure 1
0000
0000
0000
0000
,  // measure 2
0000
0000
0000
0000
,  // measure 3
0000
0000
0000
0000
,  // measure 4
2000
0000
0000
3002
,  // measure 5
0000
0000
2003
0000
,  // measure 6
0000
3002
0000
0000
,  // measure 7
1003
0000
0000
0001
,  // measure 8
0000
0000
1000
0000
,  // measure 9
0000
0001
0000
0100
,  // measure 10
0000
1000
0000
1000
,  // measure 11
0000
0001
0000
0001
,  // measure 12
0000
0100
0000
0100
,  // measure 13
0000
0010
0000
0010
,  // measure 14
1000
0000
0000
0001
,  // measure 15
0000
0000
1000
0000
,  // measure 16
0000
0001
0000
0100
,  // measure 17
0000
0100
0000
0000
,  // measure 18
0000
0010
0000
0000
,  // measure 19
0000
0100
0000
0000
,  // measure 20
0000
0010
0000
0000
,  // measure 21
1001
0000
0000
0100
,  // measure 22
0000
0000
0010
0000
,  // measure 23
0000
0100
0000
0000
,  // measure 24
0000
0000
2000
0000
,  // measure 25
0000
3002
0000
0000
0000
0000
0000
2003
,  // measure 26
0000
0000
3002
0000
,  // measure 27
0000
0000
2003
0000
0000
0000
0000
3002
,  // measure 28
0000
0000
0000
0000
0000
1003
0000
0010
,  // measure 29
0000
0000
0000
0001
0000
0100
0000
0000
,  // measure 30
0000
1000
0000
0010
0000
0000
0000
0001
,  // measure 31
0000
0100
0000
0000
0000
1000
0000
0000
,  // measure 32
0000
1001
0000
0000
0000
0001
0000
0000
,  // measure 33
0000
0100
0000
0000
0000
1000
0000
0000
,  // measure 34
0000
0000
0000
0000
0000
1000
0000
0000
,  // measure 35
0000
0010
0000
0000
0000
0001
0000
0000
,  // measure 36
0000
0000
0000
0000
0000
0001
0000
0000
,  // measure 37
0000
0010
0000
0000
0000
1000
0000
0000
,  // measure 38
0000
0000
0000
0000
0000
1000
0000
0000
,  // measure 39
0000
0100
0000
0000
0000
0001
0000
0000
,  // measure 40
0000
0000
0000
0000
0000
0100
0000
0000
,  // measure 41
0000
1000
0000
0000
0000
0010
0000
0000
,  // measure 42
0000
0000
0000
0000
0000
0010
0000
0000
,  // measure 43
0000
0001
0000
0000
0000
0100
0000
0000
,  // measure 44
0000
0000
0000
0000
0000
1000
0000
0000
,  // measure 45
0000
0001
0000
0000
0000
0100
0000
0000
,  // measure 46
0000
0000
0000
0000
0000
0010
0000
0000
,  // measure 47
0000
1000
0000
0000
0000
0001
0000
0000
,  // measure 48
0000
0000
0000
0000
0000
2002
0000
0000
,  // measure 49
0000
0000
0000
0000
0000
3003
0000
0000
,  // measure 50
0000
0000
0000
0200
0000
0000
0000
0000
,  // measure 51
0000
0320
0000
0000
0000
0000
0000
0230
,  // measure 52
0000
0000
0000
0000
0000
0320
0000
0000
,  // measure 53
0000
0000
0000
0000
0000
2030
0000
0000
,  // measure 54
0000
0000
0000
3002
0000
0000
0000
0000
,  // measure 55
0000
1003
0000
0000
0001
0000
0000
1000
,  // measure 56
0000
0001
0001
0001
;
