#TITLE:Bloody Mary;
#SUBTITLE:;
#ARTIST:good-cool ft.芥(From Chanty);
#TITLETRANSLIT:;
#SUBTITLETRANSLIT:;
#ARTISTTRANSLIT:;
#GENRE:pop'n music;
#CREDIT:;
#BANNER:;
#BACKGROUND:;
#LYRICSPATH:;
#CDTITLE:;
#MUSIC:Bloody Mary.ogg;
#OFFSET:0.122000;
#SAMPLESTART:45.826965;
#SAMPLELENGTH:15.000000;
#SELECTABLE:YES;
#BPMS:0.000000=186.000000
;
#STOPS:
;
#BGCHANGES:;
#KEYSOUNDS:;
#ATTACKS:;

//---------------dance-single - ----------------
#NOTES:
     dance-single:
     :
     Hard:
     12:
     0.590542,0.667403,0.315557,0.126223,0.031556,524.000000,484.000000,40.000000,16.000000,0.000000,0.000000,0.590542,0.667403,0.315557,0.126223,0.031556,524.000000,484.000000,40.000000,16.000000,0.000000,0.000000:
// measure 0
0000
0000
0000
0000
,  // measure 1
0000
0000
0000
0000
,  // measure 2
0000
0000
0000
0000
,  // measure 3
0000
0000
0000
0000
,  // measure 4
0000
0000
0000
0000
,  // measure 5
0000
0000
0000
0000
0000
0000
0000
1001
,  // measure 6
0000
1000
0100
0000
0010
0100
0001
0000
,  // measure 7
0001
0100
0010
0000
1000
0100
0010
0001
,  // measure 8
0000
0001
0010
0000
0100
0010
1000
0000
,  // measure 9
0100
0010
0100
0001
0010
0100
1001
0000
,  // measure 10
1000
0001
1000
0001
1000
0001
1000
0010
,  // measure 11
0000
0000
0000
0000
1001
0000
0000
0110
,  // measure 12
0000
0001
1000
0000
0100
0010
0100
0000
,  // measure 13
0001
0010
0100
0000
1000
0100
0010
0000
,  // measure 14
0001
0000
1000
0000
0010
0100
0010
0000
,  // measure 15
1000
0001
1000
0000
0010
0100
0010
0110
,  // measure 16
0000
1000
0001
0000
0100
0001
1000
0000
,  // measure 17
0100
1000
0001
0000
1000
0010
0100
0001
,  // measure 18
0000
0010
0100
0000
1000
0010
0100
0000
,  // measure 19
0001
0010
0100
0000
1000
0100
0001
1001
,  // measure 20
0000
0001
0100
1000
0100
0001
0100
1000
,  // measure 21
0000
1000
0010
0001
0010
1000
0010
0001
,  // measure 22
0000
0001
0100
0010
0100
0001
0100
0010
,  // measure 23
0000
1000
0010
0100
0010
1000
0010
0100
,  // measure 24
0000
0100
1000
0100
0010
0001
0010
0100
,  // measure 25
0000
0010
0001
0010
0100
1000
0100
0010
,  // measure 26
0000
0001
0010
0100
1000
0100
0010
0001
,  // measure 27
0000
1000
0100
0010
0001
0010
0100
1000
,  // measure 28
0200
0000
1000
0000
,  // measure 29
0010
0010
0001
0301
,  // measure 30
0020
0000
0001
0000
,  // measure 31
0100
0100
1000
1030
,  // measure 32
1010
0000
0000
0000
0110
0000
1000
0100
,  // measure 33
0001
0000
0000
0011
0000
0000
0010
0000
,  // measure 34
0110
0000
0000
2100
0000
0000
3100
0000
,  // measure 35
0001
0000
2002
0000
3003
0010
0100
0010
,  // measure 36
0110
0000
1000
0000
0100
0010
0100
0010
,  // measure 37
0000
0001
0010
0000
0001
0010
0100
0000
,  // measure 38
0001
0000
1000
0000
0001
1000
0001
1000
,  // measure 39
0000
0100
0010
0000
1000
0100
0010
0000
,  // measure 40
0001
0000
0100
0000
1000
0100
1000
0100
,  // measure 41
0000
0010
0001
0000
0010
0100
0010
0100
,  // measure 42
0101
0100
1100
1000
,  // measure 43
1001
0000
0001
0011
0000
0100
0010
0100
,  // measure 44
0110
0000
1100
0000
0010
0100
0001
0100
,  // measure 45
0000
0001
0010
0000
0010
0100
1000
0100
,  // measure 46
0110
0000
0011
0000
0100
0010
1000
0010
,  // measure 47
0000
1000
0100
0000
0100
0010
0001
0010
,  // measure 48
1020
0031
0201
1300
,  // measure 49
0010
0000
1000
1010
0000
0011
0000
1001
,  // measure 50
1000
0010
0100
0000
0001
0100
0010
0000
,  // measure 51
2000
0000
0000
0000
3001
0000
0000
1001
,  // measure 52
0000
0010
0100
0000
0001
1000
0001
0000
,  // measure 53
1000
0001
1000
0001
0000
0000
0100
0010
0100
0010
0000
0000
,  // measure 54
0200
0000
0310
0001
,  // measure 55
1000
0001
0100
0010
1000
1100
0000
0011
,  // measure 56
0000
0001
1000
0000
1000
0100
0001
0000
,  // measure 57
0001
0100
0001
0100
0000
0000
1000
0010
1000
0010
0000
0000
,  // measure 58
0002
0000
1003
0100
,  // measure 59
0001
0100
1000
0100
0001
1000
0001
0100
,  // measure 60
0000
0000
0110
0000
1000
0010
0100
0001
,  // measure 61
0000
0001
0100
0000
0101
0000
1100
0000
,  // measure 62
0100
1000
0010
0100
0001
0010
0100
1000
,  // measure 63
0000
1000
0100
0000
0010
0100
0001
1000
,  // measure 64
0010
0000
0011
0000
1000
0100
0010
0001
,  // measure 65
0000
0001
0010
0000
0001
0010
0100
1000
,  // measure 66
0010
0000
1100
0000
1000
0010
0100
0001
,  // measure 67
0000
0001
0100
0000
0001
0100
0010
2000
,  // measure 68
0000
0000
3100
0000
0010
0100
0001
1000
,  // measure 69
0000
0010
1000
0000
0010
0100
0010
0002
,  // measure 70
0000
0000
0013
0000
0100
0010
1000
0100
,  // measure 71
0000
0001
0010
0000
0010
0100
1000
0000
,  // measure 72
1100
0000
0100
0010
1000
0001
0100
0000
,  // measure 73
0011
0000
0010
0100
0001
1000
0010
0000
,  // measure 74
0020
0000
0100
0000
0001
0001
0031
0000
,  // measure 75
2000
0000
0000
0001
0000
0000
3001
0000
,  // measure 76
0001
0100
1000
0000
1000
0100
0001
0000
,  // measure 77
1000
0010
0001
0000
0001
0010
1000
0000
,  // measure 78
1000
0100
0001
0000
0001
0100
1000
0000
,  // measure 79
0010
0100
0010
0100
0001
1000
0001
1000
,  // measure 80
0001
0010
1000
0000
1000
0010
0001
0000
,  // measure 81
1000
0010
0001
0000
0001
0010
1000
0000
,  // measure 82
0001
0100
1000
0000
1000
0100
0001
0000
,  // measure 83
0001
1000
0001
1000
0010
0100
0010
0100
,  // measure 84
0001
0010
0100
1000
0100
0010
0001
0000
,  // measure 85
1000
0010
0100
0000
0001
0100
0010
0000
,  // measure 86
1000
0100
0010
0001
0010
0100
1000
0000
,  // measure 87
0001
0100
0010
0000
1000
0010
0100
0000
,  // measure 88
1000
0010
0001
1000
0100
0001
1000
0010
,  // measure 89
0001
1000
0100
0001
1000
0010
0100
0001
,  // measure 90
1001
0000
0000
0110
0000
0000
1001
2002
,  // measure 91
0000
0000
0000
0000
,  // measure 92
0000
0000
0000
0000
,  // measure 93
0000
0000
0000
0000
,  // measure 94
3003
0000
0000
0000
;

//---------------dance-single - ----------------
#NOTES:
     dance-single:
     :
     Medium:
     9:
     0.456431,0.519091,0.260334,0.299779,0.000000,405.000000,372.000000,33.000000,38.000000,0.000000,0.000000,0.456431,0.519091,0.260334,0.299779,0.000000,405.000000,372.000000,33.000000,38.000000,0.000000,0.000000:
0000
0000
0000
0000
,
0000
0000
0000
0000
,
0000
0000
0000
0000
,
0000
0000
0000
0000
,
0000
0000
0000
0000
,
0000
0000
0000
0000
0000
0000
0000
1001
,
0000
0100
1000
0000
0010
0000
0100
0000
,
0001
0000
1000
0000
0010
0000
0000
1001
,
0000
0010
0100
0000
0001
0000
1000
0000
,
0010
1000
0100
0001
,
0001
0100
1000
0000
0001
0010
1000
0000
,
2002
0000
3003
0000
,
0100
1000
0010
0001
,
0100
0010
0100
0000
0001
0000
1001
0000
,
0010
0100
0001
0010
,
1000
0001
1000
0000
0100
0000
0110
0000
,
0100
1000
0010
0001
,
0100
0001
0100
0000
0010
0000
0011
0000
,
0100
0001
0010
1000
,
0010
1000
0010
0000
0100
0000
1100
0000
,
0100
1000
0010
0001
,
1000
0010
0100
0000
0001
0000
1001
0000
,
0001
0100
0010
1000
,
0001
0100
0010
0000
1000
0000
1001
0000
,
0100
1000
0010
0001
,
1000
0010
0100
0000
0001
0000
1001
0000
,
0010
0001
0100
1000
,
0100
0010
0100
0000
0001
0000
0011
0000
,
0002
0000
0100
1003
,
2000
0000
0010
3001
,
0002
0000
0010
0103
,
2000
0000
0100
3010
,
0100
0000
1000
0000
0010
0100
0010
0000
,
0010
0000
0001
0000
0100
0010
0100
0000
,
2000
0000
0001
3001
,
0010
0100
0010
0000
0000
0000
1001
0000
,
0020
1000
0100
0031
,
0100
0010
1000
0000
2002
0000
3003
0000
,
0020
0001
0100
1030
,
0100
0001
0010
0000
2002
0000
3003
0000
,
0100
1000
0010
0001
,
0100
0010
0100
0000
2002
0000
3003
0000
,
0200
0000
1000
0310
,
0002
0010
0100
1003
,
0010
0100
0001
0000
0100
0010
1000
0000
,
0002
1000
0200
0303
,
1000
0010
0100
0000
0001
0100
0010
0000
,
2000
0001
0200
3300
,
0100
1000
0010
0000
0001
0000
1001
0000
,
0010
0001
0100
0000
1000
0000
1001
0000
,
0200
1000
0010
0301
,
0020
0001
0100
1030
,
0200
0000
1000
1300
,
0010
0100
0010
0000
0001
1000
0001
2000
,
0000
0001
3010
1100
,
0001
0100
0010
0000
1000
0010
0100
0000
,
0002
0000
1000
1003
,
0010
0100
0010
0000
1000
0001
1000
0002
,
0000
1000
0103
0011
,
0001
0100
0010
0000
1000
0010
0100
0000
,
0002
1000
0100
1003
,
2000
0001
0010
3001
,
0001
0100
0010
0000
1000
0010
0100
0000
,
0002
0000
1000
0103
,
0100
0010
1000
0000
0001
0000
1001
0000
,
0010
0100
0001
0000
1000
0000
1001
0000
,
0200
1000
0010
0301
,
0210
0000
1000
0000
0310
0000
0000
1001
,
0000
0100
1000
0000
0010
0001
1000
0000
,
0010
0000
0100
0000
0011
0000
0000
1001
,
0000
0100
0001
0000
0100
0001
1000
0000
,
0010
0100
0001
1001
,
0200
1000
0010
1300
,
0020
0001
0100
0031
,
1000
0001
1000
0000
0010
0100
0010
0000
,
0001
0000
0000
0101
0000
0000
1000
0000
,
1010
0000
1000
0100
0001
0000
0010
0000
,
0001
0000
0001
0010
1000
0000
0100
0000
,
1000
0000
0001
0010
0100
0000
1000
0000
,
0020
0000
0000
0100
0000
0000
0130
0000
,
0001
0000
1000
0010
0100
0000
0001
0000
,
1001
0000
0001
0100
0010
0000
1000
0000
,
1001
0000
1000
0010
0100
0000
0001
0000
,
2000
0000
0000
0001
0000
0000
3001
0000
,
0100
0000
1000
0000
0010
0100
0010
0100
,
0010
0001
1000
0010
,
0100
0000
1000
0000
0001
1000
0001
1000
,
0001
0100
1000
0010
,
0001
0100
0001
0000
1000
0100
1000
0000
,
0001
0010
0001
0000
1000
0010
1000
0000
,
1001
0000
0000
0110
0000
0000
0001
2002
,
0000
0000
0000
0000
,
0000
0000
0000
0000
,
0000
0000
0000
0000
,
3003
0000
0000
0000
;

//---------------dance-single - ----------------
#NOTES:
     dance-single:
     :
     Easy:
     6:
     0.344859,0.407857,0.149890,0.370779,0.000000,306.000000,287.000000,19.000000,47.000000,0.000000,0.000000,0.344859,0.407857,0.149890,0.370779,0.000000,306.000000,287.000000,19.000000,47.000000,0.000000,0.000000:
0000
0000
0000
0000
,
0000
0000
0000
0000
,
0000
0000
0000
0000
,
0000
0000
0000
0000
,
0000
0000
0000
0000
,
0000
0000
0000
0000
,
1000
0100
0020
0030
,
0001
0010
0200
0300
,
1000
0100
0002
0003
,
0001
0010
2000
3000
,
0010
0100
0001
1000
,
0220
0000
0330
0000
,
1000
0100
0020
0030
,
0001
0100
0010
1000
,
0001
0010
0200
0300
,
1000
0100
0010
0001
,
1000
0010
2000
3000
,
0010
0100
0001
1000
,
0001
0010
0002
0003
,
0100
1000
0010
0001
,
0100
1000
0020
0030
,
0100
0001
1000
0010
,
1000
0001
0200
0300
,
0001
0100
1000
0010
,
0001
1000
0020
0030
,
1000
0001
0100
0010
,
1000
0100
0002
0003
,
0001
0010
0100
1000
,
2000
0000
0100
0000
,
0010
0000
3001
0000
,
0002
0000
0010
0000
,
0100
0000
1003
0000
,
2000
0000
0010
0000
,
0100
0000
0010
3010
,
0002
0000
0100
0000
,
0100
0020
0033
0010
,
0100
1000
0010
0001
,
1000
0010
0001
0100
,
0001
0100
1000
0010
,
1000
0010
0100
0101
,
0010
0100
0001
0100
,
0010
1000
0010
0001
,
0010
0100
0001
1000
,
0100
0010
1000
1010
,
0100
1000
0010
0001
,
0100
0100
0010
0010
,
0001
0100
1000
0010
,
1000
1000
0001
0001
,
0100
1000
0001
0011
,
0001
0100
1000
1010
,
0100
0010
1000
0001
,
2000
0000
3002
0000
,
0013
0010
0220
0330
,
0001
0100
1000
0000
,
0100
0100
0220
0330
,
1000
0010
0001
0000
,
1000
1000
2002
3003
,
0010
0100
1000
0000
,
0001
0001
2002
3003
,
0100
0010
0001
1001
,
0200
0000
1000
0010
,
1300
0010
0100
0001
,
0020
0000
0001
0100
,
0031
0100
0010
1001
,
0200
0000
1000
0301
,
0010
1000
0010
1001
,
0020
0000
0001
1030
,
0001
0100
0010
1001
,
0100
1000
0020
0030
,
1000
0001
0200
0300
,
0001
0100
0020
0030
,
1000
0001
0100
0010
,
0001
1000
0020
0030
,
1000
0001
0200
0300
,
0001
0100
1000
0010
,
0002
0000
1000
1003
,
0100
1000
0010
0010
,
1000
0001
0100
0110
,
0001
1000
0010
0010
,
0100
0001
1000
1010
,
1000
0010
0001
0001
,
0100
0010
1000
0001
,
0001
1000
0010
0100
,
0001
0010
0100
0101
,
0200
0000
1000
0310
,
0001
1000
0010
1001
,
0020
0000
0001
0130
,
0001
0100
0010
1001
,
0200
0000
1000
1300
,
0020
0000
0001
0031
,
0002
0003
2000
3000
,
2002
0000
0000
0000
,
0000
0000
0000
0000
,
0000
0000
0000
0000
,
3003
0000
0000
0000
;

//---------------dance-single - ----------------
#NOTES:
     dance-single:
     :
     Beginner:
     3:
     0.112699,0.185390,0.007889,0.102556,0.000000,100.000000,99.000000,1.000000,13.000000,0.000000,0.000000,0.112699,0.185390,0.007889,0.102556,0.000000,100.000000,99.000000,1.000000,13.000000,0.000000,0.000000:
0000
0000
0000
0000
,
0000
0000
0000
0000
,
0000
0000
0000
0000
,
0000
0000
0000
0000
,
0000
0000
0000
0000
,
0000
0000
0000
0000
,
1000
0000
1000
0000
,
0200
0000
0300
0000
,
0001
0000
0001
0000
,
0020
0000
0030
0000
,
1000
0000
0001
0000
,
2002
0000
3003
0000
,
0100
0000
0000
0000
,
1000
0000
0000
0000
,
0100
0000
0000
0000
,
0010
0000
0000
0000
,
0100
0000
0000
0000
,
0001
0000
0000
0000
,
0100
0000
0000
0000
,
0010
0000
0000
0000
,
1000
0000
0100
0000
,
1000
0000
0000
0000
,
0001
0000
0000
0000
,
0001
0000
0000
0000
,
0001
0000
0010
0000
,
0001
0000
0000
0000
,
1000
0000
0000
0000
,
1000
0000
0000
0000
,
1000
0000
0000
0000
,
0100
0000
0000
0000
,
1000
0000
0000
0000
,
0010
0000
0000
0000
,
0001
0000
0000
0000
,
0100
0000
0000
0000
,
0001
0000
0000
0000
,
0010
0000
0000
0000
,
1000
0000
0100
0000
,
1000
0000
0000
0000
,
0001
0000
0010
0000
,
0001
0000
0000
0000
,
0100
0000
0010
0000
,
0100
0000
0000
0000
,
0001
0000
1000
0000
,
0001
0000
0000
0000
,
1000
0000
0100
0000
,
1000
0000
0000
0000
,
0001
0000
0010
0000
,
0001
0000
0000
0000
,
1000
0000
0000
0000
,
0001
0000
0000
0000
,
0100
0000
0000
0000
,
0010
0000
0000
0000
,
2000
0000
0000
0000
,
3000
0000
0000
0000
,
0002
0000
0000
0000
,
0003
0000
0000
0000
,
0200
0000
0000
0000
,
0300
0000
0000
0000
,
0020
0000
0000
0000
,
0030
0000
0000
0000
,
1000
0000
0100
0000
,
1000
0000
0000
0000
,
0001
0000
0010
0000
,
0001
0000
0000
0000
,
1000
0000
0010
0000
,
1000
0000
0000
0000
,
0001
0000
0100
0000
,
0001
0000
0000
0000
,
1000
0000
0100
0000
,
1000
0000
0000
0000
,
0001
0000
0100
0000
,
0001
0000
0000
0000
,
1000
0000
0000
0000
,
0001
0000
0000
0000
,
0100
0000
0000
0000
,
0010
0000
0000
0000
,
0200
0000
0000
0000
,
0300
0000
0000
0000
,
1000
0000
0000
0000
,
0001
0000
0000
0000
,
0020
0000
0000
0000
,
0030
0000
0000
0000
,
0001
0000
0000
0000
,
1000
0000
0000
0000
,
0200
0000
0000
0000
,
1300
0000
0000
0000
,
0020
0000
0000
0000
,
0031
0000
0000
0000
,
1000
0000
0001
0000
,
1000
0000
0000
0000
,
0001
0000
1000
0000
,
0002
0000
0000
0000
,
0000
0000
0000
0000
,
0000
0000
0000
0000
,
0003
0000
0000
0000
;
