#TITLE:BabeL ~Grand Story~;
#SUBTITLE:;
#ARTIST:Ako Atak;
#TITLETRANSLIT:;
#SUBTITLETRANSLIT:;
#ARTISTTRANSLIT:;
#GENRE:pop'n music;
#CREDIT:;
#BANNER:;
#BACKGROUND:;
#LYRICSPATH:;
#CDTITLE:;
#MUSIC:BabeL ~Grand Story~.ogg;
#OFFSET:0.940001;
#SAMPLESTART:82.599876;
#SAMPLELENGTH:15.000000;
#SELECTABLE:YES;
#BPMS:0.000000=163.000000
;
#STOPS:
;
#BGCHANGES:;
#KEYSOUNDS:;
#ATTACKS:;

//---------------dance-single - ----------------
#NOTES:
     dance-single:
     :
     Hard:
     15:
     0.697768,0.724298,0.358785,0.130467,1.316905,599.000000,555.000000,44.000000,16.000000,0.000000,0.000000,0.697768,0.724298,0.358785,0.130467,1.316905,599.000000,555.000000,44.000000,16.000000,0.000000,0.000000:
// measure 0
0000
0000
0000
0000
,  // measure 1
0000
0000
0000
0000
,  // measure 2
0000
0000
0000
0000
,  // measure 3
0000
0000
0000
0000
,  // measure 4
0000
0000
0000
0000
,  // measure 5
0100
1000
0100
0010
0001
0010
0100
0000
0010
0000
0100
0000
,  // measure 6
1000
0001
1000
0010
0100
0010
1000
0000
0100
0000
0010
0000
,  // measure 7
1000
0010
0100
0010
1000
0010
0100
0000
0000
0001
0100
0010
,  // measure 8
0100
0001
0100
0010
0000
0000
0100
0010
0100
1001
0000
0000
,  // measure 9
0110
0000
0000
1000
0000
0000
0010
0100
0010
0100
0000
0000
,  // measure 10
0001
1000
0001
1000
0000
0000
0001
0100
0001
0100
0000
0010
,  // measure 11
0000
0100
0000
1001
0000
0000
0010
1000
0010
1000
0000
0000
,  // measure 12
0001
0100
0001
0100
0000
0000
1000
0001
1000
0001
0000
0100
,  // measure 13
0000
0010
0000
0110
0000
0000
0001
1000
0001
0100
0000
0000
,  // measure 14
1000
0001
1000
0010
0000
0000
1000
0010
0100
0001
0000
0010
,  // measure 15
0000
0100
0000
0110
0000
0000
0001
0100
0010
0100
0000
0000
,  // measure 16
1000
0010
0100
0010
0000
0000
1000
0001
0100
0010
0000
1000
,  // measure 17
0000
0000
0010
0000
0000
0000
1001
0000
0000
0000
0000
0000
0200
0000
0000
0000
0000
0000
0000
0000
0000
0310
0000
0000
,  // measure 18
0100
0000
0000
1000
0000
0000
1100
0000
0000
0000
0000
0000
0001
0000
0100
0000
0001
0000
0100
0000
1000
0000
0100
0000
,  // measure 19
1000
0000
0010
0000
0001
0000
0010
0100
0010
0000
1000
0000
0000
0000
0001
0000
,  // measure 20
1000
0000
0000
0010
0000
0000
1000
0000
0000
0100
0000
0000
0010
0000
0000
0110
0000
0000
0000
0000
0000
0000
0100
0000
,  // measure 21
0000
0000
1000
0000
0000
0000
1001
0000
0000
0000
0000
0000
0020
0000
0000
0000
0000
0000
0000
0000
0000
0130
0000
0000
,  // measure 22
0010
0000
0000
0001
0000
0000
0011
0000
0000
0000
0000
0000
1000
0000
0010
0000
1000
0000
0010
0000
0001
0000
0010
0000
,  // measure 23
0001
0000
0100
0000
1000
0000
0100
0010
0100
0000
0001
0000
0000
0000
1000
0000
,  // measure 24
0001
0000
0000
0000
0000
0000
0100
0000
0000
0000
0000
0000
0001
0000
0000
0000
0000
0000
0010
0000
0000
0001
0000
0000
1000
0000
0000
0000
0000
0000
1001
0000
0000
0000
0000
0000
0000
0000
0000
0000
0000
0000
0000
0000
0010
0000
0000
0000
,  // measure 25
0000
0001
0000
1001
0000
0000
1000
0010
1000
0010
0000
0000
,  // measure 26
0100
0001
0100
0001
0000
0000
0100
0010
0100
0010
0000
1000
,  // measure 27
0000
0001
0000
1001
0000
0000
0001
1000
0001
1000
0000
0000
,  // measure 28
0010
0100
0010
0100
0001
1000
0001
1000
0001
1000
0100
0010
,  // measure 29
0100
0001
1000
0002
0000
0000
0000
1003
0010
0100
0000
0010
,  // measure 30
0000
0100
0001
0100
0000
0010
0000
0010
0100
0010
0000
0001
,  // measure 31
0000
1000
0000
1100
0000
0001
1000
0010
0100
0001
0000
0100
,  // measure 32
0000
0100
1000
0001
0000
0010
1000
0000
0101
0000
0000
0200
,  // measure 33
0000
0301
1000
0010
0000
1000
0001
0100
0010
1000
0000
0010
,  // measure 34
0000
1000
0001
0100
0000
0001
0010
0100
0010
0100
0000
1000
,  // measure 35
0000
0100
0010
1001
0000
0010
0000
0100
0010
0100
0000
0000
,  // measure 36
0001
1000
0001
1000
0000
0010
0000
0100
0000
0001
1000
0001
,  // measure 37
0100
0000
1000
0000
0010
0000
2001
0000
0000
0000
0000
0000
0000
0000
0000
3000
0100
1000
0100
0000
0000
0000
1000
0000
,  // measure 38
0000
0000
0010
0000
0000
0000
1002
0000
0000
0000
0000
0000
0000
0000
0000
0003
0010
0001
0010
0000
0000
0000
0001
0000
,  // measure 39
0000
0000
0100
0000
0000
0000
0210
0000
0000
0000
0000
0000
0000
0000
0000
0300
0001
0100
0001
0000
0010
0000
0100
0000
,  // measure 40
1000
0100
0010
0001
1000
0001
1000
0001
0000
1000
0001
1000
,  // measure 41
0001
1000
0000
1001
0000
0000
0000
1000
0100
1000
0000
0100
,  // measure 42
0000
0001
0000
1001
0000
0000
0000
0001
0100
0001
0000
0100
,  // measure 43
0000
0010
0000
0110
0000
0000
0000
1000
0010
1000
0000
0010
,  // measure 44
0000
0100
0000
0101
0000
0000
0000
0001
0100
0001
0000
1000
,  // measure 45
0000
0010
0000
1010
0000
1000
0010
0100
0000
0001
0000
0100
,  // measure 46
0000
0010
0000
0110
0000
1000
0001
0100
0000
0010
0000
0100
,  // measure 47
0000
0001
0000
1001
0000
0001
1000
0010
0000
0100
0000
0001
,  // measure 48
0000
0010
0000
0110
0000
0001
0100
0010
0000
1000
0000
0100
,  // measure 49
0000
0001
0000
0101
0000
0001
0100
0010
0000
1000
0000
0100
,  // measure 50
0000
0001
0000
1100
0000
0001
1000
0010
0000
0100
0000
0001
,  // measure 51
0000
0100
0000
0011
0000
0001
0100
0010
0000
1000
0000
0001
,  // measure 52
0000
0100
0000
1100
0000
1000
0010
0100
0000
0001
0000
0100
,  // measure 53
0000
0010
0000
1001
0000
0001
1000
0010
0000
1000
0000
0001
,  // measure 54
1000
0100
0000
1001
0000
0010
0100
0001
0000
0100
0000
0001
,  // measure 55
1000
0010
0000
1001
0000
0001
0100
1000
0000
0001
0000
1000
,  // measure 56
0010
0001
0000
1000
0001
1000
0001
1000
0001
0100
0001
1000
,  // measure 57
0001
0010
0100
0020
0000
0000
0000
0130
1000
0001
0000
1000
,  // measure 58
0000
0001
0010
0001
0000
1000
0000
1000
0001
1000
0000
0010
,  // measure 59
0000
0100
0000
0101
0000
0010
0100
1000
0001
0010
0000
0001
,  // measure 60
0000
0001
0100
0010
0000
1000
0100
0000
0010
0001
0000
0002
,  // measure 61
0000
0013
0100
1000
0000
0100
0010
0001
1000
0100
0000
1000
,  // measure 62
0000
0100
0010
0001
0000
0010
1000
0001
1000
0001
0000
0100
,  // measure 63
0000
0001
1000
0110
0000
1000
0000
0001
1000
0001
0000
0010
,  // measure 64
0000
0100
0010
0100
0000
1000
0000
0001
0000
0110
1000
0001
,  // measure 65
1000
0100
0010
0200
0000
0000
0000
0310
0001
1000
0000
0001
,  // measure 66
0000
1000
0100
1000
0000
0001
0000
0001
1000
0001
0000
0100
,  // measure 67
0000
0010
0000
1010
0000
0100
0010
0001
1000
0100
0000
1000
,  // measure 68
0000
1000
0010
0100
0000
0001
0010
0000
0100
1000
0000
2000
,  // measure 69
0000
3100
0010
0001
0000
0010
0100
1000
0001
0010
0000
0001
,  // measure 70
0000
0010
0100
1000
0000
0100
0001
1000
0001
1000
0000
0010
,  // measure 71
0000
1000
0001
0110
0000
0001
0000
1000
0001
1000
0000
0100
,  // measure 72
0000
0010
0100
0010
0000
0001
0000
1000
0000
0100
0010
0100
,  // measure 73
0001
0000
1000
0000
0001
0000
2001
0000
0000
0000
0000
0000
0000
0000
0000
3000
0001
1000
0001
0000
0100
0000
0010
0000
,  // measure 74
0100
0000
1000
0000
0001
0000
1002
0000
0000
0000
0000
0000
0000
0000
0000
0003
1000
0001
1000
0000
0010
0000
0100
0000
,  // measure 75
0010
1000
0001
1001
0000
0000
1100
0000
0000
0022
0000
0000
,  // measure 76
0000
0000
0000
0000
,  // measure 77
0030
0000
0000
0000
,  // measure 78
0000
0000
0000
2000
,  // measure 79
0000
0000
0000
0000
,  // measure 80
0000
0000
0000
3003
;

//---------------dance-single - ----------------
#NOTES:
     dance-single:
     :
     Medium:
     11:
     0.549827,0.658453,0.358785,0.048925,0.583026,472.000000,428.000000,44.000000,6.000000,0.000000,0.000000,0.549827,0.658453,0.358785,0.048925,0.583026,472.000000,428.000000,44.000000,6.000000,0.000000,0.000000:
0000
0000
0000
0000
,
0000
0000
0000
0000
,
0000
0000
0000
0000
,
0000
0000
0000
0000
,
0000
0000
0000
0000
,
0001
1000
0001
1000
0001
1000
0001
0000
0001
0000
0001
0000
,
1000
0001
1000
0001
1000
0001
1000
0000
1000
0000
1000
0000
,
0010
0100
0010
0100
0010
0000
0100
0000
0010
0001
1000
0001
,
1000
0001
0000
1000
0000
0001
0100
0000
0000
0010
0000
0000
,
1001
0110
0010
0100
,
0010
0000
0000
0100
0000
0010
0100
0000
0010
0100
0000
0010
,
0000
1000
0000
0001
0000
0000
1000
0000
0000
0001
0000
0000
,
1000
0000
0000
0001
0000
0001
1000
0000
0001
1000
0000
0100
,
0000
0010
0000
1000
0000
0000
0010
0000
0100
0010
0000
0000
,
1000
0000
0001
1000
0000
0000
0001
0000
0100
0001
0000
0100
,
0000
0010
0000
1000
0000
0000
0100
0000
1000
0100
0000
0000
,
0010
0000
0100
0010
0000
0000
0001
0000
1000
0001
0000
1000
,
0000
0010
0000
0100
0000
0000
1001
0000
0000
0100
0000
0000
,
1000
0000
0010
0000
1000
0000
0001
1000
,
0001
1000
0010
0000
0100
0000
0001
0000
,
1000
0000
0010
0100
0010
0100
0001
1000
,
0010
0100
0001
0000
1000
0000
0001
0000
,
0100
0000
1000
0000
0010
0000
0001
1000
,
0001
1000
0001
0000
0100
0000
0010
0000
,
1000
0000
0100
0010
0100
0010
0100
1000
,
0001
0000
0000
0100
0000
0000
1000
0000
0000
0000
0000
0000
0100
0000
0000
0000
1000
0000
0100
0000
0000
0000
0000
0000
,
0010
0000
0000
0100
0000
0000
0001
0000
0100
0001
0000
0100
,
0000
0010
0000
1010
0000
0000
0001
0000
1000
0001
0000
0000
,
0100
0000
0010
0100
0000
0000
0001
0000
1000
1001
0000
0000
,
0000
0000
0000
0100
0000
1000
0100
0000
0100
0010
0000
0000
,
0010
0000
0000
0001
0000
0001
0010
0000
0010
0100
0000
0000
,
1001
0000
0000
1000
0000
1000
0100
0000
0100
0001
0000
0000
,
1001
0000
0000
0001
0000
0001
0010
0000
0010
1000
0000
0000
,
1001
0000
0000
0100
0000
1000
0010
0000
0010
0100
0000
0000
,
1001
0000
0000
0010
0000
0001
0100
0000
0100
0010
0000
0000
,
1001
0000
0000
0100
0000
1000
0100
0000
0000
0001
0000
1000
,
0001
0000
0000
0010
0000
0001
0010
0000
0000
0110
0000
0000
,
1001
0000
0000
0100
0000
1000
0100
0000
0100
0010
0000
0000
,
0001
0000
0000
0010
0000
0001
0010
0000
0010
0100
0000
0000
,
1000
1001
0100
0110
,
1000
1100
0101
1001
,
0010
0000
0000
1010
0000
0010
1000
0000
0010
0100
0000
0001
,
0010
0000
0000
0101
0000
0001
0100
0000
0010
0100
0000
0010
,
1000
0000
0000
0001
0000
1000
0001
0000
0001
0100
0000
0100
,
0010
0000
0000
0001
0000
1000
0010
0000
0010
0100
0000
0100
,
0001
0000
0000
0001
0000
0001
0100
0000
0100
1000
0000
1000
,
0010
0000
0000
0010
0000
1000
0010
0000
0010
0001
0000
0001
,
0100
0000
0000
0010
0000
1000
0001
0000
0001
1000
0000
1000
,
0010
0000
0000
0100
0000
0001
1000
0000
1000
0001
0000
0001
,
0100
0100
0010
1000
,
1010
1000
0010
0100
,
0101
0000
0000
0001
0000
0001
0100
0000
0000
0100
0000
0100
,
1000
0000
0000
1000
0000
1000
0010
0000
0000
0010
0000
0011
,
0000
0001
0000
1001
0000
0001
1000
0000
1000
0010
0000
0010
,
0100
0000
0000
1001
0000
1000
0001
0000
0001
0100
0000
0100
,
0010
0000
0000
1001
0000
0100
0001
0000
0001
0100
0000
0100
,
1000
0000
1000
0100
0000
0100
0001
0000
0001
2002
0000
0000
,
3003
0000
0000
1001
0000
0001
0100
0000
0100
1000
0000
1000
,
0010
0000
0000
0010
0000
1000
0010
0000
0010
0100
0000
0100
,
0001
0000
0000
0001
0000
0001
0100
0000
0100
1000
0000
1000
,
0010
0000
0001
1000
0000
1000
0001
0000
0001
1001
0000
0000
,
0110
0000
0000
0001
0000
0001
0100
0000
0100
1000
0000
1000
,
0010
0000
0000
1000
0000
1000
0010
0000
0010
0001
0000
0001
,
0100
0000
0000
0100
0000
0010
0100
0000
0000
0001
0000
1000
,
0001
1000
0010
1010
,
0010
1000
0010
1000
0000
0000
0001
1000
0001
1000
0000
0000
,
0010
0000
0000
1001
0000
0000
0001
0100
0001
0100
0000
0000
,
0010
0000
0000
0110
0000
0000
0100
0010
0100
0010
0000
0000
,
1000
0000
0000
1100
0000
0000
1000
0100
1000
0100
0000
0000
,
0110
0000
0000
0101
0000
0000
0001
0010
0001
0010
0000
0000
,
0001
0000
0000
0101
0000
0000
0100
1000
0100
1000
0000
0000
,
1000
0000
0000
1010
0000
0000
0001
0010
0001
0010
0000
0000
,
0100
0110
1001
0110
,
0100
0010
0100
0020
0000
0000
0000
0000
0000
0031
0000
0000
,
1000
2001
0000
3010
,
0100
0011
0110
2100
,
0000
0000
0000
0000
,
0000
0000
0000
0000
,
0000
0000
0000
0002
,
0000
0000
0000
0000
,
0000
0000
0000
3003
;

//---------------dance-single - ----------------
#NOTES:
     dance-single:
     :
     Easy:
     7:
     0.364610,0.460917,0.407711,0.366940,0.000000,313.000000,263.000000,50.000000,45.000000,0.000000,0.000000,0.364610,0.460917,0.407711,0.366940,0.000000,313.000000,263.000000,50.000000,45.000000,0.000000,0.000000:
0000
0000
0000
0000
,
0000
0000
0000
0000
,
0000
0000
0000
0000
,
0000
0000
0000
0000
,
0000
0000
0000
0000
,
1000
0001
2002
3003
,
0001
1000
2002
3003
,
0200
0010
1300
0020
,
0100
0031
2000
0002
,
3003
0010
0100
0010
,
0100
0001
1000
1001
,
1100
0010
1000
0010
,
1000
0001
0100
0101
,
0110
1000
0001
1000
,
0001
0100
0010
0100
,
0110
1100
0001
1000
,
0001
0110
1000
0010
,
0001
1001
0200
0000
,
0000
0310
0010
1000
,
0001
0200
0320
0000
,
0000
0130
0100
0001
,
1000
0010
2001
0000
,
0000
3001
0010
0100
,
1000
0010
0210
0000
,
0010
0310
0001
0100
,
0010
1010
0100
0001
,
0010
0011
0001
0100
,
0010
1010
0100
0001
,
1000
1001
0110
2002
,
3003
0200
1000
0010
,
0301
0020
0001
0100
,
1030
0001
1000
0010
,
0100
1100
0110
0022
,
0033
0001
0100
1000
,
1010
1000
0010
0001
,
0101
0200
1000
0010
,
0301
0020
0001
0100
,
1030
0100
1000
0020
,
0000
0130
0001
2000
,
0000
3010
0100
0002
,
0000
0103
0010
2000
,
0000
3001
0100
0010
,
1010
1000
0010
0100
,
0101
0100
1000
0010
,
1001
0010
0001
0100
,
1001
0200
1000
0010
,
0301
0020
0001
0100
,
1030
0002
1000
0100
,
0013
2000
0001
0010
,
3100
1000
0100
0010
,
0110
0001
0010
0100
,
0110
1000
0100
0001
,
1001
0001
0010
1000
,
1001
0100
1000
0010
,
1010
0010
0001
0100
,
0101
0100
1000
0010
,
1001
0110
1001
0220
,
0330
0001
0100
1000
,
1000
0100
0010
0001
,
0001
0100
1000
0010
,
0001
1100
0110
0022
,
0033
0001
0100
0010
,
1000
1000
0001
0100
,
0010
0001
0100
1000
,
0010
0001
1000
2002
,
3003
0200
1000
0010
,
0301
0020
0001
0100
,
1030
0100
1000
0010
,
0001
0011
0110
1100
,
1000
0001
1000
0010
,
1010
0010
0100
0001
,
0101
0100
1000
0010
,
0001
0200
1000
0320
,
0000
0230
0000
0301
,
0001
0020
0000
1030
,
1000
0110
1001
0220
,
0000
0000
0000
0330
,
0000
0000
0000
0000
,
0000
0000
0000
2002
,
0000
0000
0000
0000
,
0000
0000
0000
3003
;

//---------------dance-single - ----------------
#NOTES:
     dance-single:
     :
     Beginner:
     4:
     0.195701,0.224750,0.081542,0.236472,0.000000,168.000000,158.000000,10.000000,29.000000,0.000000,0.000000,0.195701,0.224750,0.081542,0.236472,0.000000,168.000000,158.000000,10.000000,29.000000,0.000000,0.000000:
0000
0000
0000
0000
,
0000
0000
0000
0000
,
0000
0000
0000
0000
,
0000
0000
0000
0000
,
0000
0000
0000
0000
,
1000
1000
2000
0000
,
3001
0001
0002
0000
,
1003
0000
0100
0000
,
0010
0000
0001
0000
,
0000
1001
0000
0100
,
0000
1000
0000
0000
,
0000
1001
0000
0100
,
0000
0001
0000
0000
,
0000
1001
0000
0010
,
0000
1000
0000
0000
,
0000
1001
0000
0010
,
0000
0001
0000
0100
,
0000
0210
0000
1000
,
0000
0010
0000
1300
,
0000
0020
0000
0001
,
0000
0100
0000
0031
,
0000
2000
0000
0010
,
0000
0100
0000
3010
,
0000
0002
0000
0100
,
0000
0010
0000
0103
,
0000
0100
1000
0100
,
0000
0010
0001
0010
,
0000
1000
0001
1000
,
0000
0010
0100
0020
,
0000
0130
0000
1000
,
0000
0010
0000
0100
,
0000
1000
0000
0001
,
0000
0100
0000
0010
,
0000
0001
0000
0100
,
0000
1000
1000
1000
,
0000
0100
0000
0010
,
0000
0001
0001
0002
,
0000
1003
0000
0100
,
0000
0020
0000
0130
,
0000
0001
0000
0010
,
0000
0200
0000
0310
,
0000
1000
0000
1010
,
0000
0010
0000
0100
,
0000
0001
0000
0011
,
0000
0100
0000
0001
,
0000
1000
0000
1100
,
0000
0010
0000
1000
,
0000
0010
0000
0101
,
0000
0010
0000
0100
,
1000
0020
0000
0130
,
0000
0001
1000
0020
,
0000
1030
0000
0002
,
0000
0103
0010
2000
,
0000
3200
0300
0010
,
0000
0020
0030
0100
,
0000
1000
0000
0100
,
0000
0010
0000
1001
,
0000
0200
0000
1300
,
0000
0200
0000
0301
,
0000
0010
0000
1000
,
0000
0001
0000
0200
,
0000
0310
1000
0010
,
0000
0100
0001
0100
,
0000
0200
0000
1300
,
0000
0200
0000
0301
,
0000
2000
0000
3010
,
0000
0001
0100
0010
,
0000
0002
0000
0103
,
0000
1000
0010
0200
,
0000
0310
1000
0010
,
0000
0100
0001
0100
,
0000
0200
0000
2300
,
0000
3002
0000
0023
,
0000
0130
0000
0010
,
0000
1000
0000
0001
,
0000
0100
0100
0200
,
0000
0000
0000
0000
,
0000
0000
0000
0000
,
0000
0000
0000
0310
;
