#TITLE:BUMBLE BEE;
#SUBTITLE:;
#ARTIST:bambee;
#TITLETRANSLIT:;
#SUBTITLETRANSLIT:;
#ARTISTTRANSLIT:;
#GENRE:Dancemania;
#CREDIT:;
#BANNER:BUMBLE BEE.png;
#BACKGROUND:BUMBLE BEE-bg.png;
#LYRICSPATH:;
#CDTITLE:;
#MUSIC:BUMBLE BEE.ogg;
#OFFSET:0.000000;
#SAMPLESTART:17.391001;
#SAMPLELENGTH:15.000000;
#SELECTABLE:YES;
#BPMS:0.000000=138.000000
;
#STOPS:
;
#BGCHANGES:;
#KEYSOUNDS:;
#ATTACKS:;

//---------------dance-single - ----------------
#NOTES:
     dance-single:
     :
     Easy:
     4:
     0.205043,0.272213,0.039595,0.267263,0.000000,145.000000,141.000000,4.000000,27.000000,0.000000,0.000000,0.205043,0.272213,0.039595,0.267263,0.000000,145.000000,141.000000,4.000000,27.000000,0.000000,0.000000:
0000
0000
0000
0000
,
0000
0000
0000
0000
,
0000
0000
0000
0000
,
0000
0000
0000
0000
,
0000
0000
0000
0000
,
0000
0000
0000
0000
,
2000
0000
3000
0000
,
0002
0000
0003
0000
,
0200
0000
0300
0000
,
2002
0000
3003
0000
,
1000
1000
0001
0001
,
0010
0001
0100
1000
,
0001
0001
1000
0001
,
1000
1000
0001
1000
,
0100
0100
0010
0010
,
0100
1000
0010
0001
,
1000
1000
0001
1000
,
0001
0001
1000
0001
,
2002
0000
3003
0000
,
0010
0000
0010
0000
,
0001
1000
0100
0000
,
1000
1000
2000
3000
,
0001
0001
0002
0003
,
0010
0000
0100
0000
,
0001
1000
0001
0000
,
0001
0001
0010
0001
,
0010
0001
0200
0300
,
0002
0000
1003
0000
,
0002
0000
1003
0000
,
0010
0000
0020
0030
,
0100
0000
0200
0300
,
2000
0000
3001
0000
,
2000
0000
3001
0000
,
0200
0000
0010
0310
,
2002
0000
3003
0000
,
1000
1000
0001
0001
,
0010
0001
0100
1000
,
0001
0001
1000
0001
,
1000
1000
0001
1000
,
0100
0100
0010
0010
,
0100
1000
0010
0001
,
0100
0100
0010
0100
,
0010
0010
0100
0010
,
0002
0000
0103
0000
,
2000
0000
3010
0000
,
0001
0001
0001
0100
,
0001
0001
0001
0010
,
0002
0000
1003
0000
,
0020
0000
1030
0000
,
1000
1000
1000
0100
,
1000
1000
1000
0010
,
2000
0000
3010
0000
,
0002
0000
0013
0000
,
2000
0000
3100
0000
,
0002
0000
0103
0000
,
1001
0000
0000
0000
;

//---------------dance-single - ----------------
#NOTES:
     dance-single:
     :
     Medium:
     7:
     0.337968,0.408319,0.287060,0.168277,0.000000,239.000000,210.000000,29.000000,17.000000,0.000000,0.000000,0.337968,0.408319,0.287060,0.168277,0.000000,239.000000,210.000000,29.000000,17.000000,0.000000,0.000000:
0000
0000
0000
0000
,
0000
0000
0000
0000
,
0000
0000
0000
0000
,
0000
0000
0000
0000
,
0000
0000
0000
0000
,
0000
0000
0000
0000
,
0001
0010
1000
0100
,
1000
0010
0001
0100
,
0001
0010
0100
1000
,
2000
3020
0230
0302
,
1003
0000
1000
0000
0001
0100
0001
0000
,
0010
0000
0010
0000
0100
0010
0100
0000
,
1001
1001
0010
0100
,
1001
1001
0010
0100
,
0001
0000
0001
0000
1000
0010
1000
0000
,
0100
0000
0100
0000
0010
0100
0010
0000
,
1001
1001
0100
0010
,
1001
1001
0100
0010
,
2002
0000
0000
0000
3003
0000
0000
1000
,
0100
0000
0010
0001
0020
0000
0030
0000
,
1000
0000
0100
0010
0000
0000
0000
0000
,
1001
0000
1100
0000
0101
0000
0010
1000
,
0100
0000
0001
0000
0100
0000
0010
1000
,
0010
0000
0100
0001
0200
0000
0300
0000
,
0010
0000
0001
0100
0000
0000
0000
0000
,
1000
0100
1000
0100
1000
0000
0010
0001
,
0001
1000
0020
0030
,
0100
0000
0001
0010
0001
0000
1000
0000
,
1000
0000
2000
0100
3000
0000
0000
0000
,
1000
0000
0001
1000
0001
0000
1000
0000
,
0001
0000
0000
0000
,
1000
0000
0001
0010
0001
0000
1000
0000
,
0010
0000
0200
0001
0300
0000
0000
0000
,
1000
0000
0100
0010
0100
0000
2000
0000
,
0002
0000
0000
3003
,
0001
0000
0001
0000
0010
0100
0010
0000
,
0001
0000
0001
0000
1000
0100
1000
0000
,
1001
1001
0100
0010
,
1001
0110
1000
0001
,
0010
0000
0100
1000
0100
1000
0100
0000
,
0010
0000
0001
0000
0100
0010
0100
0000
,
1001
1100
0001
0100
,
1001
0101
1000
0100
,
0010
0001
1000
0010
,
0100
0001
1000
0010
,
0101
0000
1100
0000
0010
0001
0010
0000
,
1100
0000
0101
0000
1000
0010
1000
0000
,
0001
0100
1000
0100
,
0010
0001
1000
0010
,
0101
0000
1010
0000
0100
0010
0100
0000
,
1001
0000
0110
0000
1000
0100
0001
0000
,
2000
0000
3100
0000
0010
0100
0010
0000
,
0002
0000
0013
0000
0100
0010
0100
0000
,
0002
0000
1003
0000
0100
0010
0100
0000
,
2000
0000
3001
0000
0010
0100
0010
0000
,
1001
0000
0000
0000
;

//---------------dance-single - ----------------
#NOTES:
     dance-single:
     :
     Hard:
     10:
     0.412915,0.435540,0.128682,0.168277,0.158378,292.000000,279.000000,13.000000,17.000000,0.000000,0.000000,0.412915,0.435540,0.128682,0.168277,0.158378,292.000000,279.000000,13.000000,17.000000,0.000000,0.000000:
0000
0000
0000
0000
,
0000
0000
0000
0000
,
0000
0000
0000
0000
,
0000
0000
0000
0000
,
0000
0000
0000
0000
,
0000
0000
0000
0000
,
0001
0000
0000
0000
1000
0000
0000
0100
0000
0000
1000
0000
0000
0000
1000
0000
,
0001
0000
0000
0000
0010
0000
0000
0100
0000
0000
1000
0000
0010
0000
1000
0000
,
0001
0000
0000
0000
1000
0000
0000
0100
0000
0000
0010
0000
0000
0000
0010
0000
,
0001
0000
0000
0000
1000
0000
0000
0100
0000
0000
0010
0000
0001
0000
0010
0000
,
0200
0000
1300
0000
0001
0100
0001
0000
,
0010
0100
1000
0100
0010
0001
0010
0000
,
0100
0000
1000
0100
0000
1000
0100
0000
0010
0000
0000
0000
0001
0000
0000
0000
,
1000
0000
0100
0010
0000
0100
0010
0000
0001
0000
0000
0000
1000
0000
0000
0000
,
0020
0000
0130
0001
0100
0010
1000
0000
,
0001
0010
0100
1000
0001
0010
0001
0000
,
0100
0000
0001
0010
0000
0100
1000
0000
0001
0000
0000
0000
0100
0000
0000
0000
,
0010
0000
1000
0001
0000
0100
0010
0000
1000
0000
0000
0000
0100
0000
0000
0000
,
0202
0000
0000
0303
,
1000
0100
0010
0100
0010
0001
1000
0000
,
0010
0100
0001
0200
0000
0000
0300
0000
,
0001
0010
0100
0010
0001
0000
1100
0000
,
0010
0001
1000
0001
0100
0000
1100
0000
,
0010
0001
0100
0010
1000
0100
0010
0000
,
0001
0100
0010
0200
0000
0000
0300
0000
,
0010
1000
0001
0010
0100
0000
1001
0000
,
0100
0010
0100
0000
2002
0000
3003
0000
,
0010
0100
1000
0100
0010
0000
0001
0100
,
0010
0000
2000
0200
0000
0000
3300
0000
,
0010
0000
0001
0100
0001
0000
1000
0100
,
0000
0020
0000
0000
0000
0000
0030
0000
,
0001
0000
1000
0010
1000
0000
1000
0100
,
1000
0000
0020
0002
0000
0000
0033
0000
,
1000
0000
0010
0100
0010
0000
0100
0000
,
2002
0000
0000
3003
,
1100
0000
0010
0001
1000
0100
0010
0000
,
0001
1000
0001
0100
0001
0010
0010
0000
,
0100
0000
1000
0010
0000
0100
0010
0000
1000
0000
0000
0000
0001
0000
0000
0000
,
0010
0000
0100
1000
0000
0100
0010
0000
0001
0000
0000
0000
0100
0000
0000
0000
,
1100
0000
0010
0001
1000
0100
0010
0000
,
0001
1000
0001
0100
0010
0100
0100
0000
,
0001
0000
0010
0100
0000
1000
0100
0000
0010
0000
0000
0000
0001
0000
0000
0000
,
1000
0000
0010
0100
0000
0001
0100
0000
0010
0000
0000
0000
1000
0000
0000
0000
,
0100
0000
0010
0002
0000
1003
0000
1000
,
0100
0000
0010
0001
0000
0001
0010
0100
,
1000
0000
0100
0010
0000
0100
1000
0000
0001
0000
0000
0000
0010
0000
0000
0000
,
0100
0000
1000
0010
0000
0100
0001
0000
0100
0000
0000
0000
0010
0000
0000
0000
,
1000
0000
0100
0020
0000
0031
0000
1000
,
0010
0000
0100
0010
0000
1000
0100
0010
,
0001
0000
0100
0010
0000
1000
0100
0000
0010
0000
0000
0000
0001
0000
0000
0000
,
0100
0000
0010
1000
0000
0100
0010
0000
0001
0000
0000
0000
1000
0000
0000
0000
,
0100
0000
0000
0000
1000
0000
0000
1100
0000
0000
0010
0000
0000
0000
0010
0000
,
0001
0000
0000
0000
0001
0000
0000
0011
0000
0000
0100
0000
1000
0000
0100
0000
,
1000
0000
0000
0000
0100
0000
0000
0110
0000
0000
0001
0000
0000
0000
0010
0000
,
0100
0000
0000
0000
1000
0000
0000
0110
0000
0000
0001
0000
0010
0000
0100
0000
,
0110
0000
0000
0000
;

//---------------dance-double - ----------------
#NOTES:
     dance-double:
     :
     Easy:
     5:
     0.207871,0.272213,0.039595,0.277162,0.000000,147.000000,143.000000,4.000000,28.000000,0.000000,0.000000,0.207871,0.272213,0.039595,0.277162,0.000000,147.000000,143.000000,4.000000,28.000000,0.000000,0.000000:
00000000
00000000
00000000
00000000
,
00000000
00000000
00000000
00000000
,
00000000
00000000
00000000
00000000
,
00000000
00000000
00000000
00000000
,
00000000
00000000
00000000
00000000
,
00000000
00000000
00000000
00000000
,
00020000
00000000
00031000
00000000
,
00000200
00000000
00000301
00000000
,
00002000
00000000
00003000
00000000
,
00022000
00000000
00033000
00000000
,
00100000
00100000
01000000
10000000
,
00010000
01000000
10000000
00100000
,
01000000
01000000
00001000
00000100
,
00000010
00000010
00010000
01000000
,
00100000
00100000
01000000
10000000
,
00010000
01000000
10000000
00100000
,
01000000
01000000
00001000
00000100
,
00000010
00000010
00010000
01000000
,
10020000
00000000
00030000
00000000
,
00002000
00003000
00001000
00000000
,
00010000
00001000
00000200
00000000
,
00000301
00000001
00000002
00000000
,
00001003
00001000
00002000
00000000
,
00003100
00000000
00010000
00000000
,
00001000
00100000
02000000
00000000
,
13000000
00010000
01000000
00100000
,
10000000
00010000
01000000
00000000
,
00200000
00000000
10300000
00000000
,
02000000
00000000
03010000
00000000
,
00002000
00000000
00003100
00000000
,
00000002
00000000
00000013
00000000
,
00000020
00000000
00000031
00000000
,
00000200
00000000
00001300
00000000
,
00020000
00000000
01030000
10000000
,
02200000
00000000
03300000
00000000
,
00100000
00100000
01000000
10000000
,
00010000
01000000
10000000
00100000
,
01000000
01000000
00001000
00000100
,
00000010
00000010
00010000
01000000
,
00100000
00100000
01000000
10000000
,
00010000
01000000
10000000
00100000
,
01000000
01000000
00001000
00000100
,
00000010
00000010
00010000
01000000
,
20000000
00000000
30010000
00000000
,
20000000
00000000
30010000
00000000
,
01000000
01000000
00010000
00010000
,
00000100
00000100
00000001
00000001
,
00002000
00000000
00003001
00000000
,
00000020
00000000
00000031
00000000
,
00001000
00001000
01000000
01000000
,
10000000
10000000
00010000
00010000
,
02000000
00000000
03010000
00000000
,
00020000
00000000
00031000
00000000
,
00000200
00000000
00010300
00000000
,
00020000
00000000
10030000
00000000
,
10010000
00000000
00000000
00000000
;

//---------------dance-double - ----------------
#NOTES:
     dance-double:
     :
     Medium:
     7:
     0.339382,0.381098,0.465236,0.138581,0.004949,240.000000,193.000000,47.000000,14.000000,0.000000,0.000000,0.339382,0.381098,0.465236,0.138581,0.004949,240.000000,193.000000,47.000000,14.000000,0.000000,0.000000:
00000000
00000000
00000000
00000000
,
00000000
00000000
00000000
00000000
,
00000000
00000000
00000000
00000000
,
00000000
00000000
00000000
00000000
,
00000000
00000000
00000000
00000000
,
00000000
00000000
00000000
00000000
,
00000001
00000010
00000100
00010000
,
00001000
00100000
01000000
10000000
,
00010000
00000000
01000000
01000000
00000000
00100000
00100000
00000000
,
10010000
00000000
00000000
00000000
01000000
00000000
00000000
01000000
00000000
00000000
00000000
00000000
00000000
00000000
00000000
00000000
,
00011000
00000000
00001010
00000000
00000000
00000001
00000001
00000000
,
00001100
00000000
00011000
00000000
00000000
00100000
00100000
00000000
,
10010000
01100000
00001000
00010000
,
00001010
00000101
00001000
00000100
,
00011000
00000000
00110000
00000000
00000000
10000000
10000000
00000000
,
01100000
00000000
10010000
00000000
00000000
01000000
01000000
00000000
,
00011000
00001010
00000100
00000001
,
00001100
00011000
00100000
01000000
,
20020000
00000000
00000000
30030000
,
00100000
00001000
00010000
00000000
00000100
00010000
00001000
00000000
,
00100000
00010000
01000000
00000000
22000000
00000000
33000000
00000000
,
00100000
00001000
00010000
00000100
,
00000010
00000001
00002200
00003300
,
00010000
00001000
01000000
00000000
00010000
10000000
01000000
00000000
,
00100000
00001000
00010000
00000000
00002020
00000000
00003030
00000000
,
00010000
00000100
00000010
00000001
,
00001000
00000100
00022000
00033000
,
00100000
00000000
01000000
10000000
00000000
10000000
01000000
00000000
,
00100000
00000000
00001000
00010000
00000000
00000000
00000000
00000000
,
00000010
00000100
00000001
00001000
,
00000220
00000000
00000000
00000330
,
00010000
00001000
00010000
00000100
00000000
00010000
00001000
00000000
,
00100000
00000000
00010000
01000000
00000000
00000000
00000000
00000000
,
00001000
00010000
00000010
00000100
,
00002002
00000000
00003003
00000000
,
00011000
00000000
01010000
00000000
00000000
00100000
00100000
00000000
,
10010000
00000000
01100000
00000000
00000000
00010000
00010000
00000000
,
00011000
00001010
00000001
00000010
,
00001100
00011000
00100000
00010000
,
11000000
00000000
01010000
00000000
00000000
00001000
00001000
00000000
,
00011000
00000000
00001010
00000000
00000000
00000100
00000100
00000000
,
00011000
00110000
10000000
01000000
,
00110000
00011000
00000100
00000010
,
00000001
00000100
00000010
00010000
,
00001000
00100000
01000000
10000000
,
01010000
00000000
00001000
00001000
00000000
00010000
00010000
00000000
,
00001010
00000000
00000100
00000100
00000000
00000000
00001001
00000000
,
00000010
00000100
00010000
00001000
,
00100000
01000000
10000000
00100000
,
01010000
00000000
00001000
00001000
00000000
00010000
00010000
00000000
,
00001010
00000000
00000001
00000001
00000000
00000000
00000110
00000000
,
00001000
00010000
00001000
00000100
,
00010000
00001000
00010000
01000000
,
00100000
00010000
00001000
00000100
,
00000010
00000001
00000100
00001000
,
00011000
00000000
00000000
00000000
;

//---------------dance-double - ----------------
#NOTES:
     dance-double:
     :
     Hard:
     9:
     0.412915,0.435540,0.267263,0.178175,0.000000,292.000000,265.000000,27.000000,18.000000,0.000000,0.000000,0.412915,0.435540,0.267263,0.178175,0.000000,292.000000,265.000000,27.000000,18.000000,0.000000,0.000000:
00000000
00000000
00000000
00000000
,
00000000
00000000
00000000
00000000
,
00000000
00000000
00000000
00000000
,
00000000
00000000
00000000
00000000
,
00000000
00000000
00000000
00000000
,
00000000
00000000
00000000
00000000
,
10000000
00010000
00100000
00002000
00000000
00013000
00000000
00010000
,
00000100
00000010
00000001
00000100
00000000
00000010
00000010
00000010
,
00010000
00001000
00100000
00020000
00000000
01030000
00000000
01000000
,
00100000
10000000
01000000
00100000
00000000
00010000
00010000
00010000
,
01000000
00000000
00001000
00010000
00000100
00001000
00000100
00000000
,
00010000
00001000
00010000
00000000
00000010
00001000
00000010
00000000
,
00000100
00000001
00000100
00000001
00000100
00000000
00001100
00000000
,
00010000
00001000
00010000
00001000
00010000
00000000
00110000
00000000
,
10000000
00000000
00100000
01000000
00010000
00100000
00001000
00000000
,
00010000
00000010
00001000
00000000
00000100
00010000
00001000
00000000
,
00100000
00010000
01000000
00100000
10000000
00000000
01010000
00000000
,
00100000
00001000
00010000
00000100
00001000
00000000
00000101
00000000
,
00002200
00000000
00000000
00003300
,
00010000
00001000
00100000
00000000
00010000
01000000
00100000
00000000
,
10000000
01000000
00100000
00010000
02000000
00000000
03000000
00000000
,
00011000
00001001
00000110
00011000
,
00100000
00010000
10000000
01000000
00200000
00000000
00300000
00000000
,
00010000
01000000
00001000
00000000
00010000
00001000
00100000
00000000
,
00001000
00010000
00000010
00001000
00000200
00000000
00000300
00000000
,
00011000
10010000
01100000
00011000
,
00000010
00000100
00000001
00000000
00002200
00000000
00003300
00000000
,
00010000
00000000
00001000
00001000
00001000
00000000
00100000
00010000
,
00100000
00000000
02000000
20000000
00000000
00000000
33000000
00000000
,
00100000
01000000
00001000
00010000
00000100
00000000
00000010
00000001
,
00000000
00000002
00000000
00000000
00000000
00000000
00000003
00000000
,
00001000
00000000
00000100
00010000
00001000
00000000
00100000
00010000
,
10000000
00000000
00200000
02000000
00000000
00000000
03300000
00000000
,
00010000
00100000
00001000
00010000
00000010
00000000
00001001
00000000
,
00000100
00000010
00001000
00000100
,
00010000
00000000
00001000
00100000
00010000
01000000
00100000
00000000
,
10000000
01000000
00100000
00010000
01000000
00001000
00001000
00000000
,
00010010
00000000
00001001
00000000
00000100
00000010
00000010
00000000
,
00011000
00000000
10010000
00000000
01000000
00100000
00100000
00000000
,
10000000
01000000
00100000
00010000
01000000
00000000
00011000
00000000
,
00000010
00001000
00000100
00000010
00000000
00000001
00000001
00000000
,
00001000
00000100
00010000
00001000
00100000
00000000
10010000
00000000
,
01000000
00010000
01000000
00000000
00011000
00000000
00001001
00000000
,
00000100
00000010
00001000
00000100
00000000
00010000
00000000
00010000
,
00001000
00100000
01000000
10000000
00000000
00100000
01000000
00000000
,
00010000
01000000
00001000
00010000
00000010
00000000
00001001
00000000
,
00000010
00000100
00010000
00001000
00000000
00100000
00100000
00000000
,
01000000
10000000
00100000
01000000
00010000
00000000
00011000
00000000
,
00000010
00000100
00000001
00000010
00000000
00000100
00000100
00000000
,
00010000
00001000
00100000
00010000
10000000
00000000
01100000
00000000
,
00001000
00000000
00010000
00000100
00000000
00000010
00000001
00000000
,
00002000
00000000
00003100
00000000
00001000
00010000
00100000
00000000
,
00200000
00000000
01300000
00000000
10000000
00100000
00010000
00000000
,
00002000
00000000
00003001
00000000
00000010
00001000
00000100
00000000
,
00020000
00000000
00130000
00000000
01000000
00010000
00001000
00000100
,
00001100
00000000
00000000
00000000
;

//---------------dance-single - ----------------
#NOTES:
     dance-single:
     :
     Beginner:
     2:
     0.101815,0.163328,0.019797,0.000000,0.000000,72.000000,70.000000,2.000000,0.000000,0.000000,0.000000,0.101815,0.163328,0.019797,0.000000,0.000000,72.000000,70.000000,2.000000,0.000000,0.000000,0.000000:
0000
0000
0000
0000
,
0000
0000
0000
0000
,
0000
0000
0000
0000
,
0000
0000
0000
0000
,
0000
0000
0000
0000
,
0000
0000
0000
0000
,
1000
0000
0100
0000
,
1000
0000
0000
0000
,
0001
0000
0010
0000
,
0001
0000
0000
0000
,
1000
0000
0100
0000
,
1000
0000
0000
0000
,
0100
0000
0100
0000
,
0010
0000
0010
0000
,
0001
0000
0010
0000
,
0001
0000
0000
0000
,
1000
0000
1000
0000
,
0001
0000
0001
0000
,
0110
0000
0000
0000
,
0010
0000
0000
0000
,
0100
0000
0000
0000
,
0001
0000
0000
0000
,
1000
0000
0000
0000
,
0100
0000
0000
0000
,
0010
0000
0000
0000
,
1000
0000
0000
0000
,
0001
0000
0000
0000
,
0100
0000
0100
0000
,
0100
0000
0000
0000
,
0010
0000
0010
0000
,
0010
0000
0000
0000
,
1000
0000
1000
0000
,
1000
0000
0000
0000
,
0001
0000
0001
0000
,
0001
0000
0000
0000
,
1000
0000
0100
0000
,
0010
0000
0000
0000
,
0001
0000
0010
0000
,
0100
0000
0000
0000
,
1000
0000
0010
0000
,
0001
0000
0000
0000
,
0001
0000
0100
0000
,
1000
0000
0000
0000
,
0010
0000
0010
0000
,
0100
0000
0100
0000
,
0010
0000
0000
0000
,
0010
0000
0000
0000
,
1000
0000
1000
0000
,
0001
0000
0001
0000
,
1000
0000
0000
0000
,
1000
0000
0000
0000
,
0001
0000
0000
0000
,
0100
0000
0000
0000
,
1000
0000
0000
0000
,
0010
0000
0000
0000
,
1001
0000
0000
0000
;

//---------------dance-single - ----------------
#NOTES:
     dance-single:
     :
     Challenge:
     5:
     0.186660,0.244991,0.039595,0.237567,0.000000,132.000000,128.000000,4.000000,24.000000,136.000000,0.000000,0.186660,0.244991,0.039595,0.237567,0.000000,132.000000,128.000000,4.000000,24.000000,136.000000,0.000000:
0000
0000
0000
0000
,
0000
0000
0000
0000
,
0000
0000
0000
0000
,
0000
0000
0000
0000
,
0000
0000
0000
0000
,
0000
0000
0000
0000
,
2000
0000
3000
0000
,
0002
0000
0003
0000
,
0200
0000
0300
0000
,
2002
0000
3003
MMMM
,
1000
1000
0001
0001
,
0010
0001
0100
1000
,
0001
0001
1000
MMMM
,
1000
1000
0001
MMMM
,
0100
0100
0010
0010
,
0100
1000
0010
0001
,
1000
1000
0001
MMMM
,
0001
0001
1000
MMMM
,
2002
0000
3003
MMMM
,
0010
0000
0010
0000
,
0001
1000
0100
MMMM
,
1000
1000
1000
MMMM
,
0001
0001
0001
MMMM
,
0010
0000
0100
0000
,
0001
1000
0001
0000
,
0001
0001
0010
MMMM
,
0010
0001
0100
MMMM
,
0002
0000
1003
MMMM
,
0002
0000
1003
MMMM
,
0010
MMMM
0020
0030
,
0100
MMMM
0200
0300
,
2000
0000
3001
MMMM
,
2000
0000
3001
MMMM
,
0200
0000
0010
0310
,
2002
0000
3003
MMMM
,
1000
1000
0001
0001
,
0010
0001
0100
1000
,
0001
0001
1000
MMMM
,
1000
1000
0001
MMMM
,
0100
0100
0010
0010
,
0100
1000
0010
0001
,
0100
0100
0010
MMMM
,
0010
0010
0100
MMMM
,
0002
0000
0103
MMMM
,
2000
0000
3010
MMMM
,
0001
0001
0001
MMMM
,
0001
0001
0001
MMMM
,
0002
0000
1003
MMMM
,
0020
0000
1030
MMMM
,
1000
1000
1000
MMMM
,
1000
1000
1000
MMMM
,
2000
0000
3010
MMMM
,
0002
0000
0013
MMMM
,
2000
0000
3100
MMMM
,
0002
0000
0103
MMMM
,
1001
0000
0000
0000
;

//---------------dance-double - ----------------
#NOTES:
     dance-double:
     :
     Challenge:
     6:
     0.207871,0.272213,0.039595,0.277162,0.000000,147.000000,143.000000,4.000000,28.000000,176.000000,0.000000,0.207871,0.272213,0.039595,0.277162,0.000000,147.000000,143.000000,4.000000,28.000000,176.000000,0.000000:
00000000
00000000
00000000
00000000
,
00000000
00000000
00000000
00000000
,
00000000
00000000
00000000
00000000
,
00000000
00000000
00000000
00000000
,
00000000
00000000
00000000
00000000
,
00000000
00000000
00000000
00000000
,
00020000
00000000
00031000
00000000
,
00000200
00000000
00000301
00000000
,
00002000
00000000
00003000
00000000
,
00022000
00000000
00033000
MMMMMMMM
,
00100000
00100000
01000000
10000000
,
00010000
01000000
10000000
00100000
,
01000000
01000000
00001000
00000100
,
00000010
00000010
00010000
01000000
,
00100000
00100000
01000000
10000000
,
00010000
01000000
10000000
00100000
,
01000000
01000000
00001000
00000100
,
00000010
00000010
00010000
01000000
,
10020000
00000000
00030000
MMMMMMMM
,
00002000
00003000
00001000
MMMMMMMM
,
00010000
00001000
00000200
00000000
,
00000301
00000001
00000002
MMMM0000
,
00001003
00001000
00002000
MMMM0000
,
00003100
00000000
00010000
00000000
,
00001000
00100000
02000000
00000000
,
13000000
00010000
01000000
00100000
,
10000000
00010000
01000000
MMMMMMMM
,
00200000
00000000
10300000
MMMMMMMM
,
02000000
00000000
03010000
MMMMMMMM
,
00002000
00000000
00003100
MMMMMMMM
,
00000002
00000000
00000013
MMMMMMMM
,
00000020
00000000
00000031
MMMMMMMM
,
00000200
00000000
00001300
MMMMMMMM
,
00020000
00000000
01030000
10000000
,
02200000
00000000
03300000
MMMMMMMM
,
00100000
00100000
01000000
10000000
,
00010000
01000000
10000000
00100000
,
01000000
01000000
MMMM1000
00000100
,
00000010
00000010
0001MMMM
01000000
,
00100000
00100000
01000000
10000000
,
00010000
01000000
10000000
00100000
,
01000000
01000000
MMMM1000
00000100
,
00000010
00000010
0001MMMM
01000000
,
20000000
00000000
30010000
MMMMMMMM
,
20000000
00000000
30010000
MMMMMMMM
,
01000000
01000000
00010000
00010000
,
00000100
00000100
00000001
00000001
,
00002000
00000000
00003001
MMMMMMMM
,
00000020
00000000
00000031
MMMMMMMM
,
00001000
00001000
01000000
01000000
,
10000000
10000000
00010000
00010000
,
02000000
00000000
03010000
MMMMMMMM
,
00020000
00000000
00031000
MMMMMMMM
,
00000200
00000000
00010300
MMMMMMMM
,
00020000
00000000
10030000
MMMMMMMM
,
10010000
00000000
00000000
00000000
;
