#TITLE:BOSS ON PARADE;
#SUBTITLE:;
#ARTIST:DJ TECHNORCH;
#TITLETRANSLIT:;
#SUBTITLETRANSLIT:;
#ARTISTTRANSLIT:;
#GENRE:DDR;
#CREDIT:;
#BANNER:;
#BACKGROUND:;
#LYRICSPATH:;
#CDTITLE:;
#MUSIC:BOSS ON PARADE.ogg;
#OFFSET:-0.220000;
#SAMPLESTART:16.214981;
#SAMPLELENGTH:15.000000;
#SELECTABLE:YES;
#DISPLAYBPM:150.000;
#BPMS:0.000000=150.000000
;
#STOPS:
;
#BGCHANGES:;
#KEYSOUNDS:;
#ATTACKS:;

//---------------dance-single - ----------------
#NOTES:
     dance-single:
     :
     Easy:
     6:
     0.267400,0.306768,0.033276,0.124787,0.000000,225.000000,221.000000,4.000000,15.000000,0.000000,0.000000,0.267400,0.306768,0.033276,0.124787,0.000000,225.000000,221.000000,4.000000,15.000000,0.000000,0.000000:
0000
0000
0000
0000
,
0000
0000
0000
0000
,
0000
0000
0000
0000
,
0000
0000
0000
0000
,
0000
0000
0000
0000
,
0000
0000
0000
0000
,
1000
0010
0100
0001
,
0010
0100
1000
0000
,
1000
0010
0100
0001
,
0010
0100
1000
0000
,
0001
0100
0010
1000
,
0001
0100
0010
1000
,
0001
0100
0010
1000
,
0001
0100
0010
1000
,
0001
0010
0100
1000
,
0001
0010
0100
1000
,
0001
0010
0100
1000
,
0020
0000
0130
0000
,
1000
0010
0200
0000
,
0301
0010
0200
0000
,
1300
0010
0200
0000
,
0301
0010
0200
0000
,
1300
0100
0020
0000
,
0031
0100
0020
0000
,
1030
0100
0020
0000
,
0031
0100
0020
0000
,
1030
0100
0010
0001
,
0100
0010
1100
0000
,
1000
0010
0100
0001
,
0010
0100
1100
0000
,
1000
0010
0100
0001
,
0010
0100
1100
0000
,
1000
0010
0100
0001
,
0010
0100
1000
1001
,
0010
0100
0010
0100
,
1000
0001
0100
0000
,
0010
0100
0010
0100
,
0001
1000
0100
0000
,
1000
0010
0100
0001
,
0100
0010
1000
0000
,
0001
0100
0010
1000
,
0010
0100
0001
0000
,
0200
0000
0010
0000
,
0010
0000
1000
0000
,
0320
0000
0100
0000
,
0100
0000
0001
0000
,
2030
0000
0100
0000
,
0100
0000
0010
0000
,
3002
0000
0100
0000
,
0100
0000
0010
0000
,
1003
0010
1000
0000
,
0001
0010
0001
0000
,
1000
0100
1000
0000
,
0001
0100
0001
0000
,
1000
0010
0100
0000
,
0001
0100
0010
0000
,
1000
0100
0010
0001
,
0200
0000
0020
0330
,
0001
0100
0010
0000
,
1000
0010
0100
0000
,
1000
0100
0001
0000
,
0001
0010
1000
0000
,
1000
0010
0100
0000
,
0001
0100
0010
0000
,
1000
0100
0001
0000
,
0001
0010
1000
0000
,
0010
0010
1000
0001
,
0010
0010
0001
1000
,
0010
0010
1000
0001
,
0010
0010
0001
1000
,
0010
0010
1000
0001
,
0010
0010
0001
1000
,
0010
0010
1000
0001
,
0100
0010
1000
0001
;

//---------------dance-single - ----------------
#NOTES:
     dance-single:
     :
     Beginner:
     3:
     0.140237,0.213281,0.091510,0.008319,0.000000,118.000000,107.000000,11.000000,1.000000,0.000000,0.000000,0.140237,0.213281,0.091510,0.008319,0.000000,118.000000,107.000000,11.000000,1.000000,0.000000,0.000000:
0000
0000
0000
0000
,
0000
0000
0000
0000
,
0000
0000
0000
0000
,
0000
0000
0000
0000
,
0000
0000
0000
0000
,
0000
0000
0000
0000
,
1000
0000
0001
0000
,
1000
0000
0001
0000
,
0100
0000
0010
0000
,
0200
0000
0300
0000
,
1000
0000
0000
0010
,
0100
0000
0000
0001
,
0100
0000
0000
0010
,
0100
0000
0000
1000
,
0100
0000
0000
0010
,
0100
0000
0000
0001
,
0100
0000
0000
0010
,
0100
0000
0000
0000
,
1001
0000
0000
0000
,
1001
0000
0000
0000
,
1001
0000
0000
0000
,
1001
0000
0000
0000
,
0110
0000
0000
0000
,
0110
0000
0000
0000
,
0110
0000
0000
0000
,
0110
0000
0010
0010
,
0001
0000
0100
0000
,
1000
0000
0100
0000
,
0001
0000
0100
0000
,
1000
0000
0100
0000
,
0001
0000
0010
0000
,
1000
0000
0010
0000
,
0001
0000
0010
0000
,
1000
0000
0000
0000
,
0001
0000
0100
0000
,
0010
0000
1000
0000
,
0100
0000
0010
0000
,
0001
0000
0000
0000
,
0001
0000
0100
0000
,
0010
0000
1000
0000
,
0100
0000
0010
0000
,
0001
0000
0000
0000
,
1001
0000
0000
0000
,
0000
0000
0000
0000
,
0110
0000
0000
0000
,
0000
0000
0000
0000
,
1000
0000
0000
0000
,
0010
0000
0000
0000
,
0100
0000
0000
0000
,
0001
0000
0000
0000
,
1000
0000
0100
0000
,
1000
0000
0000
0000
,
0001
0000
0100
0000
,
0001
0000
0000
0000
,
1000
0000
0010
0000
,
1000
0000
0000
0000
,
0001
0000
0010
0000
,
0001
0000
0000
0000
,
1001
0000
0100
0000
,
1000
0000
0000
0000
,
0001
0000
0100
0000
,
0001
0000
0000
0000
,
1000
0000
0010
0000
,
1000
0000
0000
0000
,
0001
0000
0010
0000
,
0001
0000
0000
0000
,
0100
0100
0000
0000
,
0100
0100
0000
0000
,
0100
0100
0000
0000
,
0100
0100
0000
0000
,
0010
0010
0000
0000
,
0010
0010
0000
0000
,
0010
0010
0000
0000
,
0010
0010
0000
0000
;

//---------------dance-single - ----------------
#NOTES:
     dance-single:
     :
     Medium:
     12:
     0.508655,0.584340,0.307808,0.091510,0.024957,428.000000,391.000000,37.000000,11.000000,0.000000,0.000000,0.508655,0.584340,0.307808,0.091510,0.024957,428.000000,391.000000,37.000000,11.000000,0.000000,0.000000:
0000
0000
0000
0000
,
0000
0000
0000
0000
,
0000
0000
0000
0000
,
0000
0000
0000
0000
,
0000
0000
0000
0000
,
0000
0000
0000
0000
,
1000
0100
1000
0000
0001
0100
0001
0000
,
1000
0010
1000
0000
0001
0010
0001
0000
,
1000
0100
0010
0000
0100
0010
0001
0000
,
0001
0000
0000
0010
0000
0000
0100
0000
0000
1000
0000
0000
1001
0000
0000
0000
,
0110
0000
1001
0000
0010
1000
0001
0100
,
0110
0000
1001
0000
0100
0010
1000
0001
,
1001
0000
0110
0000
0001
0100
0010
1000
,
0110
0000
1001
0000
0010
1000
0100
0001
,
0011
0000
0101
0000
0100
0010
0100
0001
,
1100
0000
1100
0000
0010
1000
0001
0100
,
1010
0000
1100
0000
0010
1000
0001
0100
,
0011
0000
0011
0000
0001
0100
0010
0000
,
1000
0010
0100
0000
0001
0000
0001
0000
,
0100
0010
1000
0000
1000
0000
1000
0000
,
0010
0100
0001
0000
0100
0000
0100
0000
,
0001
1000
0010
0000
0010
0000
0010
0000
,
1000
0100
0010
0000
0001
0000
0001
0000
,
0001
0010
0100
0000
0100
0000
0100
0000
,
0001
0010
0100
0000
1000
0000
1000
0000
,
1000
0100
0010
0000
0010
0000
0010
0000
,
0001
0100
0010
0000
1000
0010
0100
0000
,
0001
0100
1000
0100
0001
0000
1001
0000
,
0001
1000
0010
0000
1000
0001
0100
0000
,
1000
0100
0001
0100
1000
0000
0110
0000
,
0001
1000
0010
0000
1000
0001
0100
0000
,
0001
0100
1000
0010
0001
0000
1001
0000
,
0010
1000
0001
0000
0001
0100
1000
0000
,
0010
1000
0100
0001
0010
0100
1000
0000
,
1100
0000
0101
0000
1000
0010
0100
0001
,
0010
1000
0010
0100
0001
0000
1010
0000
,
0001
0000
0101
0000
0001
1000
0010
1000
,
0100
0001
0100
1000
0100
0000
1100
0000
,
0001
1000
0010
0000
1001
0000
1001
0000
,
0010
1000
0100
0001
0010
0100
1000
0000
,
0010
1000
0001
0000
1001
0000
1001
0000
,
0010
0100
1000
0010
0100
0001
0100
0000
,
0020
0000
1000
0100
,
1000
0000
0001
0100
,
0032
0000
0100
0010
,
0100
0000
0010
1000
,
2003
0000
0100
0001
,
0100
0000
0100
0010
,
3200
0000
1000
0010
,
1000
0000
0010
0301
,
0020
0000
0130
0000
1000
0100
0001
0000
,
2000
0000
3001
0000
0010
0100
1000
0000
,
0002
0000
1003
0000
0010
0001
1000
0000
,
0200
0000
0310
0000
0001
0100
1000
0000
,
0010
0100
0001
0000
0001
0100
1000
0000
,
1000
0100
0010
0000
0010
0100
0001
0000
,
0002
0010
0013
0000
2000
0100
3100
0000
,
0200
1000
1300
0100
0010
1000
0001
0000
,
0001
0100
0010
1000
0100
0000
1100
0000
,
1000
0010
0100
0001
0010
0000
0011
0000
,
0001
0100
0010
1000
0100
0000
1100
0000
,
1000
0010
0100
0001
0010
0000
0011
0000
,
0001
0100
0010
1000
0100
1000
1100
0000
,
1000
0010
0100
0001
0010
0001
0011
0000
,
0001
0100
0010
1000
0100
1000
1100
0000
,
0001
0000
0000
0001
0100
0000
0010
0000
1000
0100
1000
0000
1100
0000
0000
0000
,
1000
0010
0100
0001
0100
1000
0100
0000
,
1000
0010
0100
0001
0100
1000
0100
0000
,
1000
0010
0100
0001
0100
1000
0100
0000
,
1000
0010
0100
0001
0100
1000
0100
0000
,
1000
0010
0100
0001
0100
1000
0100
0001
,
1000
0010
0100
0001
0100
1000
0100
0001
,
1000
0010
0100
0001
0100
1000
0100
0001
,
1000
0000
0010
0000
0100
0000
0001
0000
0100
0000
1000
0000
0100
0010
0100
0010
;

//---------------dance-single - ----------------
#NOTES:
     dance-single:
     :
     Hard:
     15:
     0.778432,0.830378,0.083191,0.166382,0.819433,655.000000,645.000000,10.000000,20.000000,0.000000,0.000000,0.778432,0.830378,0.083191,0.166382,0.819433,655.000000,645.000000,10.000000,20.000000,0.000000,0.000000:
// measure 0
0000
0000
0000
0000
,  // measure 1
0000
0000
0000
0000
,  // measure 2
0000
0000
0000
0000
,  // measure 3
0000
0000
0000
0000
,  // measure 4
0000
0000
0000
0000
,  // measure 5
0000
0000
0000
0000
,  // measure 6
1010
0000
0001
1000
0010
0100
0001
0000
,  // measure 7
0011
0000
0000
0000
0001
0000
0100
0000
0010
0000
1000
0010
0100
0010
0100
0000
,  // measure 8
0001
0000
1001
0010
1000
0100
0010
0100
,  // measure 9
0001
0100
0000
0100
0010
0000
0010
1000
0000
1000
0001
0000
1001
0000
0000
0000
,  // measure 10
0110
0000
0001
0100
0010
0000
1000
0000
0010
0100
0000
0100
0010
0000
0001
0000
,  // measure 11
1000
0000
0010
1000
0001
0000
0100
0000
0010
1000
0000
1000
0010
0000
0100
0000
,  // measure 12
0001
0000
1000
0010
0100
0000
0001
0000
0100
0001
0000
0001
0100
0000
0010
0000
,  // measure 13
1000
0000
0001
0100
0010
0000
1000
0000
0001
0100
0000
0100
0001
0000
0010
0000
,  // measure 14
0110
0000
1000
0010
0100
0000
0001
0000
0100
0010
0000
0010
0100
0000
1000
0000
,  // measure 15
0001
0000
0100
0001
1000
0000
0010
0000
0100
0001
0000
0001
0100
0000
0010
0000
,  // measure 16
1000
0000
0001
0100
0010
0000
1000
0000
0010
1000
0000
1000
0010
0000
0100
0000
,  // measure 17
0001
0000
1000
0010
0100
0000
0001
0000
1000
0010
0000
0010
1000
0000
0100
0000
,  // measure 18
0001
1000
0000
1000
0010
0000
0100
0010
0100
0001
1000
0000
0010
0000
0000
0000
,  // measure 19
0001
1000
0000
1000
0010
0000
0100
0010
0100
0001
1000
0000
0010
0000
0000
0000
,  // measure 20
1000
0001
0000
0001
0100
0000
0010
0100
0010
1000
0001
0000
0100
0000
0000
0000
,  // measure 21
1000
0001
0000
0001
0100
0000
0010
0100
0010
1000
0001
0000
0100
0000
0000
0000
,  // measure 22
0010
0100
0000
0100
0010
1000
0001
0000
0100
1000
0100
0010
0001
0000
0000
0000
,  // measure 23
0010
0100
0000
0100
0010
1000
0001
0000
0100
1000
0100
0010
0001
0000
0000
0000
,  // measure 24
0100
0010
0000
0010
0100
0001
1000
0000
0010
0001
0010
0100
1000
0000
0000
0000
,  // measure 25
0100
0010
0000
0010
0100
0001
1000
0000
0010
0001
0010
0100
1000
0000
0000
0000
,  // measure 26
0010
1000
0010
1000
0001
0100
0001
0100
,  // measure 27
0010
0000
1000
0000
0100
0000
0001
0000
0100
0000
1000
0100
1000
0100
1000
0000
,  // measure 28
0010
1000
0100
0010
0100
0001
0010
1000
,  // measure 29
0100
0000
0010
0000
0100
0000
0001
0000
1000
0000
0001
0010
0001
0010
0001
0000
,  // measure 30
0100
0001
0100
0001
1000
0010
1000
0010
,  // measure 31
0100
0000
0001
0000
0010
0000
1000
0000
0010
0000
0001
0010
0001
0010
0001
0000
,  // measure 32
0100
0001
0010
0100
0010
1000
0100
0001
,  // measure 33
0010
0000
0100
0000
0010
0000
1000
0000
0001
0000
1000
0100
1000
0100
1000
0000
,  // measure 34
0010
0000
1000
0001
1000
0000
0010
1000
0010
0000
0100
0001
0100
0000
0010
0100
,  // measure 35
0010
0000
1000
0010
0100
0000
0001
0100
0010
0000
0100
0000
0001
0000
0000
0000
,  // measure 36
1000
0000
0100
0010
0100
0000
1000
0100
1000
0000
0001
0010
0001
0000
1000
0001
,  // measure 37
1000
0000
0100
1000
0001
0000
0010
0001
1000
0000
0001
0000
0010
0000
0000
0000
,  // measure 38
0001
0000
0010
0100
0010
0000
0001
0010
0001
0000
1000
0100
1000
0000
0001
1000
,  // measure 39
0001
0000
0010
0001
1000
0000
0100
1000
0001
0000
1000
0000
0100
0000
0000
0000
,  // measure 40
0100
0000
0001
1000
0001
0000
0100
0001
0100
0000
0010
1000
0010
0000
0100
0010
,  // measure 41
0100
1000
0000
1000
0010
0000
0010
0001
0100
0001
0010
0100
1000
0000
0000
0000
,  // measure 42
0021
0000
0000
0001
0000
0000
0001
0000
0000
0001
0000
0000
0001
0000
0000
0000
,  // measure 43
1000
0000
0000
1000
0000
0000
1000
0000
0000
1000
0000
0000
1000
0030
0000
0000
,  // measure 44
2100
0000
0000
0100
0000
0000
0100
0000
0000
0100
0000
0000
0100
0000
0000
0000
,  // measure 45
0010
0000
0000
0010
0000
0000
0010
0000
0000
0010
0000
0000
0010
0000
0000
0000
,  // measure 46
3020
0000
0000
0130
0000
0000
0002
0000
0000
1003
0000
0000
0200
0000
1000
0300
,  // measure 47
0020
0000
0000
0130
0000
0000
0002
0000
0000
0013
0000
0000
0200
0000
0001
0000
,  // measure 48
2300
0000
0000
3002
0000
0000
0023
0000
0000
2030
0000
0000
3200
0000
0320
0000
,  // measure 49
2030
0000
0000
3020
0000
0000
0230
0000
0000
0302
0000
0000
0023
0000
0230
0000
,  // measure 50
0301
0000
0010
0000
0100
0000
0001
0000
1000
0010
1000
0010
1000
0000
0100
0000
,  // measure 51
0010
0000
0100
0000
0001
0000
0010
0000
0001
0010
0001
0010
0001
0000
0010
0000
,  // measure 52
0100
0000
1000
0000
0010
0000
0100
0000
0001
1000
0001
1000
0001
0000
0010
0000
,  // measure 53
1000
0000
0100
0000
0010
0000
0001
0000
1000
0001
1000
0001
1000
0000
0010
0000
,  // measure 54
1000
0100
0001
0010
0100
1000
0010
0100
,  // measure 55
1000
0100
0001
0010
0100
1000
0010
0100
,  // measure 56
1000
0100
0010
0000
0001
0010
0100
0000
1000
0010
0100
0000
0001
0100
0010
0000
,  // measure 57
1000
0100
0010
0100
1000
0010
0001
0010
0001
0100
0010
0100
0001
0000
0000
0000
,  // measure 58
0110
0000
1000
0010
0100
0000
0001
0000
0100
0010
0000
0010
0100
0000
1000
0000
,  // measure 59
0001
0000
0100
0001
1000
0000
0010
0000
0100
0001
0000
0001
0100
0000
0010
0000
,  // measure 60
1000
0000
0001
0100
0010
0000
1000
0000
0010
1000
0000
1000
0010
0000
0100
0000
,  // measure 61
0001
0000
1000
0010
0100
0000
0001
0000
1000
0010
0000
0010
1000
0000
0100
0000
,  // measure 62
0110
0000
0001
0100
0010
0000
1000
0000
0010
0100
0000
0100
0010
0000
0001
0000
,  // measure 63
1000
0000
0010
1000
0001
0000
0100
0000
0010
1000
0000
1000
0010
0000
0100
0000
,  // measure 64
0001
0000
1000
0010
0100
0000
0001
0000
0100
0001
0000
0001
0100
0000
0010
0000
,  // measure 65
1000
0000
0001
0100
0010
0000
1000
0000
0001
0100
0000
0100
0001
0000
0010
0000
,  // measure 66
1000
0001
0000
0001
0100
0000
0010
0100
0010
1000
0001
0000
0100
0000
0000
0000
,  // measure 67
1000
0001
0000
0001
0100
0000
0010
0100
0010
1000
0001
0000
0100
0000
0000
0000
,  // measure 68
0001
1000
0000
1000
0010
0000
0100
0010
0100
0001
1000
0000
0010
0000
0000
0000
,  // measure 69
0001
1000
0000
1000
0010
0000
0100
0010
0100
0001
1000
0000
0010
0000
0000
0000
,  // measure 70
0100
0010
0000
0010
0100
0001
1000
0000
0010
0001
0010
0100
1000
0000
0000
0000
,  // measure 71
0100
0010
0000
0010
0100
0001
1000
0000
0010
0001
0010
0100
1000
0000
0000
0000
,  // measure 72
0010
0100
0000
0100
0010
1000
0001
0000
0100
1000
0100
0010
0001
0000
0000
0000
,  // measure 73
0010
0100
0000
0100
0010
1000
0001
0000
0100
1000
0100
0010
0001
0010
0100
1000
;

//---------------dance-couple - ----------------
#NOTES:
     dance-couple:
     :
     Easy:
     20:
     0.778432,0.830378,0.083191,0.166382,0.819433,655.000000,645.000000,10.000000,20.000000,0.000000,0.000000,0.000000,0.000000,0.000000,0.000000,0.000000,0.000000,0.000000,0.000000,0.000000,0.000000,0.000000:
00000000
00000000
00000000
00000000
,
00000000
00000000
00000000
00000000
,
00000000
00000000
00000000
00000000
,
00000000
00000000
00000000
00000000
,
00000000
00000000
00000000
00000000
,
00000000
00000000
00000000
00000000
,
10100000
00000000
00010000
10000000
00100000
01000000
00010000
00000000
,
00110000
00000000
00000000
00000000
00010000
00000000
01000000
00000000
00100000
00000000
10000000
00100000
01000000
00100000
01000000
00000000
,
00010000
00000000
10010000
00100000
10000000
01000000
00100000
01000000
,
00010000
01000000
00000000
01000000
00100000
00000000
00100000
10000000
00000000
10000000
00010000
00000000
10010000
00000000
00000000
00000000
,
01100000
00000000
00010000
01000000
00100000
00000000
10000000
00000000
00100000
01000000
00000000
01000000
00100000
00000000
00010000
00000000
,
10000000
00000000
00100000
10000000
00010000
00000000
01000000
00000000
00100000
10000000
00000000
10000000
00100000
00000000
01000000
00000000
,
00010000
00000000
10000000
00100000
01000000
00000000
00010000
00000000
01000000
00010000
00000000
00010000
01000000
00000000
00100000
00000000
,
10000000
00000000
00010000
01000000
00100000
00000000
10000000
00000000
00010000
01000000
00000000
01000000
00010000
00000000
00100000
00000000
,
01100000
00000000
10000000
00100000
01000000
00000000
00010000
00000000
01000000
00100000
00000000
00100000
01000000
00000000
10000000
00000000
,
00010000
00000000
01000000
00010000
10000000
00000000
00100000
00000000
01000000
00010000
00000000
00010000
01000000
00000000
00100000
00000000
,
10000000
00000000
00010000
01000000
00100000
00000000
10000000
00000000
00100000
10000000
00000000
10000000
00100000
00000000
01000000
00000000
,
00010000
00000000
10000000
00100000
01000000
00000000
00010000
00000000
10000000
00100000
00000000
00100000
10000000
00000000
01000000
00000000
,
00010000
10000000
00000000
10000000
00100000
00000000
01000000
00100000
01000000
00010000
10000000
00000000
00100000
00000000
00000000
00000000
,
00010000
10000000
00000000
10000000
00100000
00000000
01000000
00100000
01000000
00010000
10000000
00000000
00100000
00000000
00000000
00000000
,
10000000
00010000
00000000
00010000
01000000
00000000
00100000
01000000
00100000
10000000
00010000
00000000
01000000
00000000
00000000
00000000
,
10000000
00010000
00000000
00010000
01000000
00000000
00100000
01000000
00100000
10000000
00010000
00000000
01000000
00000000
00000000
00000000
,
00100000
01000000
00000000
01000000
00100000
10000000
00010000
00000000
01000000
10000000
01000000
00100000
00010000
00000000
00000000
00000000
,
00100000
01000000
00000000
01000000
00100000
10000000
00010000
00000000
01000000
10000000
01000000
00100000
00010000
00000000
00000000
00000000
,
01000000
00100000
00000000
00100000
01000000
00010000
10000000
00000000
00100000
00010000
00100000
01000000
10000000
00000000
00000000
00000000
,
01000000
00100000
00000000
00100000
01000000
00010000
10000000
00000000
00100000
00010000
00100000
01000000
10000000
00000000
00000000
00000000
,
00100000
10000000
00100000
10000000
00010000
01000000
00010000
01000000
,
00100000
00000000
10000000
00000000
01000000
00000000
00010000
00000000
01000000
00000000
10000000
01000000
10000000
01000000
10000000
00000000
,
00100000
10000000
01000000
00100000
01000000
00010000
00100000
10000000
,
01000000
00000000
00100000
00000000
01000000
00000000
00010000
00000000
10000000
00000000
00010000
00100000
00010000
00100000
00010000
00000000
,
01000000
00010000
01000000
00010000
10000000
00100000
10000000
00100000
,
01000000
00000000
00010000
00000000
00100000
00000000
10000000
00000000
00100000
00000000
00010000
00100000
00010000
00100000
00010000
00000000
,
01000000
00010000
00100000
01000000
00100000
10000000
01000000
00010000
,
00100000
00000000
01000000
00000000
00100000
00000000
10000000
00000000
00010000
00000000
10000000
01000000
10000000
01000000
10000000
00000000
,
00100000
00000000
10000000
00010000
10000000
00000000
00100000
10000000
00100000
00000000
01000000
00010000
01000000
00000000
00100000
01000000
,
00100000
00000000
10000000
00100000
01000000
00000000
00010000
01000000
00100000
00000000
01000000
00000000
00010000
00000000
00000000
00000000
,
10000000
00000000
01000000
00100000
01000000
00000000
10000000
01000000
10000000
00000000
00010000
00100000
00010000
00000000
10000000
00010000
,
10000000
00000000
01000000
10000000
00010000
00000000
00100000
00010000
10000000
00000000
00010000
00000000
00100000
00000000
00000000
00000000
,
00010000
00000000
00100000
01000000
00100000
00000000
00010000
00100000
00010000
00000000
10000000
01000000
10000000
00000000
00010000
10000000
,
00010000
00000000
00100000
00010000
10000000
00000000
01000000
10000000
00010000
00000000
10000000
00000000
01000000
00000000
00000000
00000000
,
01000000
00000000
00010000
10000000
00010000
00000000
01000000
00010000
01000000
00000000
00100000
10000000
00100000
00000000
01000000
00100000
,
01000000
10000000
00000000
10000000
00100000
00000000
00100000
00010000
01000000
00010000
00100000
01000000
10000000
00000000
00000000
00000000
,
00210000
00000000
00000000
00010000
00000000
00000000
00010000
00000000
00000000
00010000
00000000
00000000
00010000
00000000
00000000
00000000
,
10000000
00000000
00000000
10000000
00000000
00000000
10000000
00000000
00000000
10000000
00000000
00000000
10000000
00300000
00000000
00000000
,
21000000
00000000
00000000
01000000
00000000
00000000
01000000
00000000
00000000
01000000
00000000
00000000
01000000
00000000
00000000
00000000
,
00100000
00000000
00000000
00100000
00000000
00000000
00100000
00000000
00000000
00100000
00000000
00000000
00100000
00000000
00000000
00000000
,
30200000
00000000
00000000
01300000
00000000
00000000
00020000
00000000
00000000
10030000
00000000
00000000
02000000
00000000
10000000
03000000
,
00200000
00000000
00000000
01300000
00000000
00000000
00020000
00000000
00000000
00130000
00000000
00000000
02000000
00000000
00010000
00000000
,
23000000
00000000
00000000
30020000
00000000
00000000
00230000
00000000
00000000
20300000
00000000
00000000
32000000
00000000
03200000
00000000
,
20300000
00000000
00000000
30200000
00000000
00000000
02300000
00000000
00000000
03020000
00000000
00000000
00230000
00000000
02300000
00000000
,
03010000
00000000
00100000
00000000
01000000
00000000
00010000
00000000
10000000
00100000
10000000
00100000
10000000
00000000
01000000
00000000
,
00100000
00000000
01000000
00000000
00010000
00000000
00100000
00000000
00010000
00100000
00010000
00100000
00010000
00000000
00100000
00000000
,
01000000
00000000
10000000
00000000
00100000
00000000
01000000
00000000
00010000
10000000
00010000
10000000
00010000
00000000
00100000
00000000
,
10000000
00000000
01000000
00000000
00100000
00000000
00010000
00000000
10000000
00010000
10000000
00010000
10000000
00000000
00100000
00000000
,
10000000
01000000
00010000
00100000
01000000
10000000
00100000
01000000
,
10000000
01000000
00010000
00100000
01000000
10000000
00100000
01000000
,
10000000
01000000
00100000
00000000
00010000
00100000
01000000
00000000
10000000
00100000
01000000
00000000
00010000
01000000
00100000
00000000
,
10000000
01000000
00100000
01000000
10000000
00100000
00010000
00100000
00010000
01000000
00100000
01000000
00010000
00000000
00000000
00000000
,
01100000
00000000
10000000
00100000
01000000
00000000
00010000
00000000
01000000
00100000
00000000
00100000
01000000
00000000
10000000
00000000
,
00010000
00000000
01000000
00010000
10000000
00000000
00100000
00000000
01000000
00010000
00000000
00010000
01000000
00000000
00100000
00000000
,
10000000
00000000
00010000
01000000
00100000
00000000
10000000
00000000
00100000
10000000
00000000
10000000
00100000
00000000
01000000
00000000
,
00010000
00000000
10000000
00100000
01000000
00000000
00010000
00000000
10000000
00100000
00000000
00100000
10000000
00000000
01000000
00000000
,
01100000
00000000
00010000
01000000
00100000
00000000
10000000
00000000
00100000
01000000
00000000
01000000
00100000
00000000
00010000
00000000
,
10000000
00000000
00100000
10000000
00010000
00000000
01000000
00000000
00100000
10000000
00000000
10000000
00100000
00000000
01000000
00000000
,
00010000
00000000
10000000
00100000
01000000
00000000
00010000
00000000
01000000
00010000
00000000
00010000
01000000
00000000
00100000
00000000
,
10000000
00000000
00010000
01000000
00100000
00000000
10000000
00000000
00010000
01000000
00000000
01000000
00010000
00000000
00100000
00000000
,
10000000
00010000
00000000
00010000
01000000
00000000
00100000
01000000
00100000
10000000
00010000
00000000
01000000
00000000
00000000
00000000
,
10000000
00010000
00000000
00010000
01000000
00000000
00100000
01000000
00100000
10000000
00010000
00000000
01000000
00000000
00000000
00000000
,
00010000
10000000
00000000
10000000
00100000
00000000
01000000
00100000
01000000
00010000
10000000
00000000
00100000
00000000
00000000
00000000
,
00010000
10000000
00000000
10000000
00100000
00000000
01000000
00100000
01000000
00010000
10000000
00000000
00100000
00000000
00000000
00000000
,
01000000
00100000
00000000
00100000
01000000
00010000
10000000
00000000
00100000
00010000
00100000
01000000
10000000
00000000
00000000
00000000
,
01000000
00100000
00000000
00100000
01000000
00010000
10000000
00000000
00100000
00010000
00100000
01000000
10000000
00000000
00000000
00000000
,
00100000
01000000
00000000
01000000
00100000
10000000
00010000
00000000
01000000
10000000
01000000
00100000
00010000
00000000
00000000
00000000
,
00100000
01000000
00000000
01000000
00100000
10000000
00010000
00000000
01000000
10000000
01000000
00100000
00010000
00100000
01000000
10000000
;
