#TITLE:ベースラインやってる?笑 (Cranky Remix);
#SUBTITLE:;
#ARTIST:かめりあ feat. ななひら;
#TITLETRANSLIT:BASSLINE YATTERU lol (Cranky Remix);
#SUBTITLETRANSLIT:;
#ARTISTTRANSLIT:Camellia feat. nanahira;
#GENRE:Japanese Pops;
#CREDIT:;
#BANNER:;
#BACKGROUND:;
#LYRICSPATH:;
#CDTITLE:;
#MUSIC:BASSLINE YATTERU lol (Cranky Remix).ogg;
#OFFSET:0.440000;
#SAMPLESTART:104.868561;
#SAMPLELENGTH:15.000000;
#SELECTABLE:YES;
#BPMS:0.000000=154.939987
;
#STOPS:
;
#BGCHANGES:;
#KEYSOUNDS:;
#ATTACKS:;

//---------------dance-single - ----------------
#NOTES:
     dance-single:
     :
     Hard:
     14:
     0.588138,0.755270,0.251757,0.214734,0.329505,556.000000,522.000000,34.000000,29.000000,0.000000,0.000000,0.588138,0.755270,0.251757,0.214734,0.329505,556.000000,522.000000,34.000000,29.000000,0.000000,0.000000:
0000
0000
0000
0000
,
0000
0000
0000
0000
,
0000
0000
0000
0000
,
0000
0000
0000
0000
,
0000
0000
0000
0000
,
0000
0000
0000
0000
,
0000
0000
0000
0000
,
0000
0000
0000
0000
,
0000
0000
0000
0000
,
0000
0000
0000
0000
,
0000
0000
0000
0000
,
2000
0000
3200
0000
,
0320
0000
0032
0000
,
0023
0000
0230
0000
,
0302
0000
2003
0000
,
3002
0000
0203
0000
,
2300
0000
3020
0000
,
0230
0000
0302
0000
,
2003
0000
3002
0000
,
1003
0100
1000
0000
0001
0010
0001
0000
,
1000
0100
0010
0001
1000
0100
0110
0000
,
0001
0010
0001
0000
1000
0100
1000
0000
,
0001
0010
0100
1000
0001
0010
0110
0000
,
1000
0100
0010
0000
0001
0010
0100
0000
,
1000
0010
0100
0001
0100
0010
1100
0000
,
0001
0100
0010
0000
1000
0010
0100
0000
,
0001
0100
0010
1000
0010
0100
0011
0000
,
0110
0000
1000
0000
0001
1000
0000
0001
0000
0000
0001
0000
0100
0000
0010
0000
,
1000
0000
0010
0000
0100
0010
0000
0100
0000
0000
0010
0000
0110
0000
0000
0000
,
0100
0000
0010
0000
0100
0010
0000
0100
0000
0000
1000
0000
0010
0000
0100
0000
,
0001
0000
0100
0000
1000
0001
0000
1000
0000
0000
0001
0000
1000
0000
0010
0000
,
0100
0000
0001
0000
0100
1000
0000
1000
0000
0000
1000
0000
0100
0000
0010
0000
,
1000
0000
0100
0000
0010
0001
0000
0001
0000
0000
0010
0000
0110
0000
0000
0000
,
0001
0000
0100
0000
1000
0001
0000
1001
0000
0000
0010
0000
0100
0000
0001
0000
,
0010
0000
0100
0000
1000
0001
0000
1001
0000
0000
0001
1000
0001
0000
0000
0000
,
0010
0000
1000
0000
0100
0010
0000
0100
0001
0000
0100
0000
0010
0000
1000
0000
,
0001
0000
0010
0000
0100
0010
0000
0100
1000
0000
0010
0000
1000
0000
0001
0000
,
0100
0000
0010
0000
1000
0001
0000
1000
0010
0000
0100
0000
0001
0000
0100
0000
,
0010
0000
1000
0000
0001
1000
0000
0001
0100
0000
0010
0000
0001
0000
1000
0000
,
0010
0000
0100
0000
1000
0010
0000
1000
0100
0000
0001
0000
1000
0000
0010
0000
,
0100
0000
0010
0000
0001
0010
0000
0001
0100
0000
1000
0000
0010
0000
1000
0000
,
0100
0000
0001
0000
1000
0001
0000
1100
0000
0000
0100
0000
0001
0000
0010
0000
,
0100
0000
1000
0000
0010
0100
0000
0011
0000
0000
0001
0000
0010
0000
0100
0000
,
1000
0000
0010
0000
1000
0000
0010
0000
0100
0001
0000
0001
0100
0000
0010
0000
,
0100
0000
1000
0000
0001
0000
0010
0000
0100
1000
0000
1000
0100
0000
1000
0000
,
0010
0000
0100
0000
0001
0000
1000
0000
0010
0100
0000
0001
1000
0000
0001
0000
,
0100
0000
0010
0000
1000
0000
0001
0000
1000
0001
0000
0010
0100
0000
0010
0000
,
1000
0000
0100
0000
0001
0000
0010
0000
0001
1000
0000
1000
0100
0000
0010
0000
,
1000
0000
0001
0000
0100
0000
0010
0000
1000
0001
0000
0001
0010
0000
0100
0000
,
0010
0000
1000
0000
0100
0000
0001
0000
0010
0100
0000
1000
0001
0000
0100
0000
,
1001
0000
1000
0001
1000
0001
1000
0001
,
0100
0010
0100
0010
0100
0000
0110
0000
,
1001
0200
2300
3020
,
0130
0001
0100
0010
1000
0100
0010
1000
,
1001
0000
0010
0010
0020
0000
0230
0000
,
0301
0010
1000
0010
0001
0010
1000
0010
,
1001
0020
0032
0203
,
0310
1000
0010
0100
0001
0010
0100
0001
,
1001
0000
0100
0100
0200
0000
0320
0000
,
1030
0000
0100
0000
0001
0000
0100
0000
2002
0000
0000
0000
3003
0000
0001
1000
,
0001
0000
0000
0000
0010
0000
1000
0001
1000
0000
0000
0000
0010
0000
0100
0000
,
0001
0000
0010
0000
0100
0000
1000
0000
1001
0000
0000
0000
1000
0000
0010
1000
,
0010
0000
1000
0000
0001
0000
0100
0001
0100
0000
0001
0000
0100
0000
0010
0000
,
1000
0100
0010
0001
1001
0000
0110
0000
,
0001
0000
0010
0000
0100
0000
1000
0010
1000
0000
0010
0000
0100
0000
0001
0010
,
0001
0010
0100
1000
1001
0000
1100
0000
,
0010
1000
0001
0100
0010
0100
0110
0000
,
0001
0000
0100
0000
0010
0000
1000
0000
0001
0000
0000
1000
0001
0000
1001
0000
,
0010
0000
0100
0000
0010
1000
0000
1000
0010
0000
0100
0000
0001
0000
1000
0000
,
0010
0000
0100
0000
0001
0100
0000
0100
0001
0000
0100
0000
0010
0000
1000
0000
,
0001
0000
1000
0000
0010
0100
0000
0100
0010
0000
0001
0000
1000
0000
0100
0000
,
0010
0000
0001
0000
1000
0001
0000
0001
1000
0000
0010
0000
0100
0000
1000
0000
,
0001
0000
0010
0000
0100
1000
0000
1000
0100
0000
0010
0000
1000
0000
0010
0000
,
0100
0000
0001
0000
0010
0001
0000
0001
0010
0000
0100
0000
0010
0000
0001
0000
,
1000
0000
0010
0000
0100
0001
0000
0001
1000
0000
0100
0000
0010
0000
1000
0000
,
0001
0000
0010
0000
0100
1000
0000
1001
0000
0000
1000
0000
0010
0000
0100
0000
,
0001
0000
0000
0000
1000
0000
0010
0000
0100
0000
0000
0110
0000
0000
0001
0000
,
0100
0000
1000
0000
0001
1000
0000
0110
0000
0000
0010
0000
0110
0000
0000
0000
,
0001
0000
0100
0000
0010
0000
1000
0000
0001
0000
0000
1001
0000
0000
0000
0000
,
0010
0000
0100
0000
0010
0100
0000
1001
0000
0000
0001
0000
1000
0000
1001
0000
,
0001
0000
0100
0000
0010
0000
1000
0000
0001
0000
0000
1001
0000
0000
0000
0000
,
1000
0000
0100
0000
0010
0001
0000
0011
0000
0000
0001
0000
0100
0000
0010
0000
,
1000
0000
0100
0000
0001
1000
0000
1000
0001
0000
0100
0000
0010
0100
0000
0100
,
0010
0000
1000
0000
0001
0100
0000
0100
0001
1000
0001
1000
0010
0100
0010
0100
,
0002
0000
0000
0000
,
0003
0000
0000
0000
;

//---------------dance-single - ----------------
#NOTES:
     dance-single:
     :
     Medium:
     10:
     0.376577,0.503514,0.118474,0.148092,0.011107,356.000000,340.000000,16.000000,20.000000,0.000000,0.000000,0.376577,0.503514,0.118474,0.148092,0.011107,356.000000,340.000000,16.000000,20.000000,0.000000,0.000000:
0000
0000
0000
0000
,
0000
0000
0000
0000
,
0000
0000
0000
0000
,
0000
0000
0000
0000
,
0000
0000
0000
0000
,
0000
0000
0000
0000
,
0000
0000
0000
0000
,
0000
0000
0000
0000
,
0000
0000
0000
0000
,
0000
0000
0000
0000
,
0000
0000
0000
0000
,
2000
0000
3200
0000
,
0320
0000
0032
0000
,
2003
0000
3002
0000
,
0203
0000
0320
0000
,
2030
0000
3200
0000
,
0320
0000
0032
0000
,
0203
0000
0320
0000
,
2030
0000
3002
0000
,
1003
1000
0100
0000
,
0010
0010
0001
0000
,
0100
0100
1000
0000
,
0001
0001
0010
0000
,
0100
1000
0100
0001
,
0010
1000
0010
0001
,
1000
1000
0001
0001
,
0100
0100
0010
0010
,
1000
0100
1000
0100
,
0001
0010
0001
0010
,
0100
1000
0010
0001
,
0100
1000
0010
0001
,
1000
0001
1000
0000
0010
0100
0010
0000
,
0001
1000
0001
0000
0100
0010
0100
0000
,
1000
0100
0010
0000
0001
0010
0100
0000
,
0001
1000
0001
1000
0010
0100
0010
0000
,
1000
0000
0100
0000
0010
0010
0010
0000
,
0001
0000
0010
0000
0100
0100
0100
0000
,
1000
0000
0100
0000
0001
0001
0001
0000
,
0010
0000
0100
0000
0001
0001
1000
0000
,
0010
0000
0100
0000
0001
0001
0001
0000
,
0100
0000
0010
0000
1000
1000
1000
0000
,
0100
0000
1000
0000
0010
0010
0010
0000
,
0100
0000
0001
0000
0010
0010
0010
0000
,
0100
0000
1000
0000
0001
0000
1000
0001
,
1000
0000
0100
0000
0010
0000
0100
0010
,
0100
0000
0001
0000
0100
0000
0001
1000
,
0001
0000
0100
0000
1000
0000
0010
1000
,
0010
0000
0100
0000
0010
0000
0001
0100
,
0001
0000
0100
0000
0010
0000
1000
0001
,
1000
0000
0100
0000
0010
0000
0100
0010
,
0100
0000
1000
1000
0001
0001
1000
1000
,
0002
0000
1000
1003
,
0100
1000
0010
0010
,
0100
0001
0100
0000
0100
1000
0100
0000
,
0010
1000
0001
0001
,
0010
1000
0010
0000
0010
0001
0010
0000
,
0100
1000
0010
0010
,
0001
0100
0001
0000
0100
1000
0100
0000
,
0010
1000
0001
0001
,
0100
1000
0100
0000
0020
0000
0000
0000
,
0130
0000
0001
0100
0001
0000
1000
0100
,
1000
0010
1001
0100
,
0001
0010
0001
0000
1000
0100
1000
0000
,
0010
0100
1001
0100
,
0010
0100
1000
0000
0100
0000
0110
0000
,
0100
0010
0001
0000
0010
0000
0110
0000
,
0100
1000
0001
0000
0110
0000
1001
0000
,
0010
0001
1000
0000
0110
0000
1001
0000
,
0100
1000
0010
0000
0100
0100
0100
0000
,
0001
0100
0010
0000
1000
0000
1001
0000
,
1000
0001
0100
0000
0010
0010
0010
0000
,
0100
0001
1000
0000
0010
0000
0110
0000
,
0100
1000
0010
0000
0001
0001
0001
0000
,
0010
0001
0100
0000
1000
0000
1001
0000
,
0100
1000
0010
0000
0100
0001
0010
0000
,
0100
1000
0010
0001
0100
0000
1001
0000
,
0100
0000
0000
0000
1000
0000
0010
0000
0100
0000
0000
0100
0000
0000
0000
0000
,
0001
1000
0010
0100
0001
0000
1001
0000
,
0010
0000
0000
0000
1000
0000
0001
0000
0010
0000
0000
0010
0000
0000
0000
0000
,
0001
1000
0010
0100
0001
0000
0101
0000
,
0100
0000
0000
0000
0010
0000
1000
0000
0001
0000
0000
0001
0000
0000
0000
0000
,
0010
1000
0001
0100
0010
0000
0110
0000
,
0100
1000
0010
0000
0010
0001
0100
0000
,
0100
1000
0010
0001
0100
1000
0010
0000
,
2002
0000
0000
0000
,
3003
0000
0000
0000
;

//---------------dance-single - ----------------
#NOTES:
     dance-single:
     :
     Easy:
     6:
     0.299358,0.440574,0.222138,0.273971,0.000000,283.000000,253.000000,30.000000,37.000000,0.000000,0.000000,0.299358,0.440574,0.222138,0.273971,0.000000,283.000000,253.000000,30.000000,37.000000,0.000000,0.000000:
// measure 0
0000
0000
0000
0000
,  // measure 1
0000
0000
0000
0000
,  // measure 2
0000
0000
0000
0000
,  // measure 3
0000
0000
0000
0000
,  // measure 4
0000
0000
0000
0000
,  // measure 5
0000
0000
0000
0000
,  // measure 6
0000
0000
0000
0000
,  // measure 7
0000
0000
0000
0000
,  // measure 8
0000
0000
0000
0000
,  // measure 9
0000
0000
0000
0000
,  // measure 10
0000
0000
0000
0000
,  // measure 11
2000
0000
3200
0000
,  // measure 12
0320
0000
0032
0000
,  // measure 13
0203
0000
0320
0000
,  // measure 14
2030
0000
3002
0000
,  // measure 15
2003
0000
3002
0000
,  // measure 16
0023
0000
0230
0000
,  // measure 17
2300
0000
3020
0000
,  // measure 18
0230
0000
0302
0000
,  // measure 19
1003
0000
1000
0000
,  // measure 20
0001
0000
0001
0000
,  // measure 21
0100
0000
0100
0000
,  // measure 22
0010
0000
0010
0000
,  // measure 23
1000
0000
0100
0000
,  // measure 24
0010
0000
0001
0000
,  // measure 25
0001
0000
0010
0000
,  // measure 26
0100
0100
1000
0000
,  // measure 27
1001
0100
0100
0000
,  // measure 28
1001
0010
0010
0000
,  // measure 29
1001
0100
0100
0000
,  // measure 30
1001
0010
0010
0000
,  // measure 31
1000
0010
0100
0100
,  // measure 32
0001
0100
0010
0010
,  // measure 33
1000
0001
0100
0010
,  // measure 34
1100
0101
2200
3300
,  // measure 35
1000
0010
0001
0001
,  // measure 36
0010
0100
0110
1001
,  // measure 37
0010
0100
1000
1000
,  // measure 38
0010
0100
1001
0110
,  // measure 39
2000
3100
0010
0001
,  // measure 40
0002
0013
0100
1000
,  // measure 41
0020
0100
0001
0130
,  // measure 42
0200
0010
1000
0310
,  // measure 43
1000
0010
0100
0100
,  // measure 44
0001
0100
0010
0010
,  // measure 45
1000
0100
0001
0001
,  // measure 46
0001
0010
1000
1000
,  // measure 47
0100
1000
0010
0100
,  // measure 48
0001
0100
0010
0001
,  // measure 49
1000
0010
0100
0001
,  // measure 50
2001
0001
0001
3001
,  // measure 51
0020
0000
0100
0130
,  // measure 52
1000
0010
0100
0101
,  // measure 53
0001
0100
0010
1010
,  // measure 54
1000
0100
0010
0011
,  // measure 55
0001
0010
0100
1100
,  // measure 56
1000
0101
0110
1100
,  // measure 57
0100
0010
1000
0001
,  // measure 58
0010
0011
0110
1010
,  // measure 59
0100
0010
2002
3003
,  // measure 60
0100
1000
0010
0010
,  // measure 61
0100
0001
0010
0010
,  // measure 62
1000
0100
0001
0001
,  // measure 63
0010
0100
1000
1000
,  // measure 64
0200
0010
1000
0310
,  // measure 65
0020
0001
0100
0031
,  // measure 66
1000
0010
2002
3003
,  // measure 67
0001
0010
2002
3003
,  // measure 68
0100
1000
0010
0010
,  // measure 69
0100
0001
0010
0110
,  // measure 70
1000
0001
0100
0100
,  // measure 71
0001
1000
0010
0010
,  // measure 72
1000
0100
0001
0001
,  // measure 73
0010
0100
1000
1001
,  // measure 74
0100
1000
0010
0010
,  // measure 75
0100
0001
0010
0010
,  // measure 76
2001
0001
0001
3001
,  // measure 77
0010
1000
0100
0001
,  // measure 78
0200
0010
0010
0310
,  // measure 79
0010
0001
0100
1000
,  // measure 80
0210
0001
1000
0301
,  // measure 81
0010
1000
0001
0100
,  // measure 82
1000
0010
0001
0100
,  // measure 83
0001
0010
1000
0100
,  // measure 84
2002
0000
0000
0000
,  // measure 85
3003
0000
0000
0000
;

//---------------dance-single - ----------------
#NOTES:
     dance-single:
     :
     Beginner:
     3:
     0.127994,0.220287,0.037023,0.207329,0.000000,121.000000,116.000000,5.000000,28.000000,0.000000,0.000000,0.127994,0.220287,0.037023,0.207329,0.000000,121.000000,116.000000,5.000000,28.000000,0.000000,0.000000:
// measure 0
0000
0000
0000
0000
,  // measure 1
0000
0000
0000
0000
,  // measure 2
0000
0000
0000
0000
,  // measure 3
0000
0000
0000
0000
,  // measure 4
0000
0000
0000
0000
,  // measure 5
0000
0000
0000
0000
,  // measure 6
0000
0000
0000
0000
,  // measure 7
0000
0000
0000
0000
,  // measure 8
0000
0000
0000
0000
,  // measure 9
0000
0000
0000
0000
,  // measure 10
0000
0000
0000
0000
,  // measure 11
2000
0000
3000
0000
,  // measure 12
0002
0000
0003
0000
,  // measure 13
0200
0000
0300
0000
,  // measure 14
0020
0000
0030
0000
,  // measure 15
2000
0000
3000
0000
,  // measure 16
0002
0000
0003
0000
,  // measure 17
0200
0000
0300
0000
,  // measure 18
0020
0000
0030
0000
,  // measure 19
0001
0000
0100
0000
,  // measure 20
1000
0000
0000
0000
,  // measure 21
1000
0000
0100
0000
,  // measure 22
0001
0000
0000
0000
,  // measure 23
0001
0000
0010
0000
,  // measure 24
1000
0000
0000
0000
,  // measure 25
1000
0000
0010
0000
,  // measure 26
0001
0000
0000
0000
,  // measure 27
1000
0000
1000
0000
,  // measure 28
0001
0000
0001
0000
,  // measure 29
1000
0000
1000
0000
,  // measure 30
0001
0000
0001
0000
,  // measure 31
0100
0000
0100
0000
,  // measure 32
0010
0000
0010
0000
,  // measure 33
0100
0000
0100
0000
,  // measure 34
0020
0000
0030
0000
,  // measure 35
1000
0000
0100
0000
,  // measure 36
0010
0000
0010
0000
,  // measure 37
0001
0000
0010
0000
,  // measure 38
0100
0000
0100
0000
,  // measure 39
1000
0000
0100
0000
,  // measure 40
0001
0000
0001
0000
,  // measure 41
0001
0000
0010
0000
,  // measure 42
1000
0000
1000
0000
,  // measure 43
2002
0000
0000
0000
,  // measure 44
3003
0000
0000
0000
,  // measure 45
0220
0000
0000
0000
,  // measure 46
0330
0000
0000
0000
,  // measure 47
2002
0000
0000
0000
,  // measure 48
3003
0000
0000
0000
,  // measure 49
0220
0000
0000
0000
,  // measure 50
0330
0000
0000
0000
,  // measure 51
0100
0000
0010
0000
,  // measure 52
0200
0000
0000
0000
,  // measure 53
0310
0000
0010
0000
,  // measure 54
0020
0000
0000
0000
,  // measure 55
0130
0000
0100
0000
,  // measure 56
2000
0000
0000
0000
,  // measure 57
3001
0000
0001
0000
,  // measure 58
0002
0000
0000
0000
,  // measure 59
1003
0000
1000
0000
,  // measure 60
1000
0000
0000
0000
,  // measure 61
0001
0000
0000
0000
,  // measure 62
0100
0000
0000
0000
,  // measure 63
0010
0000
0000
0000
,  // measure 64
1000
0000
0000
0000
,  // measure 65
0001
0000
0000
0000
,  // measure 66
0100
0000
0000
0000
,  // measure 67
0010
0000
0010
0000
,  // measure 68
1000
0000
0001
0000
,  // measure 69
1000
1000
2000
3000
,  // measure 70
0001
0000
1000
0000
,  // measure 71
0001
0001
0002
0003
,  // measure 72
0010
0000
0100
0000
,  // measure 73
0010
0010
0020
0030
,  // measure 74
0100
0000
0010
0000
,  // measure 75
0100
0100
0200
0300
,  // measure 76
0001
0000
0100
0000
,  // measure 77
1000
0000
1000
0000
,  // measure 78
1000
0000
0010
0000
,  // measure 79
0001
0000
0001
0000
,  // measure 80
0001
0000
0100
0000
,  // measure 81
1000
0000
1000
0000
,  // measure 82
1000
0000
0010
0000
,  // measure 83
0001
0001
0002
0003
,  // measure 84
2002
0000
0000
0000
,  // measure 85
3003
0000
0000
0000
;
