#TITLE:馬鹿みたい (Camellia Eurobeat Remix);
#SUBTITLE:;
#ARTIST:SEGA Sound Team remixed by かめりあ;
#TITLETRANSLIT:;
#SUBTITLETRANSLIT:;
#ARTISTTRANSLIT:;
#GENRE:Anime/Game;
#CREDIT:;
#BANNER:;
#BACKGROUND:;
#LYRICSPATH:;
#CDTITLE:;
#MUSIC:BAKA MITAI (Camellia Eurobeat Remix).ogg;
#OFFSET:0.000000;
#SAMPLESTART:86.191879;
#SAMPLELENGTH:15.000000;
#SELECTABLE:YES;
#DISPLAYBPM:160.000000;
#BPMS:0.000000=160.000000
;
#STOPS:
;
#BGCHANGES:;
#KEYSOUNDS:;
#ATTACKS:;

//---------------dance-single - ----------------
#NOTES:
     dance-single:
     :
     Hard:
     11:
     0.483579,0.572005,0.207248,0.103624,0.034541,490.000000,460.000000,30.000000,15.000000,0.000000,0.000000,0.483579,0.572005,0.207248,0.103624,0.034541,490.000000,460.000000,30.000000,15.000000,0.000000,0.000000:
// measure 0
0000
0000
0000
0000
,  // measure 1
0000
0000
0000
0000
,  // measure 2
0000
0000
0000
0000
,  // measure 3
0000
0000
0000
0000
,  // measure 4
0000
0000
0000
0000
,  // measure 5
0000
0000
0000
0000
,  // measure 6
0000
0000
0000
0000
,  // measure 7
0000
0000
0000
0000
,  // measure 8
0000
0000
0000
0000
,  // measure 9
0000
0000
0000
0000
0000
0000
0000
0000
1000
0000
0000
0001
0000
0000
1000
0000
,  // measure 10
0001
0001
0001
0001
,  // measure 11
0100
0100
0100
0100
,  // measure 12
1000
0000
0000
0010
0000
0000
1000
0000
0010
0000
0000
0000
0110
0000
0000
0000
,  // measure 13
0001
0100
0001
0100
,  // measure 14
1000
0100
0010
0010
,  // measure 15
0001
0010
0100
0100
,  // measure 16
1000
0010
0100
0000
0001
0100
0010
0000
,  // measure 17
2002
0000
0000
3003
,  // measure 18
0001
0000
1000
0001
1000
0001
0100
0010
,  // measure 19
1000
0000
0010
0100
0010
0100
1000
0001
,  // measure 20
0010
0010
0100
1001
,  // measure 21
1000
0000
0010
0000
0100
0000
0001
0000
1000
0000
0000
1000
0000
0000
1000
0000
,  // measure 22
0010
0000
0100
0000
0010
0000
0100
0001
,  // measure 23
0001
0000
1000
0000
0001
0000
1000
0001
,  // measure 24
0010
0000
0100
0000
0010
0000
0100
0010
,  // measure 25
2000
0000
0001
3001
,  // measure 26
0001
0100
1000
0100
0001
0100
1000
0000
,  // measure 27
1000
0010
0001
0010
1000
0010
0001
0000
,  // measure 28
1000
0100
0010
0100
1000
0100
0010
0000
,  // measure 29
0001
0010
0100
0010
0001
0010
0100
0000
,  // measure 30
1000
0001
0100
0000
0001
1000
0010
0000
,  // measure 31
1000
0010
0100
0000
0001
0100
0010
0000
,  // measure 32
1000
0100
0001
0010
1000
0100
0001
0000
,  // measure 33
0001
0010
1000
0100
0001
0010
1000
0000
,  // measure 34
1000
0010
0100
0010
1000
0001
0100
0000
,  // measure 35
0001
0100
0010
0100
0001
1000
0010
0000
,  // measure 36
0001
2002
3003
1001
,  // measure 37
0000
0000
0100
0010
0100
0000
0010
0100
0010
0000
0000
0000
0110
0000
0000
0000
,  // measure 38
1000
0100
0010
0000
0001
0010
0100
0000
,  // measure 39
0001
0100
1000
0010
0001
0100
1000
0000
,  // measure 40
1000
0010
0100
0000
0001
0100
0010
0000
,  // measure 41
1000
0000
0001
0000
0000
1000
0000
0000
0001
0000
1000
0000
0000
0000
0000
0000
,  // measure 42
0001
0100
0010
1000
0001
0000
0000
1001
,  // measure 43
0000
0100
0010
0110
,  // measure 44
1000
0100
0010
0000
0001
0010
0100
0000
,  // measure 45
1000
0010
0100
0001
1000
0010
0100
0000
,  // measure 46
0010
1000
0010
0100
0001
0000
0000
1001
,  // measure 47
0000
0100
0010
0110
,  // measure 48
0001
0100
0010
0000
1000
0010
0100
0000
,  // measure 49
0001
0100
1000
0010
0001
0100
1000
0000
,  // measure 50
1001
0000
1000
0100
0010
0000
0001
0010
,  // measure 51
0100
0000
1000
0100
0001
0000
0001
0010
,  // measure 52
1000
0000
1000
0010
0100
0000
0001
0100
,  // measure 53
0010
0000
1000
0001
0100
0010
1000
0001
,  // measure 54
2000
0000
0000
0000
0000
0000
3000
0001
,  // measure 55
0002
0000
0000
0000
0000
0000
0003
1000
,  // measure 56
2000
0000
3000
0001
0002
0000
0003
0100
,  // measure 57
0220
0000
0000
0000
0000
0000
0000
0000
0000
0000
0000
0330
0000
0000
0000
0000
,  // measure 58
0001
0100
1000
0100
0001
0000
0010
0000
,  // measure 59
0001
0010
1000
0010
0001
0000
0100
0000
,  // measure 60
1000
0100
0010
0000
0001
0010
0100
0000
,  // measure 61
1000
0010
0100
0001
0100
0010
1000
0000
,  // measure 62
0001
0100
0010
0100
0001
0000
1001
0000
,  // measure 63
1000
0010
0100
0010
1000
0000
1001
0000
,  // measure 64
0100
1000
0010
0000
0010
0001
0100
0000
,  // measure 65
0001
0100
1000
0010
0001
1000
0001
0000
,  // measure 66
0001
1000
0100
0001
1000
0010
0001
0000
,  // measure 67
1000
0001
0010
1000
0001
0100
1000
0000
,  // measure 68
0001
0000
0000
1001
0000
0000
0100
0000
0110
0000
0000
0000
0011
0000
0000
0000
,  // measure 69
0001
0000
0010
0000
0100
0000
1000
0000
0001
0000
0000
1000
0000
0000
0001
0000
,  // measure 70
1000
0010
1000
0001
0100
0010
0110
0000
,  // measure 71
0001
0100
0010
1000
0010
0100
1001
0000
,  // measure 72
0010
0100
1000
0010
0001
0100
0010
1000
,  // measure 73
2001
0000
0001
3001
,  // measure 74
0010
1000
0010
0100
0001
0100
0101
0000
,  // measure 75
0001
0100
0010
1000
0100
1000
1100
0000
,  // measure 76
1000
0010
0100
0000
0001
0100
0010
0000
,  // measure 77
0100
0001
1000
0010
0100
0001
1001
0000
,  // measure 78
0001
0100
1000
0100
0010
0001
1001
0000
,  // measure 79
0001
0010
0100
0010
0001
1000
1001
0000
,  // measure 80
1000
0100
0001
0100
1000
0010
0001
1000
,  // measure 81
0001
0100
0010
1000
0001
0100
0101
0000
,  // measure 82
1000
0010
0100
0001
1000
0010
1010
0000
,  // measure 83
0001
0010
1000
0010
0100
0010
0110
0000
,  // measure 84
0001
0000
0000
1000
0000
0000
0010
0000
1000
0000
0000
0000
1001
0000
0000
0000
,  // measure 85
0010
0000
0100
0000
0001
0000
0100
0000
0010
0000
0000
1000
0000
0000
0010
0000
,  // measure 86
0100
0000
0001
0000
0100
0000
0001
0100
,  // measure 87
1000
0000
0100
0000
1000
0000
1000
0100
,  // measure 88
0001
0000
0001
0100
1000
0000
1000
0010
,  // measure 89
0002
0000
0000
1003
,  // measure 90
0220
0000
0000
0000
,  // measure 91
0000
0000
0000
0000
,  // measure 92
0330
0000
0000
0000
;

//---------------dance-single - ----------------
#NOTES:
     dance-single:
     :
     Medium:
     9:
     0.374034,0.476671,0.200340,0.214156,0.000000,379.000000,350.000000,29.000000,31.000000,0.000000,0.000000,0.374034,0.476671,0.200340,0.214156,0.000000,379.000000,350.000000,29.000000,31.000000,0.000000,0.000000:
0000
0000
0000
0000
,
0000
0000
0000
0000
,
0000
0000
0000
0000
,
0000
0000
0000
0000
,
0000
0000
0000
0000
,
0000
0000
0000
0000
,
0000
0000
0000
0000
,
0000
0000
0000
0000
,
0000
0000
0000
0000
,
0000
0000
0000
0000
,
0002
0100
0000
0100
,
2003
0010
0000
3010
,
0002
2003
3002
2003
,
3010
0010
0110
0000
,
0001
0100
0001
0000
1000
0100
1000
0000
,
0001
0010
0001
0000
1000
0010
1000
0000
,
0001
1000
0001
1000
0010
0100
0010
0100
,
0020
0000
0100
0130
,
1000
0000
0100
0000
0010
0010
0010
0000
,
0001
0000
0010
0000
0100
0100
0100
1000
,
0010
0000
0010
0000
0001
1000
0001
0000
,
0100
0000
0100
0000
1000
0001
1000
0000
,
0200
1000
0000
0301
,
0020
0001
0000
1030
,
0001
1000
0001
0000
0100
0010
0100
0000
,
2002
0000
0000
3003
,
1000
0100
0010
0000
0001
0010
0100
0000
,
1000
0100
0001
0100
1000
0100
0001
0000
,
0001
0010
1000
0000
1000
0001
0010
0000
,
0001
1000
0010
0001
0010
1000
0010
0000
,
0001
1000
0001
0000
0100
0010
0100
0000
,
1000
0001
1000
0000
0100
0010
0100
0000
,
0001
0100
1000
0000
0010
0000
0110
0000
,
1000
0010
0001
0000
0100
0000
0110
0000
,
0001
0100
1000
0000
0001
0000
1000
0000
,
1000
0001
0010
0000
1000
0000
0001
0000
,
0200
0010
0000
1300
,
0000
0010
1000
0000
0001
0000
1001
0000
,
1000
0010
0100
0000
0001
0000
1001
0000
,
0001
0100
0010
0000
1000
0000
1001
0000
,
0100
1000
0000
0000
0010
0000
0001
0000
,
0200
0010
0020
0330
,
0001
0010
0001
0010
0001
0000
0000
2002
,
0000
0000
0000
3003
,
0100
1000
0010
0010
,
0100
0001
0010
0010
,
1000
0100
1000
0100
1000
0000
0000
2002
,
0000
0000
0000
3003
,
0100
1000
0010
0010
,
0100
0001
0010
0010
,
1000
0001
1000
0000
0010
0000
0110
0000
,
0001
1000
0001
0000
0100
0000
0110
0000
,
0100
0000
1000
0000
0010
0010
0010
0000
,
0100
0000
0001
0000
0010
0010
0010
0000
,
2002
0000
0000
0000
3003
0000
0000
0010
,
0200
0000
0000
0000
0300
0000
0000
1000
,
0002
0000
1000
0003
,
1001
0000
0110
0110
,
0100
1000
0010
0000
0010
0000
0010
0000
,
0001
0010
0100
0000
0100
0000
0100
0000
,
1000
0001
0010
0010
,
1000
0001
0100
0100
,
1000
0001
1000
0000
0010
0000
0010
0000
,
1000
0001
0100
0000
0100
0000
0100
0000
,
1000
0010
0001
0001
,
0010
0100
1000
1000
,
0001
1000
0010
0000
0100
0000
0110
0000
,
1000
0001
0100
0000
0010
0000
0110
0000
,
2000
0001
0100
3010
,
0002
1000
0010
0103
,
0001
0100
1000
0000
0010
0000
0110
0000
,
1000
0010
0001
0000
0100
0000
0110
0000
,
0100
1000
0001
0010
,
2002
0000
0000
3003
,
1000
0100
1000
0010
,
0001
0100
0001
0010
,
1000
0000
0001
0000
0100
0100
0100
0000
,
0001
0000
1000
0000
0010
0010
0010
0000
,
1000
0100
0001
0011
,
0001
0010
1000
1100
,
1000
0100
0010
0000
0001
0000
1001
0000
,
0001
0010
0100
0000
1000
0000
1001
0000
,
1000
0000
0001
0000
0100
0100
0100
0000
,
0001
0000
1000
0000
0010
0010
0010
0000
,
1000
0001
1000
1001
,
1000
0010
0200
0310
,
0001
0100
0010
0000
1000
0000
1010
0000
,
1000
0010
0100
0000
0001
0000
0011
0000
,
0001
0100
1000
0000
1000
0010
0001
0000
,
2002
0000
0000
3003
,
0220
0000
0000
0000
,
0000
0000
0000
0000
,
0330
0000
0000
0000
;

//---------------dance-single - ----------------
#NOTES:
     dance-single:
     :
     Easy:
     6:
     0.290147,0.381337,0.165799,0.379955,0.000000,294.000000,270.000000,24.000000,55.000000,0.000000,0.000000,0.290147,0.381337,0.165799,0.379955,0.000000,294.000000,270.000000,24.000000,55.000000,0.000000,0.000000:
0000
0000
0000
0000
,
0000
0000
0000
0000
,
0000
0000
0000
0000
,
0000
0000
0000
0000
,
0000
0000
0000
0000
,
0000
0000
0000
0000
,
0000
0000
0000
0000
,
0000
0000
0000
0000
,
0000
0000
0000
0000
,
0000
0000
0001
0001
,
2001
0000
0001
3001
,
1002
0000
1000
1003
,
0100
1000
0010
0001
,
0100
0010
1000
0001
,
0200
1000
0000
0310
,
0002
0100
0000
0013
,
0020
0100
0000
0031
,
2002
0000
0000
3003
,
0100
1000
0010
0010
,
0100
0001
0010
0010
,
0100
1000
0001
2002
,
0000
0000
3003
0100
,
0020
0100
0000
0130
,
0200
0010
0000
0310
,
0002
1000
1000
1003
,
2002
0000
0000
3003
,
0100
1000
0010
0010
,
0100
0001
0010
0010
,
0100
1000
0001
0001
,
0100
0001
1000
1000
,
0100
1000
0100
0010
,
0001
0010
0100
0010
,
1000
0001
0100
0010
,
0001
1000
0010
0100
,
1000
0010
0100
0110
,
0001
0100
0010
0110
,
2001
0001
0000
0002
,
0000
0000
3003
0110
,
0001
0100
1000
0010
,
1000
0100
0001
0010
,
0100
1000
0001
0100
,
0010
0110
0220
0330
,
0001
0100
2002
3003
,
0220
0000
0000
0330
,
1000
0100
0010
0001
,
1000
0010
0100
0001
,
1000
0100
0220
0330
,
2002
0000
0000
3003
,
0001
0100
0010
1000
,
0001
0010
0100
1000
,
0200
1000
0010
1300
,
0020
0100
0001
0130
,
0002
0000
2003
0000
,
3020
0100
0100
0130
,
0220
0000
0000
0330
,
2002
0000
0000
3003
,
0220
0000
0000
0330
,
0002
0000
2000
3003
,
0100
1000
0010
0010
,
1000
0001
0100
0100
,
1000
0100
0010
0001
,
0001
0010
0100
1000
,
0010
0100
0001
0001
,
0100
0010
1000
1000
,
0100
1000
0010
0010
,
0100
0001
0010
0010
,
0100
1000
0001
0010
,
1000
0100
0001
0010
,
2000
3002
0203
0320
,
0000
1000
1000
1030
,
0100
0010
0001
0011
,
0001
0010
0100
1100
,
1000
0100
0001
0010
,
2002
0000
0000
3003
,
0100
1000
0010
0010
,
1000
0001
0100
0100
,
1000
0001
0010
1000
,
0100
0010
0001
1000
,
0010
1000
0100
0100
,
0001
1000
0010
0010
,
0100
0001
0100
0100
,
1000
0010
0001
1001
,
0100
1000
0010
0001
,
0100
0001
0010
1000
,
0200
0010
1000
0310
,
0020
0100
0001
0130
,
2000
0000
3002
0000
,
0203
0000
0320
0000
,
1030
0100
0001
0010
,
0220
0000
0000
0330
,
2002
0000
0000
0000
,
0000
0000
0000
0000
,
3003
0000
0000
0000
;

//---------------dance-single - ----------------
#NOTES:
     dance-single:
     :
     Beginner:
     2:
     0.088821,0.155436,0.020725,0.034541,0.000000,90.000000,87.000000,3.000000,5.000000,0.000000,0.000000,0.088821,0.155436,0.020725,0.034541,0.000000,90.000000,87.000000,3.000000,5.000000,0.000000,0.000000:
0000
0000
0000
0000
,
0000
0000
0000
0000
,
0000
0000
0000
0000
,
0000
0000
0000
0000
,
0000
0000
0000
0000
,
0000
0000
0000
0000
,
0000
0000
0000
0000
,
0000
0000
0000
0000
,
0000
0000
0000
0000
,
0000
0000
0000
0000
,
0001
0000
0000
0000
,
1000
0000
0000
0000
,
0010
0000
0000
0000
,
0100
0000
0000
0000
,
1000
0000
0000
0000
,
0001
0000
0000
0000
,
0100
0000
0000
0000
,
0010
0000
0000
0000
,
1000
0000
0000
0000
,
0100
0000
0000
0000
,
1000
0000
0000
0000
,
0010
0000
0000
0000
,
0001
0000
0000
0000
,
0100
0000
0000
0000
,
0001
0000
0000
0000
,
0010
0000
0000
0000
,
1000
0000
0100
0000
,
1000
0000
0000
0000
,
0001
0000
0010
0000
,
0001
0000
0000
0000
,
1000
0000
0100
0000
,
0010
0000
0000
0000
,
0001
0000
0010
0000
,
0100
0000
0000
0000
,
1000
0000
0000
0000
,
0001
0000
0000
0000
,
0100
0100
0000
0000
,
0010
0000
0000
0000
,
1000
0000
0000
0000
,
0100
0000
0000
0000
,
0010
0000
0000
0000
,
0001
0000
0000
0000
,
2002
0000
0000
0000
,
3003
0000
0000
0000
,
0100
0000
0000
0000
,
0100
0000
0000
0000
,
2002
0000
0000
0000
,
3003
0000
0000
0000
,
0010
0000
0000
0000
,
0010
0000
0000
0000
,
1000
0000
0000
0000
,
0010
0000
0000
0000
,
0100
0000
0000
0000
,
0001
0000
0000
0000
,
1000
0000
0000
0000
,
0100
0000
0000
0000
,
0010
0000
0000
0000
,
0001
0000
0000
0000
,
0100
0000
0000
0000
,
1000
0000
0000
0000
,
0010
0000
0000
0000
,
0010
0000
0000
0000
,
0001
0000
0000
0000
,
0100
0000
0000
0000
,
0010
0000
0000
0000
,
0010
0000
0000
0000
,
1000
0000
0000
0000
,
0001
0000
0000
0000
,
0100
0000
0000
0000
,
0010
0000
0000
0000
,
1000
0000
0000
0000
,
0001
0000
0000
0000
,
1000
0000
0000
0000
,
0002
0000
0000
0000
,
1003
0000
0000
0000
,
0100
0000
0000
0000
,
1000
0000
0000
0000
,
0010
0000
0000
0000
,
0001
0000
0000
0000
,
0100
0000
0000
0000
,
0001
0000
0000
0000
,
0010
0010
0010
0000
,
1000
0000
0000
0000
,
0001
0000
0000
0000
,
0100
0000
0000
0000
,
0010
0000
0000
0000
,
0001
0000
0000
0000
,
1000
0000
0000
0000
,
0010
0000
0000
0000
,
0100
0000
0000
0010
,
0110
0000
0000
0000
;
