#TITLE:Arcanos;
#SUBTITLE:;
#ARTIST:DJ Totoriott;
#TITLETRANSLIT:;
#SUBTITLETRANSLIT:;
#ARTISTTRANSLIT:;
#GENRE:REFLEC BEAT;
#CREDIT:;
#BANNER:;
#BACKGROUND:;
#LYRICSPATH:;
#CDTITLE:;
#MUSIC:Arcanos.ogg;
#OFFSET:0.521000;
#SAMPLESTART:78.501808;
#SAMPLELENGTH:15.000000;
#SELECTABLE:YES;
#BPMS:0.000000=96.000000
,88.000000=192.000000
,118.000000=96.000000
,142.000000=192.000000
,214.000000=96.000000
;
#STOPS:
;
#BGCHANGES:;
#KEYSOUNDS:;
#ATTACKS:;

//---------------dance-single - ----------------
#NOTES:
     dance-single:
     :
     Beginner:
     3:
     0.101364,0.177611,0.071853,0.026945,0.000000,68.000000,8.000000,3.000000,0.000000,0.000000,0.000000,0.101364,0.177611,0.071853,0.026945,0.000000,68.000000,8.000000,3.000000,0.000000,0.000000,0.000000:
0000
0000
0000
0000
,
0000
0000
0000
0000
,
0000
0000
0000
0000
,
0000
0000
0000
0000
,
1000
0000
0000
0100
,
0000
0000
0010
0000
,
0000
0001
0000
0000
,
1000
0000
0000
0100
,
0000
0000
1000
0000
,
0000
0010
0000
0000
,
0001
0000
0000
0100
,
0000
0000
0001
0000
,
0000
0010
0000
0000
,
1000
0000
0000
0100
,
0000
0000
1000
0000
,
0000
0010
0000
0000
,
0001
0000
0000
0100
,
0000
0000
0001
0000
,
0000
0010
0000
0000
,
0100
0000
0000
1000
,
0000
0000
0100
0000
,
0000
0001
0000
0000
,
0010
0000
0000
1000
,
0000
0000
0010
0000
,
0000
0100
0000
0000
,
0001
0000
0000
1000
,
0000
0000
0001
0000
,
0000
0100
0100
0200
,
0000
0000
0000
0000
,
0000
0000
0310
0000
,
0000
0001
0000
0000
,
1000
0000
0000
0010
,
0000
0000
1001
0000
,
0000
1001
0000
0000
,
0010
0000
0000
0100
,
0000
0000
1000
0000
,
0000
0010
0000
0000
,
0001
0000
0000
0100
,
0000
0000
1000
0000
,
0000
0100
0000
0000
,
1000
0000
0000
0010
,
0000
0000
0001
0000
,
0000
0010
0000
0000
,
1000
0000
0000
0100
,
0000
0000
0001
0000
,
0000
0010
0000
0000
,
0001
0000
0000
0100
,
0000
0000
1001
0000
,
0000
0100
0000
0000
,
1001
0000
0000
0100
,
0000
0000
1001
0000
,
0000
0010
0000
0000
,
1001
0000
0000
0010
,
0000
0000
0220
0000
,
0000
0000
0000
0000
,
0330
0000
0000
0000
,
0000
0000
1001
0000
;

//---------------dance-single - ----------------
#NOTES:
     dance-single:
     :
     Easy:
     6:
     0.234804,0.279103,0.098797,0.107779,0.000000,160.000000,11.000000,12.000000,0.000000,0.000000,0.000000,0.234804,0.279103,0.098797,0.107779,0.000000,160.000000,11.000000,12.000000,0.000000,0.000000,0.000000:
0000
0000
0000
0000
,
0000
0000
0000
0000
,
0000
0000
0000
0000
,
0000
0000
0000
0000
,
1000
0000
0000
0100
0000
0000
1000
0000
,
0000
0010
0000
0000
0001
0000
0000
0100
,
0000
0000
0001
0000
0000
0010
0000
0000
,
0100
0000
0000
1000
0000
0000
0010
0000
,
0000
0100
0000
0000
0001
0000
0000
1000
,
0000
0000
0010
0000
0000
0100
0000
0000
,
1000
0000
0000
0100
0000
0000
0010
0000
,
0000
0001
0000
0000
0100
0000
0000
0010
,
0000
0000
1000
0000
0000
0001
0000
0000
,
1001
0000
0000
1000
0000
0000
0100
0000
,
0000
0010
0000
0100
0010
0000
0000
1000
,
0000
0000
0001
0000
0000
0100
0000
0010
,
1000
0000
0000
0100
0000
0000
0001
0000
,
0000
1000
0000
0010
0100
0000
0000
0001
,
0000
0000
1100
0000
0000
0101
0000
0000
,
1001
0000
0010
1000
,
0000
0000
0000
0010
0100
0000
0000
0000
,
0000
0010
0001
0000
0000
0100
0010
0100
,
0001
1000
0001
1000
,
0010
0100
0001
1000
,
0010
0100
1000
0001
,
1000
0100
0010
0001
,
1000
0010
0100
0001
,
0100
0010
1000
2002
,
0000
0000
0000
0000
,
0000
0000
3003
0000
1000
0000
0000
0100
,
0000
0000
0010
0000
0100
0010
0000
1000
,
0001
0000
0000
0100
0000
0000
0010
0000
,
0001
1000
0000
0010
0100
0000
0000
1000
,
0000
0000
0010
0000
0100
0010
0000
1000
,
0001
0000
0000
1000
0000
0010
0100
0000
,
0000
1001
0010
0100
0001
0000
1000
0000
,
0010
1000
0001
1000
,
0100
0010
1000
0001
,
0100
0000
0010
0100
0010
0000
1000
0000
,
0001
0100
1000
0010
,
1000
0001
0100
0010
,
1000
0000
0001
1000
0001
0000
0010
0000
,
0100
1000
0010
1000
,
0100
0001
0010
0100
,
1000
0000
0100
1000
0100
0000
0010
0000
,
1000
0001
0100
0010
,
1000
0001
0100
0010
,
1000
0000
0001
2000
0002
0000
0000
0000
,
0000
3003
0000
0000
,
0220
0000
0000
0330
,
0000
0000
2200
0000
,
0000
3300
0000
0000
,
0022
0000
0000
0033
,
0000
0000
2002
0000
,
0000
0000
0000
0000
,
0000
0000
0000
0000
,
0000
3003
0110
0000
;

//---------------dance-single - ----------------
#NOTES:
     dance-single:
     :
     Medium:
     10:
     0.400322,0.431340,0.161668,0.179632,0.026945,274.000000,18.000000,20.000000,0.000000,0.000000,0.000000,0.400322,0.431340,0.161668,0.179632,0.026945,274.000000,18.000000,20.000000,0.000000,0.000000,0.000000:
0000
0000
0000
0000
,
0000
0000
0000
0000
,
0000
0000
0000
0000
,
0000
0000
0000
0000
,
1000
0000
0000
0100
0000
0010
1000
0000
,
0000
0001
0000
0100
0010
0000
0000
1000
,
0000
0010
0100
0000
0000
0001
1000
0010
,
1001
0000
0100
0010
0000
0100
0010
1000
,
0001
0100
0000
0010
1000
0000
1000
0010
,
0000
1000
0010
0100
0001
0010
0000
0100
,
0001
0000
0100
0001
1000
0010
0100
0001
,
1000
1001
0000
1000
0010
0000
0100
0001
,
1000
0010
0100
0000
0001
0100
0010
1000
,
0002
0000
0000
0003
0100
0000
0010
0000
0000
0000
1000
0000
0100
0000
0001
0000
,
0100
0010
0000
0100
0002
0000
1003
0010
,
0100
1000
0001
0000
0100
1001
0000
0010
,
2000
0000
3010
0100
0001
0010
2000
0000
,
3010
0100
0001
0010
0002
0000
0103
0010
,
1000
0100
0002
0000
0003
1001
0010
1000
,
0010
0002
0000
0000
0000
0000
0103
0000
0010
0000
1000
0000
0010
0200
0000
0000
,
0000
0000
1300
0000
0010
0000
0001
0000
1000
0020
0000
0000
0000
0000
0130
0000
,
0001
0000
0010
0000
1000
0200
0000
0000
0000
0000
0301
0000
0010
0000
1000
0000
,
0001
1000
0001
1000
0010
0000
0100
0000
,
0001
0000
1001
0000
0010
0100
0010
0100
,
0010
1000
0001
1001
,
1000
0100
1000
0100
0001
0000
0010
0000
,
1000
0000
1001
0000
0001
0010
0001
0010
,
1000
0001
0100
0220
,
0000
0000
0000
0000
,
0000
0000
0330
0000
0002
0000
0000
2003
,
0000
0000
3010
0100
0001
0020
0000
0000
,
0031
0000
1000
0010
0100
0001
1000
0010
,
0010
0200
0000
0301
0020
0000
1030
0002
,
0000
1003
0010
1000
0100
0001
0010
1000
,
0001
0000
0100
0020
0000
1030
0001
0100
,
0010
0000
1000
0001
1000
0001
1000
0000
1001
0000
0000
0000
0010
0000
0000
0000
,
1000
0001
0100
0000
0010
0000
1000
0001
,
0010
0000
1000
0000
0001
0000
0100
0010
,
1000
0001
0100
0000
0010
0000
1000
0000
,
0001
0010
1000
0000
0100
0000
0001
1000
,
0010
0000
0100
0000
0001
0000
1000
0010
,
0100
0001
0010
0000
1000
0000
0001
0100
,
0010
0000
1000
0000
0010
1000
0100
0000
,
0001
0000
1000
0000
0010
0000
1000
0001
,
0100
0010
1000
0000
1001
0000
0010
0000
,
1000
0000
0100
0010
1000
0000
0001
0000
,
0100
0000
0001
0000
1000
0000
0010
0100
,
0001
0000
0010
0000
1000
0100
0000
1000
,
0100
0101
0101
0100
,
0001
0010
0000
0001
0010
0000
1010
0000
,
1010
0000
0010
0000
1000
0001
0000
1000
,
0001
1001
1001
0001
,
0010
0100
0000
0010
0100
0000
0110
0000
,
0110
1000
0002
0000
,
0000
0000
0000
0000
,
1000
0000
0000
0100
0000
0000
1000
0000
,
0000
0100
0000
0000
1003
0000
0000
0000
;

//---------------dance-single - ----------------
#NOTES:
     dance-single:
     :
     Hard:
     13:
     0.577387,0.735816,0.476024,0.152687,0.170650,380.000000,53.000000,17.000000,0.000000,0.000000,0.000000,0.577387,0.735816,0.476024,0.152687,0.170650,380.000000,53.000000,17.000000,0.000000,0.000000,0.000000:
// measure 0
0000
0000
0000
0000
,  // measure 1
0000
0000
0000
0000
,  // measure 2
0000
0000
0000
0000
,  // measure 3
0000
0000
0000
0000
,  // measure 4
1001
0000
1000
0010
0100
0001
0011
0000
,  // measure 5
0001
0100
0010
1000
1100
0000
1000
0010
,  // measure 6
0100
0001
1000
0001
0010
0100
1000
0010
,  // measure 7
0200
0000
0310
1000
0000
0001
0100
0010
,  // measure 8
1000
0001
1000
0010
0200
0000
0310
1000
,  // measure 9
0001
0000
0010
0000
0100
0000
0010
0000
1000
0001
0010
0000
1000
0000
0001
0000
,  // measure 10
0200
0000
0310
1000
0001
0010
1000
0001
,  // measure 11
0100
0020
0000
0130
0002
0000
1003
0010
,  // measure 12
0100
0000
0001
0000
1000
0000
0010
0000
1000
0000
0001
0010
1000
0000
0001
0000
,  // measure 13
2000
0000
0000
0000
3010
0000
0100
0000
0001
0000
1000
0000
0010
0100
0001
0000
,  // measure 14
1000
1001
0010
1000
0002
0000
0103
0010
,  // measure 15
1000
0000
0001
0000
0100
0001
1000
0000
0010
0000
0110
0000
1000
0000
0001
0000
,  // measure 16
0200
0000
0000
0000
0310
0000
1000
0000
0001
0000
1000
0000
0010
1000
0100
0000
,  // measure 17
0001
1000
0010
0100
0002
0000
0103
0010
,  // measure 18
1000
0000
0001
0000
0100
0010
0001
0000
1000
0000
0010
0000
0100
0000
1001
0000
,  // measure 19
0010
1000
0000
0010
1000
0000
1001
0000
1001
0000
0010
0000
0001
0010
0000
0001
,  // measure 20
0010
0000
0110
0000
0110
0000
1000
0000
0001
1000
0000
0001
1000
0000
0011
0000
,  // measure 21
0011
0000
0100
0000
0010
1000
0000
0100
0010
0000
1100
0000
1100
0000
0010
0000
,  // measure 22
1001
0010
0100
0001
1000
0010
1000
0100
,  // measure 23
0010
0100
1001
0000
0001
0100
0010
1000
,  // measure 24
0100
0001
0010
0100
1000
0010
0110
0000
,  // measure 25
0001
1000
0010
0100
0001
0010
0100
1000
,  // measure 26
0010
1000
0100
0010
0100
0001
0010
0100
,  // measure 27
1000
0010
1100
0000
0110
0000
0202
0000
,  // measure 28
0000
0000
0000
0000
,  // measure 29
0000
0000
0000
0000
0303
0000
0000
0000
1001
0000
0000
0001
0100
1000
0200
0000
,  // measure 30
0000
0000
0301
0000
0010
0000
0000
1000
0001
0010
1000
0000
0001
0000
1000
0000
,  // measure 31
1001
0000
0000
0010
1000
0100
0001
0000
0001
0000
1000
0000
1100
0000
1000
0000
,  // measure 32
0010
0000
1000
0001
0010
1000
0100
0000
1001
0000
0010
1000
0100
0000
0001
0000
,  // measure 33
0100
0010
1000
0000
0011
0000
0010
0100
0001
0000
1001
0000
0010
1000
0100
0000
,  // measure 34
0001
0010
0100
1000
0010
1000
0100
0010
0100
0001
0010
0100
1000
0001
1000
0001
,  // measure 35
1000
0000
0010
0000
0100
0000
0001
0000
1000
0001
1000
0000
1001
0000
0000
0000
0110
0000
0000
0000
0000
0000
0000
0000
0001
0000
0000
0000
1000
0000
0000
0000
,  // measure 36
0010
0100
0001
0000
1000
0000
1001
0000
,  // measure 37
0010
1000
0100
0001
0100
0010
1001
0000
,  // measure 38
0010
1000
0001
0100
0010
1000
0100
0010
,  // measure 39
0100
0001
0010
0100
1000
0010
1000
0001
,  // measure 40
0101
0100
1100
0100
,  // measure 41
0101
0000
0001
1000
0010
0000
0001
0010
,  // measure 42
1000
0010
1000
0001
0010
1000
0100
0010
,  // measure 43
1001
0000
0010
1000
0100
0010
0100
0001
,  // measure 44
0010
1000
0100
0010
0110
0000
0001
0010
,  // measure 45
0100
0000
0010
0100
0001
0010
1000
0000
,  // measure 46
1000
0100
0010
1000
0001
0010
0100
1000
,  // measure 47
0010
1000
0001
0100
1001
1001
0000
1001
,  // measure 48
1001
0000
0010
0000
1000
0100
0001
0010
,  // measure 49
0110
0110
0000
0110
0110
0000
0001
0010
,  // measure 50
1000
0100
0010
0100
1100
1100
0000
1100
,  // measure 51
1100
0000
0001
0100
0010
1000
0001
0100
,  // measure 52
0011
0011
0000
0011
0011
0000
1001
0001
,  // measure 53
0100
0010
0100
0001
1002
0000
0000
0000
,  // measure 54
0000
0000
0100
0000
0000
1000
0000
0000
,  // measure 55
0203
0000
0000
0320
0000
0000
2030
0000
,  // measure 56
0000
3002
0000
0000
0103
0000
0000
0000
;
