#TITLE:Anelis;
#SUBTITLE:;
#ARTIST:猫叉Master feat.ATSUMI UEDA;
#TITLETRANSLIT:;
#SUBTITLETRANSLIT:;
#ARTISTTRANSLIT:;
#GENRE:pop'n music;
#CREDIT:;
#BANNER:;
#BACKGROUND:;
#LYRICSPATH:;
#CDTITLE:;
#MUSIC:Anelis.ogg;
#OFFSET:0.120000;
#SAMPLESTART:77.839882;
#SAMPLELENGTH:15.000000;
#SELECTABLE:YES;
#DISPLAYBPM:180.000000;
#BPMS:0.000000=180.000000
;
#STOPS:
;
#BGCHANGES:;
#KEYSOUNDS:;
#ATTACKS:;

//---------------dance-single - ----------------
#NOTES:
     dance-single:
     :
     Beginner:
     2:
     0.105674,0.180953,0.007954,0.007954,0.000000,93.000000,92.000000,1.000000,1.000000,0.000000,0.000000,0.105674,0.180953,0.007954,0.007954,0.000000,93.000000,92.000000,1.000000,1.000000,0.000000,0.000000:
0000
0000
0000
0000
,
0000
0000
0000
0000
,
0000
0000
0000
0000
,
0000
0000
0000
0000
,
0000
0000
0000
0000
,
0000
0000
0000
0000
,
0000
0000
0000
0000
,
0000
0000
0000
0000
,
0000
0000
0000
0000
,
1000
0000
0000
0000
,
0100
0000
0100
0000
,
0010
0000
0000
0000
,
0010
0000
0010
0000
,
0001
0000
0000
0000
,
0001
0000
0001
0000
,
1000
0000
0000
0000
,
1000
0000
1000
0000
,
0001
0000
0000
0000
,
0000
0000
1000
0000
,
0000
0000
0000
0000
,
1000
0000
0001
0000
,
0000
0000
0100
0000
,
0000
0000
1000
0000
,
0000
0000
1000
0000
,
0000
0000
1000
0000
,
0000
0000
0010
0000
,
0000
0000
0001
0000
,
0000
0000
0001
0000
,
0000
0000
0100
0000
,
0000
0000
1000
0000
,
0000
0000
0010
0000
,
0000
0000
0010
0000
,
0000
0000
0010
0000
,
0000
0000
0001
0000
,
0000
0000
0100
0000
,
0000
0000
0100
0000
,
0100
0000
1000
0000
,
0000
0000
0100
0000
,
0000
0000
1000
0000
,
0000
0000
0010
0000
,
0000
0000
0001
0000
,
0000
0000
0100
0000
,
0000
0000
0001
0000
,
0000
0000
0010
0000
,
0010
0000
1000
0000
,
0000
0000
0100
0000
,
0000
0000
0010
0000
,
0000
0000
0001
0000
,
0000
0000
0001
0000
,
0000
0000
0010
0000
,
0000
0000
0100
0000
,
0000
0000
0100
0000
,
0000
0000
1000
0000
,
0000
0000
1000
0000
,
0000
0000
0001
0000
,
0000
0000
0001
0000
,
0000
0000
0010
0000
,
0000
0000
0010
0000
,
0010
0000
0001
0000
,
0100
0000
1000
0000
,
0000
0000
1000
0000
,
0000
0000
0001
0000
,
0000
0000
1000
0000
,
0010
0000
0001
0000
,
0000
0000
1000
0000
,
0000
0000
0001
0000
,
0000
0000
0001
0000
,
0010
0000
1000
0000
,
0000
0000
0001
0000
,
0000
0000
1000
0000
,
0000
0000
1000
0000
,
0100
0000
0001
0000
,
0000
0000
1000
0000
,
0000
0000
0001
0000
,
0000
0000
0100
0000
,
1000
0000
0100
0000
,
0000
0000
0010
0000
,
0000
0000
0010
0000
,
0000
0000
0010
0000
,
0001
0000
0010
0000
,
0000
0000
0100
0000
,
0000
0000
0100
0000
,
0000
0000
1001
0000
,
0000
0000
0000
0000
,
0000
0000
0100
0000
,
0000
0000
0000
0000
,
0000
0000
0010
0000
,
0000
0000
0000
0000
,
0000
0000
0100
0000
,
0100
0200
0000
0000
,
0000
0000
0000
0000
,
0300
0000
0000
0000
;

//---------------dance-single - ----------------
#NOTES:
     dance-single:
     :
     Easy:
     6:
     0.296570,0.398097,0.047724,0.262482,0.000000,261.000000,255.000000,6.000000,33.000000,0.000000,0.000000,0.296570,0.398097,0.047724,0.262482,0.000000,261.000000,255.000000,6.000000,33.000000,0.000000,0.000000:
0000
0000
0000
0000
,
0000
0000
0000
0000
,
0000
0000
0000
0000
,
0000
0000
0000
0000
,
0000
0000
0000
0000
,
0000
0000
0000
0000
,
0000
0000
0000
0000
,
0000
0000
0000
0000
,
0000
0000
0000
0000
,
1000
0100
0010
0010
,
0001
0010
0200
0300
,
0001
0010
0100
0100
,
1000
0100
0020
0030
,
0001
0100
1000
0010
,
1000
0010
0002
0003
,
1000
0010
0001
0100
,
0001
0010
2000
0000
,
3002
0000
0000
2003
,
0000
0000
3020
0000
,
0000
0230
0000
0000
,
0301
0001
1000
0100
,
0010
0000
0001
0010
,
0100
0000
1000
0100
,
0001
0000
0001
0010
,
1000
0000
1000
0010
,
0100
0000
0001
0100
,
0010
0000
1000
0100
,
0010
0000
0001
1000
,
0001
1000
0001
0010
,
0100
0000
1000
0100
,
0010
0000
0100
1000
,
0001
0000
0010
0001
,
1000
0000
0100
1000
,
0010
0001
0100
0010
,
0110
0000
0001
0100
,
1000
0010
0001
1000
,
1001
0000
0100
2000
,
0000
3100
0000
0100
,
0010
0001
0010
0001
,
0200
0000
0010
0310
,
0001
0100
1000
0001
,
1000
0001
0100
0010
,
0100
0010
0001
0010
,
0100
1000
0002
0000
,
2003
0000
3010
0100
,
1000
0010
0200
0000
,
0320
0000
0130
0001
,
0010
1000
0002
0000
,
2003
0000
3010
0100
,
1000
0001
0100
0010
,
1000
0001
0200
0010
,
0000
0010
0000
1000
,
0000
1300
0020
0001
,
0000
0001
0000
0100
,
0000
0130
0001
0100
,
0010
0000
1000
0010
,
0100
0000
0002
0000
,
2003
0000
3002
0000
,
1000
1003
0100
1000
,
0010
0001
0100
0010
,
1000
1001
0100
0001
,
0010
1000
0100
0001
,
1000
1001
0100
1000
,
0010
0001
0100
0010
,
1000
0001
0200
0000
,
0010
0000
1000
0000
,
0301
0100
0001
0100
,
1000
0010
0001
1000
,
0010
0110
1000
0010
,
0100
0001
0010
0100
,
1000
1001
0200
0000
,
1000
1300
0010
1000
,
0001
0100
0020
0000
,
0001
0031
0100
1000
,
0010
0001
0200
1000
,
0000
0001
0000
1300
,
0010
0100
0001
0020
,
0000
0001
0000
1000
,
0000
0031
0100
1000
,
0010
0200
0000
0001
,
0000
1300
0010
0100
,
1000
0001
0200
0010
,
0010
0300
0001
0000
2000
0000
0000
0000
,
0001
0000
0001
0000
,
3001
0010
0200
0000
,
0010
0000
0010
0000
,
0310
0100
2000
0000
,
0001
0000
0001
0000
,
3001
0100
0020
0000
,
0100
0200
0000
0000
,
0000
0000
0000
0000
,
0330
0000
0000
0000
;

//---------------dance-single - ----------------
#NOTES:
     dance-single:
     :
     Medium:
     10:
     0.463604,0.579051,0.294298,0.079540,0.000000,408.000000,371.000000,37.000000,10.000000,0.000000,0.000000,0.463604,0.579051,0.294298,0.079540,0.000000,408.000000,371.000000,37.000000,10.000000,0.000000,0.000000:
0000
0000
0000
0000
,
0000
0000
0000
0000
,
0000
0000
0000
0000
,
0000
0000
0000
0000
,
0000
0000
0000
0000
,
0000
0000
0000
0000
,
0000
0000
0000
0000
,
0000
0000
0000
0000
,
0000
0000
0000
0000
,
1000
0000
0001
0000
0100
0010
0100
0000
,
0001
0000
1000
0000
0010
0100
0010
0000
,
1000
0000
0001
0000
0100
0010
0100
0000
,
0001
0000
1000
0000
0010
0100
0010
0100
,
0001
0010
0100
0000
1000
0000
1100
0000
,
1000
0100
0010
0000
0001
0000
0011
0000
,
0001
0100
0010
0000
1000
0000
1010
0000
,
1000
0010
0100
0000
0001
0000
0101
0000
,
0100
1000
0000
1000
0100
0000
0100
0001
,
0000
0001
0010
0000
0010
1000
0000
1000
,
0010
0000
0010
0001
0000
0001
0100
0000
,
0100
1000
0100
0000
0010
0000
0100
0000
,
0010
1000
0001
0100
,
0010
1001
1000
0010
,
0100
0010
0001
0100
,
1000
0001
1000
0000
0010
0000
1000
0000
,
0010
0100
0001
0100
,
0010
0100
0010
0000
1000
0000
0100
0000
,
0001
0000
0010
0000
1000
0001
0000
1001
,
0000
0001
1000
0010
0100
0000
0010
0000
,
0100
0000
0001
0100
0001
0000
0100
0000
,
0010
0000
1000
0010
1000
0000
0001
0000
,
0100
0000
1000
0001
1000
0000
1000
0000
,
0010
0000
0001
1000
0001
0000
0100
0000
,
1000
0000
0010
0000
0001
1000
0000
1001
,
0000
0200
0000
0010
,
0010
0000
0310
0000
0001
1000
0000
1001
,
0000
0000
0100
0000
0010
1000
0010
0000
,
0100
0000
0001
1000
0000
1000
0001
0000
,
0100
0000
0010
0000
0100
0010
0100
0000
,
0001
0000
1000
0001
0000
0001
1000
0000
,
0100
0010
0100
0000
0001
0000
0010
0000
,
0100
0000
1000
0100
0000
0000
1001
0000
,
0010
0100
0001
1000
,
0010
0000
0001
0010
0000
0000
0100
0000
,
0001
0000
1001
0000
0100
1000
0010
0000
,
0001
0000
1001
0000
0010
0001
0100
0000
,
1000
0000
1001
0000
0100
1000
0010
0000
,
0001
0000
1001
0000
0010
0001
0100
0000
,
1000
0000
1001
0000
0100
1000
0010
0000
,
0110
0000
0101
0000
0010
0100
0001
0000
,
0110
0000
1010
0000
0001
1000
0001
0000
,
0100
0010
0100
0000
1000
0001
1000
0000
,
0010
0100
0010
0000
0001
0100
1000
0000
,
1000
0100
0001
0000
0001
0010
1000
0000
,
1000
0010
0001
0000
0200
0000
0010
0000
,
1000
0001
0320
0001
,
1000
0000
0031
0000
1000
0001
0000
0001
,
1000
0000
0100
0010
0000
0010
0100
0000
,
1001
0000
1001
0000
0100
1000
0010
0000
,
0001
0000
1001
0000
0010
0001
0100
0000
,
1000
0000
1100
0000
1000
0010
0100
0000
,
0001
0000
0011
0000
0001
0100
1000
0000
,
0010
0000
0110
0000
0100
1000
0010
0000
,
0001
0000
0100
0000
0010
1000
0010
0000
,
0100
0000
0001
0000
1000
0100
1000
0000
,
0010
0000
0100
0000
0001
0010
0100
0000
,
1000
0000
1001
0000
0100
1000
0010
0000
,
0001
0000
0101
0000
0001
0100
0010
0000
,
1000
0000
1010
0000
0100
1000
0010
0000
,
0001
0000
1001
0000
0010
0001
0100
0000
,
1000
1010
0200
0000
,
0010
0310
0001
1000
,
0010
0110
2000
0000
,
0001
3001
0100
1000
,
0010
0011
0001
0100
,
1000
0000
0010
0000
0001
1000
0001
0000
,
0100
1001
0100
0010
,
0001
0000
1000
0000
1000
0001
1000
0000
,
0010
1001
0100
1000
,
0010
0000
0001
0000
0100
0010
0100
0000
,
0010
0000
1010
0000
0001
0100
0010
0000
,
1000
0000
1010
0000
1000
0010
0100
0000
,
0001
0101
0020
0000
,
0100
0000
0001
0000
,
0130
0100
2000
0000
,
0001
0000
0100
0000
,
3010
0010
0002
0000
,
0100
0000
0010
0000
,
1000
0000
1003
0000
0100
0010
0100
0000
,
0010
2002
0000
0000
,
0000
0000
0000
0000
,
3003
0000
0000
0000
;

//---------------dance-single - ----------------
#NOTES:
     dance-single:
     :
     Hard:
     13:
     0.630638,0.723813,0.397700,0.087494,0.019885,555.000000,505.000000,50.000000,11.000000,0.000000,0.000000,0.630638,0.723813,0.397700,0.087494,0.019885,555.000000,505.000000,50.000000,11.000000,0.000000,0.000000:
// measure 0
0000
0000
0000
0000
,  // measure 1
0000
0000
0000
0000
,  // measure 2
0000
0000
0000
0000
,  // measure 3
0000
0000
0000
0000
,  // measure 4
0000
0000
0000
0000
,  // measure 5
0000
0000
0000
0000
,  // measure 6
0000
0000
0000
0000
,  // measure 7
0000
0000
0000
0000
,  // measure 8
0000
0000
0000
0000
,  // measure 9
1000
0010
0100
0001
0100
0010
1000
0000
,  // measure 10
0001
0100
0010
1000
0010
0100
0001
0000
,  // measure 11
1000
0100
0010
0001
0010
0100
1000
0000
,  // measure 12
0001
0010
0100
1000
0100
0010
0001
0000
,  // measure 13
1000
0100
0001
0100
1000
0100
0001
0000
,  // measure 14
0001
0010
1000
0010
0001
0010
1000
0000
,  // measure 15
0100
0010
1000
0010
0100
0010
1000
0000
,  // measure 16
0010
0100
0001
0100
0010
0100
0001
0000
,  // measure 17
0001
0101
0000
0100
1100
0000
1000
1010
,  // measure 18
0000
0010
0011
0001
0100
0101
0000
0100
,  // measure 19
1100
0000
1000
1001
0000
0001
0101
0000
,  // measure 20
0001
0100
0010
1000
0002
0000
1000
0000
,  // measure 21
0100
0000
0013
0000
0001
0100
0010
0000
,  // measure 22
1000
0010
0100
0001
2000
0000
0001
0000
,  // measure 23
0010
0000
3100
0000
0001
0100
1000
0000
,  // measure 24
1000
0010
0001
0100
0020
0000
1000
0000
,  // measure 25
0100
0000
0031
0000
0001
0100
0010
0000
,  // measure 26
1000
0010
0100
0000
0200
0000
0001
0000
,  // measure 27
0010
0000
1300
0000
0001
1000
0000
1001
,  // measure 28
0000
0100
0010
0100
0010
0001
0010
0000
,  // measure 29
0100
1000
0100
0000
0010
0100
0010
0100
,  // measure 30
0001
1000
0001
0000
1000
0010
0100
0000
,  // measure 31
0001
0100
0010
0000
0001
0100
1000
0010
,  // measure 32
0001
0000
0100
0000
1000
0000
0000
0000
0001
0000
0000
1001
0000
0000
0010
0000
,  // measure 33
0100
0000
1001
0000
0100
0010
0000
0110
,  // measure 34
0000
0000
0001
1000
0001
0000
0000
0000
0001
0000
0100
0000
1000
0000
0100
0000
,  // measure 35
0010
0100
0010
0100
0010
0000
1000
0000
0001
0000
1001
0000
0000
0000
1100
0000
,  // measure 36
0000
0000
0101
0000
0001
0100
0010
0000
,  // measure 37
1000
0010
0100
0101
0000
0001
1000
0010
,  // measure 38
0100
1000
1001
0000
1000
0100
0010
0000
,  // measure 39
0001
0010
0100
1100
0000
1000
0010
0100
,  // measure 40
0001
0010
0011
0000
0001
0100
0010
0000
,  // measure 41
1000
0010
0100
0011
0000
0001
1001
0000
,  // measure 42
0010
1000
0100
0010
0100
0001
0010
0000
,  // measure 43
0001
0100
0010
1100
0000
1000
1001
0000
,  // measure 44
0100
1000
0010
0000
0100
0010
0100
0010
,  // measure 45
1000
0001
1000
0001
1000
0001
0010
0000
,  // measure 46
0001
1000
0100
0000
0001
1000
0001
1000
,  // measure 47
0010
0100
0010
0100
0001
0010
0100
0000
,  // measure 48
1000
0100
0010
0000
0001
0100
0001
0100
,  // measure 49
1000
0100
1000
0100
0010
0001
1000
0000
,  // measure 50
0100
0001
1000
0000
0001
0100
1000
0100
,  // measure 51
0001
0100
1000
0100
0001
0010
1000
0010
,  // measure 52
0001
0010
1000
0010
0001
0100
0010
0100
,  // measure 53
0001
0100
0010
0100
1000
0010
0100
0010
,  // measure 54
1000
0010
0100
0010
0001
0100
1000
0100
,  // measure 55
0001
0100
1000
0100
0001
0010
1000
0010
,  // measure 56
0001
0010
1000
0010
1000
1010
0000
0001
,  // measure 57
0011
0000
1000
1100
0000
0001
0101
0000
,  // measure 58
1100
0000
1001
0000
0100
1000
0100
0110
,  // measure 59
0000
0001
0100
0010
0000
1000
0010
0100
,  // measure 60
0001
0010
0100
1000
0010
0100
0001
1001
,  // measure 61
0000
0010
1000
0100
0000
0010
0001
0100
,  // measure 62
1000
0010
0100
0001
0010
0100
1000
1100
,  // measure 63
0000
1000
0001
1001
0000
0001
0010
0011
,  // measure 64
0100
0001
1000
2001
0000
0000
0100
0000
,  // measure 65
0010
0000
3100
0000
0001
0100
0010
1000
,  // measure 66
0001
1000
1001
0000
0010
0001
0010
0110
,  // measure 67
0000
1000
0010
0100
0000
0001
0100
0010
,  // measure 68
1000
0100
0010
0001
0100
0010
1000
1001
,  // measure 69
0000
0100
0001
0010
0000
0100
1000
0010
,  // measure 70
0001
0000
0100
0000
0010
0000
1010
0000
0000
0000
0000
0000
0100
0010
0100
0000
,  // measure 71
1001
0000
1100
0000
0100
1000
0100
0010
,  // measure 72
0001
1000
0001
1002
0000
0000
0010
0000
,  // measure 73
0100
0000
0013
0000
1000
0010
0100
0001
,  // measure 74
1000
0001
1001
0000
0001
0100
1000
0100
,  // measure 75
0001
0100
1000
0100
0001
0010
1000
0010
,  // measure 76
0001
0010
1000
0010
0001
0100
0010
1000
,  // measure 77
0001
0100
0010
1000
0001
0010
0100
1000
,  // measure 78
0001
0010
0100
1000
0010
0100
0001
1000
,  // measure 79
0010
0000
1010
0000
1000
0010
0100
0001
,  // measure 80
0100
0000
0101
0000
0100
1000
0010
0001
,  // measure 81
0100
1000
0010
0001
0100
0001
1000
0010
,  // measure 82
0100
1001
2010
0000
,  // measure 83
0100
0000
0100
0000
,  // measure 84
3100
0010
0012
0000
,  // measure 85
0010
0000
0010
0000
,  // measure 86
0013
0100
1000
0010
0102
0000
0000
0000
,  // measure 87
0010
0000
1000
0000
,  // measure 88
0013
0000
0000
0000
0010
1000
0010
0100
,  // measure 89
0001
0100
2200
0000
0000
0000
0000
0000
,  // measure 90
0000
0000
0000
0000
,  // measure 91
3300
0000
0000
0000
;
