#TITLE:エイリアンエイリアン (Nhato Remix);
#SUBTITLE:;
#ARTIST:ナユタン星人;
#TITLETRANSLIT:Alien Alien (Nhato Remix);
#SUBTITLETRANSLIT:;
#ARTISTTRANSLIT:NayutalieN;
#GENRE:Vocaloid;
#CREDIT:;
#BANNER:;
#BACKGROUND:;
#LYRICSPATH:;
#CDTITLE:;
#MUSIC:Alien Alien (Nhato Remix).ogg;
#OFFSET:0.920000;
#SAMPLESTART:59.066040;
#SAMPLELENGTH:15.000000;
#SELECTABLE:YES;
#BPMS:0.000000=152.000000
;
#STOPS:
;
#BGCHANGES:;
#KEYSOUNDS:;
#ATTACKS:;

//---------------dance-single - ----------------
#NOTES:
     dance-single:
     :
     Beginner:
     3:
     0.130343,0.217590,0.053671,0.026835,0.000000,102.000000,96.000000,6.000000,3.000000,0.000000,0.000000,0.130343,0.217590,0.053671,0.026835,0.000000,102.000000,96.000000,6.000000,3.000000,0.000000,0.000000:
// measure 0
0000
0000
0000
0000
,  // measure 1
0000
0000
0000
0000
,  // measure 2
0000
0000
0000
0000
,  // measure 3
0000
0000
0000
0000
,  // measure 4
1000
0000
0000
0000
,  // measure 5
0001
0000
0000
0000
,  // measure 6
1000
0000
0000
0000
,  // measure 7
0001
0000
0000
0000
,  // measure 8
0100
0000
0000
0000
,  // measure 9
0010
0000
0000
0000
,  // measure 10
1001
0000
0000
0000
,  // measure 11
0100
0000
0000
0000
,  // measure 12
0100
0000
0000
0000
,  // measure 13
0100
0000
0000
0000
,  // measure 14
0010
0000
0100
0000
,  // measure 15
0010
0000
0000
0000
,  // measure 16
0100
0000
0000
0000
,  // measure 17
0010
0000
0000
0000
,  // measure 18
1001
0000
0100
0000
,  // measure 19
1000
0000
0000
0000
,  // measure 20
0001
0000
0100
0000
,  // measure 21
0001
0000
0000
0000
,  // measure 22
1000
0000
0010
0000
,  // measure 23
1000
0000
0000
0000
,  // measure 24
0001
0000
0010
0000
,  // measure 25
0001
0000
0000
0000
,  // measure 26
1000
0000
0100
0000
,  // measure 27
0010
0000
0010
0000
,  // measure 28
0001
0000
0010
0000
,  // measure 29
0100
0000
0100
0000
,  // measure 30
1000
0000
0100
0000
,  // measure 31
0001
0000
0001
0000
,  // measure 32
0001
0000
0010
0000
,  // measure 33
1000
0000
1000
0000
,  // measure 34
1001
0000
0000
0000
,  // measure 35
0000
0000
0000
0000
,  // measure 36
0100
0000
0100
0000
,  // measure 37
0200
0000
0300
0000
,  // measure 38
1000
0000
1000
0000
,  // measure 39
0100
0000
0000
0000
,  // measure 40
0001
0000
0001
0000
,  // measure 41
0100
0000
0000
0000
,  // measure 42
1000
0000
1000
0000
,  // measure 43
0010
0000
0000
0000
,  // measure 44
0001
0000
0001
0000
,  // measure 45
0010
0000
0000
0000
,  // measure 46
1000
0000
0100
0000
,  // measure 47
0001
0000
0000
0000
,  // measure 48
0001
0000
0010
0000
,  // measure 49
1000
0000
0000
0000
,  // measure 50
0100
0000
1000
0000
,  // measure 51
0010
0000
0000
0000
,  // measure 52
0100
0000
0001
0000
,  // measure 53
0010
0000
0000
0000
,  // measure 54
1001
0000
0010
0000
,  // measure 55
0100
0000
0000
0000
,  // measure 56
1001
0000
0100
0000
,  // measure 57
0010
0000
0000
0000
,  // measure 58
1000
0000
0100
0000
,  // measure 59
0010
0010
0010
0000
,  // measure 60
0001
0000
0010
0000
,  // measure 61
0100
0100
0100
0000
,  // measure 62
2002
0000
0000
0000
,  // measure 63
0000
0000
0000
0000
,  // measure 64
3003
0000
0000
0000
,  // measure 65
0000
0000
0000
0000
,  // measure 66
0100
0000
0100
0000
,  // measure 67
0010
0000
0010
0000
,  // measure 68
1000
0000
1000
0000
,  // measure 69
0001
0000
0001
0000
;

//---------------dance-single - ----------------
#NOTES:
     dance-single:
     :
     Easy:
     6:
     0.319468,0.373682,0.169957,0.178902,0.000000,250.000000,231.000000,19.000000,20.000000,0.000000,0.000000,0.319468,0.373682,0.169957,0.178902,0.000000,250.000000,231.000000,19.000000,20.000000,0.000000,0.000000:
0000
0000
0000
0000
,
0000
0000
0000
0000
,
0000
0000
0000
0000
,
0000
0000
0000
0000
,
1001
0000
0100
0000
,
0010
0000
0010
0000
,
1001
0000
0010
0000
,
0100
0000
0100
0000
,
1000
0100
0010
0001
,
0000
0100
0100
0010
,
2001
0000
0001
0000
,
0010
0000
0100
3000
,
1002
0000
0100
0000
,
0010
0000
0010
0003
,
0110
0000
1000
0000
,
0001
0000
0100
0000
,
0110
0010
0010
0010
,
0200
0000
0010
0310
,
0001
0010
0100
1000
,
0100
0100
0010
1001
,
1000
0010
0100
0001
,
0010
0010
0100
1001
,
0100
1000
0001
0010
,
0100
0001
1000
0100
,
0010
0100
1000
0001
,
0200
0010
0020
0330
,
0001
0100
1000
0010
,
1000
1000
0001
0001
,
1000
0010
0100
0001
,
0100
0010
1000
1001
,
0001
0100
0010
1000
,
0001
0001
1000
1000
,
0020
0100
0001
1000
,
0200
0000
0000
0330
,
2001
0001
0001
0000
,
0001
0001
0001
3000
,
0001
0100
1000
0010
,
1000
1000
2002
3003
,
1000
0100
0010
0010
,
0001
0100
0010
0010
,
1000
0100
0001
0010
,
1000
0001
2002
3003
,
0100
0010
1000
0001
,
0100
0100
0220
0330
,
0001
0100
0010
1000
,
0000
0001
0001
0000
1000
1000
0000
0000
,
0100
0010
1000
0001
,
1000
0010
0100
0001
,
0100
0100
0010
0010
,
1000
0010
2002
3003
,
0001
0100
1000
0010
,
0100
0001
1000
1000
,
0010
1000
0001
0100
,
0000
0010
0010
0000
0100
0100
0000
0000
,
1001
0010
1000
0010
,
0100
0100
0001
0010
,
1000
0100
0001
0010
,
1000
0000
0010
0000
1001
0001
0001
0000
,
0110
1000
0010
0100
,
0002
0100
0020
0033
,
0001
0100
0010
0100
,
0000
1000
1000
0000
0010
0010
0000
0100
,
0200
0000
0010
0010
,
1000
1000
0001
0301
,
0020
0000
0001
0001
,
0100
0100
1000
1030
,
0100
1000
0010
0001
,
0100
0010
1000
0001
,
0010
0011
0100
1100
,
0000
0001
0001
0000
1000
1000
0000
0000
;

//---------------dance-single - ----------------
#NOTES:
     dance-single:
     :
     Medium:
     10:
     0.506037,0.591663,0.375694,0.241518,0.000000,396.000000,354.000000,42.000000,27.000000,0.000000,0.000000,0.506037,0.591663,0.375694,0.241518,0.000000,396.000000,354.000000,42.000000,27.000000,0.000000,0.000000:
0000
0000
0000
0000
,
0000
0000
0000
0000
,
0000
0000
0000
0000
,
0000
0000
0000
0000
,
0110
0000
0000
0100
0100
0000
0000
0010
,
0010
1000
0001
0100
,
1001
0000
0000
1000
1000
0000
0000
0001
,
0001
0001
0100
1000
,
0020
2030
3020
0230
,
0302
1000
1000
1003
,
0020
0100
0001
0130
,
0200
0010
1000
0310
,
0002
0100
0010
0103
,
2000
0010
0100
3010
,
0001
0100
0010
0000
1000
0000
1001
0000
,
1000
0010
0100
0000
0001
0000
1001
0000
,
0001
0100
1000
0000
0010
1000
0001
0000
,
1000
0010
0100
0001
0100
0010
1000
0000
,
1001
0000
0110
0000
0001
0100
0010
0000
,
1000
0010
0100
0000
0001
1000
0100
0000
,
1001
0000
0110
0000
0001
0100
0010
0000
,
1000
0010
0100
0000
0001
1000
0100
0000
,
0110
0000
1001
0000
0001
1000
0100
0000
,
0001
0100
0010
1000
0010
0001
0100
0000
,
1001
0000
0110
0000
1000
0001
0010
0100
,
0000
1000
0010
0100
0002
0100
0103
0100
,
0010
0000
0100
0010
1000
0000
0010
0100
,
0001
0010
0100
1000
0010
0000
1001
0000
,
1000
0000
0010
0100
0001
0000
1000
0010
,
0100
0001
0010
0100
1000
0010
0001
0000
,
2000
0000
3010
0100
0002
0000
0103
0010
,
1000
0001
0010
0100
0001
0001
1000
1000
,
0020
0100
0001
0100
,
2000
0000
3030
1001
,
1100
0001
0101
0001
,
0011
0010
1010
1000
,
1000
0010
0100
0000
0001
0100
0010
0000
,
1000
0001
1000
0001
2002
0000
3003
0000
,
0002
0000
0103
0010
1000
0000
0010
0000
,
2000
0000
3010
0100
0001
0000
0101
0000
,
0010
0000
1000
0010
0100
0001
0100
0000
,
0010
0100
0001
1000
0010
0110
0110
0000
,
0001
0000
0100
0010
1000
0000
0010
0100
,
0001
0000
1000
0100
0001
0000
0010
0000
,
1000
0001
0010
0000
0010
0100
0001
1000
,
0000
1000
1001
0000
0001
1001
0000
0000
,
0110
0000
1000
0010
0100
0000
0001
0100
,
0010
0000
1000
0010
0002
0000
0103
0000
,
1000
0010
0100
0000
0001
0100
0010
0000
,
0100
0010
1000
0001
0100
0110
0110
0000
,
0001
0100
0010
0000
1000
0100
0010
0001
,
0020
0000
0130
0001
2000
0000
3001
0000
,
0010
1000
0010
0100
0001
0000
0010
0100
,
0000
0010
0110
0000
0100
0110
0000
0000
,
0110
0000
1100
0100
0001
0000
0001
0100
,
0010
0000
0010
1000
0001
0000
1001
0000
,
0110
0000
0011
0010
1000
0000
0001
1000
,
0010
0100
0001
1000
0010
1010
1010
0000
,
0001
1000
0010
0000
0010
1000
0001
0100
,
0020
0230
0302
2003
,
3010
0100
0001
0100
0010
1000
0100
0010
,
0000
0001
0101
0000
0100
1100
0000
1000
,
1002
1000
0100
0100
,
0010
0010
0100
0103
,
2001
0001
0010
0010
,
0100
0100
0010
3010
,
0001
0100
0010
0000
1000
0010
0100
0000
,
0001
0100
1000
0000
1000
0010
0001
0000
,
1000
0010
0100
0001
0010
0100
1000
0010
,
0000
0001
1001
0000
1000
1001
0000
0000
;

//---------------dance-single - ----------------
#NOTES:
     dance-single:
     :
     Hard:
     14:
     0.669605,0.809644,0.572487,0.134177,0.125231,524.000000,460.000000,64.000000,15.000000,0.000000,0.000000,0.669605,0.809644,0.572487,0.134177,0.125231,524.000000,460.000000,64.000000,15.000000,0.000000,0.000000:
0000
0000
0000
0000
,
0000
0000
0000
0000
,
0000
0000
0000
0000
,
0000
0000
0000
0000
,
0011
0000
0010
0100
1000
0000
1000
0010
,
0100
0001
0010
0100
0010
1000
0001
0100
,
0010
0000
0100
0010
1000
0000
0010
1000
,
0100
0010
0001
0100
0010
0100
0001
1000
,
0200
0320
2030
3002
,
1003
0010
0100
0001
0100
0010
1000
0001
,
0102
0000
0013
0000
0100
1000
0010
0100
,
0001
0100
0010
1000
0200
0000
0310
0000
,
2001
0000
3010
0000
0001
1000
0010
0100
,
0001
0010
1000
0100
0002
0000
1003
0000
,
0120
0000
0031
0000
1000
0010
0100
0001
,
0010
0100
1000
0010
0100
0001
1001
0000
,
0110
0010
0100
0010
0100
0010
0100
0010
,
1000
0001
0100
0010
1000
0001
0100
0010
1000
0001
0100
0010
1000
0100
1000
0000
,
0101
0010
0100
0000
1100
0100
0010
0000
,
0101
0010
0100
1000
0010
0100
1001
0000
,
1010
0100
0010
0000
0011
0010
0100
0000
,
1010
0100
0010
0001
0100
0010
1001
0000
,
0101
0010
0100
0000
1000
0010
0100
0000
,
0001
0100
0010
1000
0100
0001
0010
0000
,
1010
0100
0001
0000
0010
0100
1000
0001
,
0000
0010
1000
0100
0002
0100
0010
0013
,
0001
0000
0100
1000
0010
0000
1000
0001
,
0100
0010
0001
0010
0100
1000
0010
1000
,
1001
0000
1000
0010
1010
0000
0001
0100
,
0101
0010
0100
1000
0010
0100
0001
0010
,
0011
0000
0010
0100
0110
0000
0100
1000
,
1100
1000
0010
0100
0101
0010
0110
1000
,
1100
0101
0110
1010
,
0001
1000
0010
1000
0100
0010
0001
0200
,
0010
0010
0010
0010
,
0010
0010
0010
0310
,
0001
0100
0010
1000
0010
0100
0001
0100
,
0010
0100
0010
0001
0010
0100
0010
0001
0010
0000
0001
1000
0010
0000
0000
0000
,
1001
0000
0110
0001
0100
0000
0010
1000
,
0001
0100
0010
1000
0001
0000
1010
0001
,
1000
0100
0010
0100
0001
0010
0100
1000
,
0010
1000
0100
0001
0010
1001
1001
0010
,
1000
0100
0010
0001
0010
0100
1000
0010
,
1010
0000
1001
0010
0101
0000
0010
0100
,
0010
1000
0100
0010
0001
0010
0100
0010
,
0000
0001
0101
0000
0100
1100
0000
0000
,
1001
0000
0110
1000
0010
0000
0100
0001
,
1000
0010
0100
0001
1000
0000
0101
1000
,
0001
0010
0100
0010
1000
0100
0010
0001
,
0100
0001
0010
1000
0100
1001
1001
0100
,
0001
0010
0100
1000
0100
0010
0001
0100
,
0101
0000
1001
0100
1010
0000
0100
0010
,
0100
0001
0010
0100
1000
0100
0010
0100
,
0000
1000
1010
0000
0010
0011
0000
0000
,
1000
0000
0100
0010
1000
0000
0001
0000
0100
0000
0010
1000
0001
0000
1000
0000
,
0010
0000
0100
0001
1000
0000
0010
0000
1000
0000
0010
0100
0001
0000
0010
0000
,
0100
0000
1000
0010
0100
0000
0001
0000
0010
0000
0100
0001
0010
0000
1000
0000
,
0100
0000
0010
1000
0001
0000
0100
0000
0010
0000
1000
0001
1000
0000
0010
0000
,
1000
0000
0010
0100
0001
0000
0010
0000
0100
0000
1000
0010
0100
0000
0001
0000
,
0110
0000
1001
0000
1100
0000
0110
0001
,
1000
0000
0010
0100
0001
0000
0010
0000
0100
0000
1000
0010
0100
0000
0001
0000
,
0000
0011
0110
0000
1100
0110
0000
0011
,
2100
0010
0010
0100
,
0001
0001
0010
3100
,
1002
0100
0010
0010
,
0100
0010
1000
1003
,
0010
1000
0001
1000
0010
0100
0001
0100
,
0010
1000
0010
0100
0001
0100
0010
1000
,
2002
0000
0000
0000
3003
0000
0000
0000
0010
0100
0010
0100
0001
1000
0100
0010
,
0000
1100
0011
0000
0101
1010
0000
0000
;
