#TITLE:アカツキ;
#SUBTITLE:;
#ARTIST:BABYMETAL;
#TITLETRANSLIT:Akatsuki;
#SUBTITLETRANSLIT:;
#ARTISTTRANSLIT:;
#GENRE:Japanese Pops;
#CREDIT:;
#BANNER:;
#BACKGROUND:;
#LYRICSPATH:;
#CDTITLE:;
#MUSIC:Akatsuki.ogg;
#OFFSET:-0.280000;
#SAMPLESTART:90.960083;
#SAMPLELENGTH:15.000000;
#SELECTABLE:YES;
#DISPLAYBPM:170.000000;
#BPMS:0.000000=170.000000
;
#STOPS:
;
#BGCHANGES:;
#KEYSOUNDS:;
#ATTACKS:;

//---------------dance-single - ----------------
#NOTES:
     dance-single:
     :
     Hard:
     14:
     0.688111,0.751539,0.064897,0.079318,0.284824,668.000000,659.000000,9.000000,11.000000,0.000000,0.000000,0.688111,0.751539,0.064897,0.079318,0.284824,668.000000,659.000000,9.000000,11.000000,0.000000,0.000000:
0000
0000
0000
0000
,
0000
0000
0000
0000
,
0000
0000
0000
0000
,
0000
0000
0000
0000
,
0000
0000
0000
0000
,
0000
0000
0000
0000
,
0000
0000
0000
0000
,
0000
0000
0000
0000
,
0000
0000
0000
0000
,
1000
0000
1000
0100
0000
0000
0000
0000
,
0100
0000
0100
0010
0000
0000
0000
0000
,
0010
0000
0010
0001
0000
0001
0010
0000
,
0001
0000
0001
0010
0000
0110
0000
0000
,
1000
0000
1000
0100
0000
0000
0100
0000
,
0100
0000
0100
0010
0000
0000
0010
0000
,
0001
0000
0100
0001
0000
0000
1000
0000
,
2002
0000
0000
3003
,
0001
0000
0100
0001
0100
0000
1000
0100
,
1000
0000
1000
0010
1000
0000
0010
0001
,
0010
0000
0001
0010
0001
0000
0100
0010
,
0100
0000
1000
0100
1000
0000
0010
0100
,
0001
1000
0010
0100
0001
1000
0010
0100
,
0001
0010
0100
1000
0001
0010
0100
1000
,
0001
0100
0010
1000
0001
0100
0010
1000
,
1000
0100
0010
0001
1000
0100
0010
0001
,
0100
0000
0001
0100
0000
0001
0100
0000
0001
0000
1000
0001
0000
1000
0001
0000
,
1000
0000
0010
1000
0000
0010
1000
0000
0100
0000
1000
0000
0001
0000
0100
0000
,
0010
0000
1000
0010
0000
1000
0010
0000
1000
0000
0001
1000
0000
0001
1000
0000
,
0001
0000
0100
0001
0000
0100
0001
0000
0010
0000
0001
0000
1000
0000
0100
0000
,
0010
0000
1000
0001
0000
1000
0001
0000
0100
0000
0010
0100
0000
0010
0100
0000
,
0001
0000
1000
0001
0000
1000
0001
0000
0100
0000
0010
0000
1000
0000
0100
0000
,
0001
0000
0100
0010
0000
0100
0010
0000
0100
0000
0001
1000
0000
0001
1000
0000
,
0010
0000
0000
0110
0000
0000
1001
0000
0000
0000
1000
0000
0001
0000
0000
0000
,
0001
1000
0010
0100
0001
1000
0010
0000
,
1000
0010
0100
0001
0100
0010
1000
0000
,
0001
0010
0100
1000
0001
0010
0100
1000
,
0010
0100
0001
1000
0010
0100
0001
1000
,
0010
0100
0001
1000
0100
0010
0001
0000
,
1000
0010
0100
0001
0100
0010
1000
0000
,
1000
0100
0010
0001
1000
0100
0010
0001
,
1000
0010
0100
0001
1000
0010
0100
0001
,
1000
0001
0100
0010
1000
0001
0100
0000
,
0001
0100
0010
1000
0001
0100
0010
0000
,
1000
0010
0100
0010
1000
0010
0100
0010
,
0100
0001
0100
0010
0100
0001
0100
0010
,
0100
0001
0100
0010
1000
0100
0010
0000
,
0001
1000
0010
0100
0001
0100
0010
0000
,
1000
0100
0010
0001
0010
0100
1000
0100
,
0010
0100
0001
1000
0010
0100
0001
1000
,
0020
1000
0100
0031
,
0200
0001
0010
1300
,
0010
0000
1000
0000
0010
1000
0010
0000
1000
0000
0001
0000
0100
0000
0010
0000
,
1000
0000
0001
0000
0100
0001
0100
0000
0001
0000
1000
0000
0010
0000
0100
0000
,
0001
0000
1000
0000
0001
1000
0001
0000
1000
0000
0010
0000
0100
0000
0001
0000
,
1000
0000
0010
0000
0100
0010
0100
0000
0001
0000
1000
0000
0010
0000
1000
0000
,
0100
0000
0001
0000
0010
0100
0010
0000
0100
0000
0001
0000
1000
0000
0010
0000
,
0100
0000
0010
0000
1000
0001
1000
0000
0010
0000
0100
0000
0001
1000
0001
0000
,
0200
0000
0310
2000
0000
3010
0100
0001
,
2000
0000
3001
0200
0000
0310
0100
0001
,
1000
0000
0010
0000
1000
0010
1000
0000
0001
0000
1000
0010
0000
0010
0100
0000
,
0001
0000
0010
0000
0100
0001
0100
0000
0001
0000
0010
1000
0000
1000
0001
0000
,
0100
0000
0010
0000
1000
0010
1000
0000
0001
0000
1000
0001
0000
0001
0100
0000
,
0010
0000
1000
0000
0001
0100
0001
0000
0100
0000
0001
1000
0000
1000
0100
0000
,
0010
0001
1000
0100
0010
0001
1000
0010
,
0210
0010
0010
0310
,
0001
0100
1000
0100
0001
0100
1000
0100
,
0001
0010
1000
0010
0001
0010
1000
0010
,
0100
1000
0001
0100
0010
1000
0100
0010
,
0001
0100
0010
1000
0010
0100
0001
0100
,
0010
0010
0100
0100
0001
0001
1000
1000
,
0010
1000
0001
0100
0010
1000
0001
0100
,
0010
0001
0100
1000
0010
1000
0100
0001
,
0010
0100
1000
0010
1001
0000
1100
0000
,
0010
0100
0001
1000
0010
0100
0001
1000
,
0010
1000
0100
0001
0010
0100
1000
0010
,
0100
0100
0001
1000
0010
0010
0100
0001
,
1000
1000
0010
0100
0001
0001
0100
0010
,
1000
0100
0010
0100
0001
0100
0010
0100
,
1000
0010
0100
0001
0100
0010
1000
0001
,
1000
0100
0010
0001
0100
0010
0100
1000
,
2002
0000
0000
3003
,
0001
0000
0100
0000
1000
0010
1000
0000
0100
0000
0001
1000
0000
1000
0010
0000
,
0100
0000
0001
0000
0100
0001
0100
0000
0010
0000
1000
0100
0000
0100
0001
0000
,
0100
0000
0010
0000
0100
0010
0100
0000
1000
0000
0001
1000
0000
1000
0010
0000
,
0100
0000
0001
0000
1000
0001
1000
0000
0010
0000
0001
0000
0100
0000
0010
0000
,
1000
0000
0100
0000
0010
0100
0010
0000
0100
0000
0001
1000
0000
1000
0010
0000
,
1000
0000
0001
0000
0010
0000
1000
0000
0100
0000
0010
0000
1000
0001
1000
0001
,
1000
0000
0100
0000
0010
1000
0010
0000
0001
0000
1000
0010
0000
0100
0010
0000
,
0100
0000
0001
0000
0100
0001
0100
0000
0010
0000
0001
0010
0000
0100
0010
0000
,
0001
0000
1000
0000
0001
1000
0001
0000
1000
0000
0010
0100
0000
0001
0100
0000
,
0001
0000
1000
0000
0010
0100
0010
0000
1000
0000
0100
0010
0000
0100
1000
0000
,
0001
0000
1000
0000
0001
1000
0001
0000
0010
0000
0100
1000
0000
0100
0010
0000
,
0001
0000
1000
0000
0001
1000
0001
0000
1000
0000
0010
0100
0000
0001
0100
0000
,
0001
0000
0100
0000
0010
0100
0010
0000
0001
0000
1000
0010
0000
0100
0010
0000
,
0001
0000
0100
0000
0001
1000
0010
0000
1000
0000
0001
0000
0110
0000
0000
0000
;

//---------------dance-single - ----------------
#NOTES:
     dance-single:
     :
     Medium:
     11:
     0.511963,0.614896,0.230744,0.057686,0.000000,497.000000,465.000000,32.000000,8.000000,0.000000,0.000000,0.511963,0.614896,0.230744,0.057686,0.000000,497.000000,465.000000,32.000000,8.000000,0.000000,0.000000:
0000
0000
0000
0000
,
0000
0000
0000
0000
,
0000
0000
0000
0000
,
0000
0000
0000
0000
,
0000
0000
0000
0000
,
0000
0000
0000
0000
,
0000
0000
0000
0000
,
0000
0000
0000
0000
,
0000
0000
0000
0000
,
1000
0000
1000
0100
0000
0000
0100
0000
,
0010
0000
0010
0100
0000
0000
0001
0000
,
0010
0000
0001
0010
0000
0000
0100
0000
,
0010
0000
0100
0010
0000
0000
1000
0000
,
0001
0000
1000
0001
0000
0000
0100
0000
,
0010
0000
0100
0010
0000
0000
0001
0000
,
1000
0000
0001
1000
0000
0000
0010
0000
,
0220
0000
0000
0330
,
0001
0000
0001
0100
0001
0000
0100
0000
,
0010
0000
1000
0100
1000
0000
0010
0000
,
0100
0000
0001
0010
0001
0000
0100
0000
,
0010
0000
1000
0100
1000
0000
0010
0000
,
0101
0000
0100
0001
0100
0000
0100
1000
,
0100
0000
0100
0001
0100
0000
0010
0000
,
1010
0000
0010
1000
0010
0000
0010
0001
,
0010
0000
0010
1000
0010
0000
0100
0000
,
0001
1000
0001
0000
1000
0000
0010
0000
,
0100
0010
0100
0000
0001
0000
0100
0000
,
1000
0100
1000
0000
0010
0000
0100
0000
,
0001
0010
0001
0000
1000
0000
0010
0000
,
0001
1000
0001
0000
0100
0000
0001
0000
,
0010
0100
0010
0000
1000
0000
0001
0000
,
0100
0010
0100
0000
0001
0000
1000
0000
,
0001
1000
0001
0000
0010
0000
0110
0000
,
1000
0100
0010
0000
0001
0010
0100
0000
,
0001
0100
0010
0110
,
1000
0010
0100
0000
0001
0100
0010
0000
,
1000
0010
0100
0110
,
0001
0100
1000
0000
1000
0000
1010
0000
,
1000
0010
0001
0000
0010
0000
0011
0000
,
0001
0100
1000
0000
0010
0000
0110
0000
,
1000
0010
0001
0000
0100
0000
0110
0000
,
0001
0100
1000
0000
1000
0100
0001
0000
,
0010
0100
0010
0000
0100
0010
0100
0000
,
0001
0010
1000
0000
1000
0010
0001
0000
,
0100
0010
0100
0000
0010
0100
0010
0000
,
1000
0100
0010
0000
0001
0000
1001
0000
,
0001
0010
0100
0000
1000
0000
1001
0000
,
1000
0100
0010
0000
0001
0010
0100
0000
,
1000
0010
0100
0001
1000
0000
1001
0000
,
0020
1000
0100
0031
,
0200
0001
0010
1300
,
0010
1000
0010
0000
1010
0000
1001
0000
,
0010
0100
0010
0000
0011
0000
0101
0000
,
0010
0100
0001
0000
1000
0000
1001
0000
,
0100
0010
1000
0000
0001
0000
1001
0000
,
1000
0010
0100
0000
0001
0000
0110
0000
,
0001
0100
0010
0000
1000
0000
0110
0000
,
1000
0000
0010
0100
0000
0100
0001
1000
,
0010
0000
1000
0001
0000
0001
1000
0010
,
0100
0000
0010
0000
0100
0010
0100
0010
,
0100
0000
1000
0000
0001
1000
0001
1000
,
0001
0000
0100
0000
1000
0100
1000
0100
,
1000
0000
0100
0000
0010
0001
0010
0001
,
0010
0000
0100
0000
0010
0000
1000
0001
,
2002
0000
0000
3003
,
1000
0010
0100
0110
,
0001
0100
0010
0000
1000
0010
0100
0000
,
0001
0100
0010
0110
,
1000
0010
0100
0000
0001
0100
0010
0000
,
0100
1000
0010
0000
0010
0000
1010
0000
,
0010
0100
0001
0000
0100
0000
0101
0000
,
0100
1000
0010
0000
0010
0001
0100
0000
,
0100
1000
0010
0100
0001
0100
0010
0000
,
0001
0100
1000
0100
0001
0100
1000
0000
,
1000
0010
0001
0010
1000
0010
0001
0000
,
1000
0010
0100
0010
1000
0010
0100
0000
,
0001
0100
0010
0100
0001
0100
0010
0000
,
0100
1000
0010
0100
0001
0000
1001
0000
,
0001
0100
0010
1000
0100
0000
1100
0000
,
1000
0100
0010
0000
0001
0010
0100
0000
,
2002
0000
0000
3003
,
0001
0100
1000
0100
0001
0100
1000
0000
,
1000
0010
0001
0010
1000
0010
0001
0000
,
1000
0010
0100
0010
1000
0010
0100
0000
,
0001
0100
0010
0100
0001
0100
0010
0000
,
0100
1000
0010
0100
0001
1000
1001
0000
,
0001
0100
0010
0100
1000
0001
1001
0000
,
1000
0010
0100
0000
0010
0100
0001
0000
,
0001
0100
1000
0000
1000
0010
0001
0000
,
1000
0010
0100
0000
0001
0100
0010
0000
,
0100
0001
1000
0000
1000
0010
0100
0001
,
0100
1000
0100
0001
0100
1000
0100
0001
,
0010
1000
0010
0001
0010
1000
0010
0001
,
1000
0010
0100
0001
1000
0010
0100
0001
,
1000
0010
0100
0001
0100
0010
0110
0000
;

//---------------dance-single - ----------------
#NOTES:
     dance-single:
     :
     Easy:
     7:
     0.393500,0.444091,0.245165,0.151426,0.000000,382.000000,348.000000,34.000000,21.000000,0.000000,0.000000,0.393500,0.444091,0.245165,0.151426,0.000000,382.000000,348.000000,34.000000,21.000000,0.000000,0.000000:
0000
0000
0000
0000
,
0000
0000
0000
0000
,
0000
0000
0000
0000
,
0000
0000
0000
0000
,
0000
0000
0000
0000
,
0000
0000
0000
0000
,
0000
0000
0000
0000
,
0000
0000
0000
0000
,
0000
0000
0000
0000
,
1000
0100
1000
0000
,
0001
0100
0001
0000
,
1000
0010
1000
0000
,
0001
0010
0001
0000
,
1000
0010
0110
0000
,
0001
0100
0110
0000
,
1000
0100
0001
0010
,
2002
0000
0000
3003
,
0001
0000
0001
0100
0001
0000
1000
0000
,
0100
0000
1000
0100
1000
0000
0010
0000
,
0100
0000
0010
0100
0010
0000
1000
0000
,
0001
0000
1000
0001
1000
0000
0010
0000
,
1000
0100
0010
0001
,
1000
0010
0100
0001
,
0001
0100
0010
1000
,
0001
0010
0100
1100
,
1000
0000
0100
0010
0100
0000
0001
0000
,
0010
0100
0001
1001
,
0001
0000
0100
0010
0100
0000
1000
0000
,
0010
0100
0001
1001
,
0100
0000
1000
0100
1000
0000
0010
0000
,
0100
0001
1000
1001
,
0010
0000
0001
0010
0001
0000
0100
0000
,
0010
1000
0001
1001
,
0200
1000
0010
1300
,
0010
1000
0001
0100
,
0020
0001
0100
0031
,
0001
0100
0010
0110
,
2000
0010
0100
3001
,
0010
1000
0010
0110
,
0002
0100
0010
1003
,
0010
0100
0001
1001
,
0100
1000
0010
0010
,
0100
0001
0010
0010
,
0100
1000
0001
0001
,
0010
0001
1000
1000
,
0100
1000
0010
0100
,
0001
0100
0010
0100
,
1000
0100
0010
0001
,
1001
0110
2002
3003
,
0200
1000
0010
1300
,
0020
0100
0001
0130
,
0001
0100
0010
1010
,
1000
0010
0100
0101
,
0100
1000
0010
1010
,
1000
0010
0001
0101
,
0100
1000
0010
0001
,
0100
0010
0220
0330
,
0002
1000
0010
0103
,
2000
0001
0100
3010
,
1000
0010
0100
0110
,
0001
0100
0010
0110
,
1000
0100
0010
0001
,
1000
0010
0100
0001
,
0200
0001
1000
0310
,
0220
0000
0000
0330
,
0001
0000
0100
0000
1000
1000
1000
0000
,
0100
0010
1000
1001
,
0010
0000
0100
0000
0001
0001
0001
0000
,
0100
0010
1000
1001
,
0100
0000
1000
0000
0010
0010
0010
0000
,
0100
0001
1000
1001
,
0100
0000
0010
0000
0100
0100
0100
0000
,
0010
0100
1000
1001
,
0100
0000
1000
0000
0010
0010
0010
0000
,
1000
0000
0001
0000
0100
0100
0100
0000
,
0001
0100
0001
0000
0100
0000
1001
0000
,
1000
0010
1000
0000
0010
0000
1001
0000
,
0200
1000
0010
1300
,
0020
0001
0100
0031
,
0100
0010
1000
0001
,
2002
0000
0000
3003
,
0100
1000
0010
0010
,
0001
0100
0000
0000
0010
0000
0010
0000
,
1000
0001
0100
0100
,
0001
1000
0100
0100
,
0010
1000
0001
1001
,
0010
0001
1000
1001
,
0100
0000
1000
0000
0010
0010
0010
0000
,
1000
0001
0100
0110
,
0001
0000
1000
0000
0100
0100
0100
0000
,
1000
0010
0001
1001
,
0100
0000
0010
0000
1000
1000
1000
0000
,
0010
1000
0001
1001
,
0010
0000
0001
0000
0100
0100
0100
0000
,
0010
0000
1000
0000
0001
1000
0001
0000
;

//---------------dance-single - ----------------
#NOTES:
     dance-single:
     :
     Beginner:
     5:
     0.149365,0.273287,0.050475,0.129793,0.000000,145.000000,138.000000,7.000000,18.000000,0.000000,0.000000,0.149365,0.273287,0.050475,0.129793,0.000000,145.000000,138.000000,7.000000,18.000000,0.000000,0.000000:
// measure 0
0000
0000
0000
0000
,  // measure 1
0000
0000
0000
0000
,  // measure 2
0000
0000
0000
0000
,  // measure 3
0000
0000
0000
0000
,  // measure 4
0000
0000
0000
0000
,  // measure 5
0000
0000
0000
0000
,  // measure 6
0000
0000
0000
0000
,  // measure 7
0000
0000
0000
0000
,  // measure 8
0000
0000
0000
0000
,  // measure 9
0000
0000
0000
0000
,  // measure 10
0000
0000
0000
0000
,  // measure 11
0000
0000
0000
0000
,  // measure 12
0000
0000
0000
0000
,  // measure 13
0000
0000
0000
0000
,  // measure 14
0000
0000
0000
0000
,  // measure 15
0000
0000
0000
0000
,  // measure 16
0000
0000
0000
0000
,  // measure 17
1000
0000
0100
0000
,  // measure 18
0010
0010
0010
0000
,  // measure 19
0001
0000
0010
0000
,  // measure 20
0100
0100
0100
0000
,  // measure 21
1000
0000
0100
0000
,  // measure 22
0001
0001
0001
0000
,  // measure 23
0001
0000
0010
0000
,  // measure 24
1000
1000
1000
0000
,  // measure 25
0100
0000
1000
0000
,  // measure 26
0100
0000
0010
0010
,  // measure 27
0010
0000
0001
0000
,  // measure 28
0010
0000
0100
0100
,  // measure 29
0100
0000
1000
0000
,  // measure 30
0001
0000
0100
0100
,  // measure 31
0010
0000
0001
0000
,  // measure 32
1000
0000
0010
0010
,  // measure 33
0100
0000
0000
0000
,  // measure 34
0100
0000
0000
0000
,  // measure 35
0010
0000
0000
0000
,  // measure 36
0010
0000
0000
0000
,  // measure 37
1000
0000
0000
0000
,  // measure 38
1000
0000
0000
0000
,  // measure 39
0001
0000
0000
0000
,  // measure 40
0001
0000
0000
0000
,  // measure 41
1000
0000
0100
0000
,  // measure 42
1000
0000
0100
0000
,  // measure 43
0001
0000
0010
0000
,  // measure 44
0001
0000
0010
0000
,  // measure 45
1000
0000
0010
0000
,  // measure 46
0100
0000
0001
0000
,  // measure 47
0001
0000
0100
0000
,  // measure 48
0010
0000
1000
0000
,  // measure 49
2002
0000
0000
0000
,  // measure 50
3003
0000
0000
0000
,  // measure 51
1000
0000
0100
0000
,  // measure 52
1000
0000
0010
0000
,  // measure 53
0001
0000
0100
0000
,  // measure 54
0001
0000
0010
0000
,  // measure 55
1000
0000
0010
0000
,  // measure 56
0100
0000
0001
0000
,  // measure 57
2002
0000
0000
0000
,  // measure 58
3003
0000
0000
0000
,  // measure 59
0001
0000
0100
0000
,  // measure 60
0001
0000
0010
0000
,  // measure 61
1000
0000
0010
0000
,  // measure 62
1000
0000
0100
0000
,  // measure 63
1000
0010
0100
0001
,  // measure 64
2002
0000
3003
0000
,  // measure 65
0001
0000
0000
0000
,  // measure 66
1000
0000
0100
0000
,  // measure 67
0010
0000
0000
0000
,  // measure 68
0001
0000
0010
0000
,  // measure 69
0100
0000
0000
0000
,  // measure 70
1000
0000
0100
0000
,  // measure 71
0001
0000
0000
0000
,  // measure 72
0001
0000
0010
0000
,  // measure 73
2000
0000
0000
0000
,  // measure 74
3010
0000
0010
0000
,  // measure 75
0200
0000
0000
0000
,  // measure 76
0310
0000
0010
0000
,  // measure 77
0002
0000
0000
0000
,  // measure 78
0103
0000
0100
0000
,  // measure 79
0020
0000
0000
0000
,  // measure 80
0130
0000
0010
0000
,  // measure 81
0220
0000
0000
0000
,  // measure 82
0330
0000
0001
0000
,  // measure 83
2002
0000
0000
0000
,  // measure 84
3003
0000
1000
0000
,  // measure 85
2002
0000
0000
0000
,  // measure 86
3003
0000
0100
0000
,  // measure 87
0220
0000
0000
0000
,  // measure 88
0330
0000
0000
0000
,  // measure 89
0001
0000
0100
0000
,  // measure 90
0010
0010
0010
0000
,  // measure 91
1000
0000
0010
0000
,  // measure 92
0100
0100
0100
0000
,  // measure 93
0001
0000
1000
0000
,  // measure 94
0010
0010
0010
0010
;
