#TITLE:Ahoy!! 我ら宝鐘海賊団☆;
#SUBTITLE:;
#ARTIST:宝鐘マリン produced by ARM×まろん(IOSYS);
#TITLETRANSLIT:Ahoy!! Warera takara kane kaizoku-dan☆;
#SUBTITLETRANSLIT:;
#ARTISTTRANSLIT::Houshou Marine produced by ARM×Maron(IOSYS);
#GENRE:hololive/holostars;
#CREDIT:;
#BANNER:;
#BACKGROUND:;
#LYRICSPATH:;
#CDTITLE:;
#MUSIC:Ahoy!! Warera takara kane kaizoku-dan.ogg;
#OFFSET:0.110000;
#SAMPLESTART:65.745071;
#SAMPLELENGTH:15.000000;
#SELECTABLE:YES;
#DISPLAYBPM:170.000000;
#BPMS:0.000000=170.000000
;
#STOPS:
;
#BGCHANGES:0.000=Ahoy!! Warera takara kane kaizoku-dan.avi=1.000=0=0=0=StretchNoLoop====,
99999=-nosongbg-=1.000=0=0=0 // don't automatically add -songbackground-
;
#KEYSOUNDS:;
#ATTACKS:;

//---------------dance-single - ----------------
#NOTES:
     dance-single:
     :
     Hard:
     13:
     0.582069,0.637943,0.245014,0.090746,0.163342,449.000000,422.000000,27.000000,10.000000,0.000000,0.000000,0.582069,0.637943,0.245014,0.090746,0.163342,449.000000,422.000000,27.000000,10.000000,0.000000,0.000000:
0000
0000
0000
0000
,
0000
0000
0000
0000
,
0000
0000
0000
0000
,
0000
0000
0000
0000
,
0000
0000
0000
0000
,
1000
0000
1000
0100
0000
0100
0010
0000
0000
0110
0000
0000
,
0001
0000
0001
0010
0000
0010
0100
0000
0000
0110
0000
0000
,
1001
0000
0000
0100
0000
0000
1001
0000
0000
0010
0000
1000
,
0001
0000
0000
0110
0000
0100
0010
0000
0000
1001
0000
0001
,
2000
0010
0010
0010
,
0020
0000
0000
0000
,
3030
0000
0000
0000
0000
0000
0000
0000
0000
0000
0000
0000
0000
0000
0001
1000
,
0002
0000
0000
0000
0000
0000
0000
0000
0000
0000
0000
0000
1003
0000
1000
0001
,
2000
0000
0000
0000
0001
3000
1001
0000
,
0001
0100
1000
0100
0001
0100
1000
0100
,
0001
0010
1000
0010
0001
0010
1000
0010
,
0001
0100
0010
0100
0001
0100
0010
0100
,
0001
1000
0010
0100
0001
1000
1001
0000
,
1000
0010
0001
0010
1000
0010
0001
0010
,
1000
0100
0001
0100
1000
0100
0001
0100
,
1000
0010
0000
0100
0000
0000
0001
0100
0000
0010
0000
0000
0010
0000
1000
0000
,
0001
0000
0000
0000
0100
0000
0000
1001
0000
0000
0000
0000
1001
0000
0000
0000
,
0100
1000
0100
1000
0010
0100
0010
0100
,
0001
0010
0001
0010
1000
0001
1000
0001
,
0010
0100
1000
0100
0010
0001
0100
0010
,
1000
0001
0100
0010
1001
0000
1100
0000
,
0010
0001
0010
0001
0100
0010
0100
0010
,
1000
0100
1000
0100
0001
1000
0001
1000
,
0100
0010
0001
0010
0100
1000
0010
0100
,
0001
0000
0000
0100
0000
0000
0010
0000
0110
0000
0000
0000
0001
0000
0010
0000
,
0100
1000
0100
0000
0001
0100
0001
0000
,
0010
0001
0010
0000
1000
0010
1000
0000
,
0100
1000
0010
0000
0001
0100
0010
0000
,
1000
0001
0100
0000
0001
1000
0010
0000
,
0001
1000
0100
0001
0000
0001
0100
1000
,
0000
0000
0001
1000
0001
0000
0000
0000
1000
0000
0010
0000
1000
0000
0001
0000
,
0000
0001
1000
0010
0100
0000
1001
0000
,
0100
0000
1000
0100
0000
0100
0010
0000
,
0001
0000
0001
0010
0000
0010
0100
0000
,
1000
0000
2000
0100
3000
0100
0001
0000
,
0001
0000
0002
0010
0003
0010
1000
0000
,
1000
0001
1000
0010
0000
0010
1000
0001
,
0000
0001
0100
1000
0100
0000
1001
0000
,
0001
1000
0010
0100
0000
0010
0100
0001
,
1000
0000
0000
0001
0000
1000
0001
0000
0010
0000
0000
0100
0000
0010
0100
0000
,
1000
0001
1000
0001
1000
0001
2000
0000
0000
0000
0000
0000
,
0001
0001
0001
3001
,
0100
1000
0100
1000
0010
0100
0010
0000
,
0001
0010
0001
0010
0100
0010
0100
0000
,
1000
0100
0001
0000
0001
0010
1000
0000
,
1000
0010
0100
0001
1000
0010
1001
0000
,
0100
0000
1000
1100
0000
0100
0101
0000
,
0001
0000
0001
0011
0000
0010
1010
0000
,
0001
1000
0100
0010
0001
0100
0010
1000
,
0001
0000
1000
0001
0000
0001
1001
0000
,
1001
1000
0001
0100
0010
0100
0001
1000
,
0010
1000
0100
0010
0001
0010
0100
1000
,
1100
0100
0100
0000
0011
0010
0010
0000
,
0010
0100
0001
0100
0010
1000
1100
0000
,
1001
0000
0100
1000
0000
0100
0001
0000
,
1001
0000
0010
0001
0000
0010
1000
0000
,
0001
1000
0010
1000
0001
1000
0010
0000
,
1000
0001
0100
0001
1000
0001
0100
0000
,
1000
0100
0001
0100
1000
0100
0001
0100
,
0010
0000
1000
0000
0100
0000
0010
0000
0001
1000
0001
1000
0001
0000
0100
0000
,
0020
0000
0000
0000
0100
0000
0000
0001
,
0030
0001
0010
0000
0100
0001
1000
0000
,
0010
1000
0010
1000
0001
0100
0001
0100
,
0010
0100
0010
0000
0100
0000
0001
0000
1000
0001
1000
0000
0001
0000
0100
0000
,
0010
0000
0000
1000
0010
1000
0010
0000
0000
0001
0100
0001
,
0100
0000
0000
0010
0100
0010
0100
0000
0000
0001
1000
0001
,
2000
0000
0000
0000
,
0200
0000
0000
0000
,
0000
0000
0000
0000
,
3300
0000
0000
0000
;

//---------------dance-single - ----------------
#NOTES:
     dance-single:
     :
     Medium:
     10:
     0.467989,0.570791,0.308536,0.099820,0.027224,361.000000,327.000000,34.000000,11.000000,0.000000,0.000000,0.467989,0.570791,0.308536,0.099820,0.027224,361.000000,327.000000,34.000000,11.000000,0.000000,0.000000:
0000
0000
0000
0000
,
0000
0000
0000
0000
,
0000
0000
0000
0000
,
0000
0000
0000
0000
,
0000
0000
0000
0000
,
0001
0010
0001
0000
0110
0000
0110
0000
,
1000
0100
1000
0000
0110
0000
0110
0000
,
1000
0100
0001
0010
,
0100
0000
1000
0000
0010
0000
0001
1000
,
0002
0000
1000
0000
,
2000
0000
0000
0000
,
3003
0000
0000
0000
0000
0000
0000
0010
,
0200
0000
0000
0000
0000
0000
0300
0100
,
0020
0000
0100
0130
,
0100
1000
0100
1000
0100
0000
0100
0000
,
0010
0001
0010
0001
0010
0000
0010
0000
,
0100
0001
1000
0000
0100
1000
0001
0000
,
0010
1000
0001
0000
0010
0001
1000
0000
,
1000
0100
0010
0100
1000
0000
1010
0000
,
0001
0010
0100
0010
0001
0000
0101
0000
,
0100
0000
0000
1000
0000
0000
0100
0000
0000
0001
0000
0000
0010
0000
0000
0000
,
0001
0000
0000
0000
0010
0000
0000
1001
0000
0000
0000
0000
0000
0000
0000
0000
,
0001
1000
0001
0000
0100
0010
0100
0000
,
1000
0100
0010
0000
0001
0010
0100
0000
,
1000
0100
0001
0000
0001
0100
1000
0000
,
1000
0010
1000
0010
0001
0010
0001
0010
,
1000
0001
1000
0000
0010
0100
0010
0000
,
0001
0010
0100
0000
1000
0100
0010
0000
,
0001
0010
1000
0000
1000
0010
0001
0000
,
0010
0000
0000
0010
0000
0000
0010
0000
0100
0000
0000
0000
0110
0000
0000
0000
,
0001
0100
1000
0000
1000
0100
0001
0000
,
0001
1010
0010
1001
,
1000
0010
0001
0000
0001
0010
1000
0000
,
1000
0101
0100
1001
,
1000
0100
1000
0100
0000
0010
0001
0010
,
0000
0001
1001
0000
0010
1000
0001
0010
,
0000
0010
1000
0000
0001
0000
1001
0000
,
0100
0000
1000
0000
0100
1000
0000
1000
,
0100
0010
0001
0100
,
0010
0000
0001
0000
0010
0001
0000
0001
,
0010
0100
1000
0001
,
2001
0000
0000
0100
0000
0000
0000
0001
,
0000
0000
0100
3100
,
1002
0000
0000
0100
0000
0000
0000
0000
,
1000
0000
1000
0000
,
0100
0100
0200
0303
,
0001
0000
0001
0000
0001
0100
0001
0100
,
1000
0100
1000
0100
0001
0000
1001
0000
,
0001
0010
0001
0010
0100
0000
1001
0000
,
1000
0100
0001
0011
,
0001
0010
1000
1100
,
1000
0000
1000
1001
0000
0000
0010
0000
,
0001
0000
0001
1001
0000
0000
0100
0000
,
1000
0100
1000
0000
0001
0010
0001
0000
,
1000
0100
0010
0001
0000
0001
1001
0000
,
0100
1000
0100
1000
0100
0000
0110
0000
,
0010
0001
0010
0001
0010
0000
0110
0000
,
1000
0100
0001
0000
0001
0010
1000
0000
,
1000
0010
0100
0001
1000
0010
0100
0000
,
1001
0000
0100
1000
0000
0010
0001
0000
,
0110
0000
0010
0001
0000
0100
1000
0000
,
0001
0100
1000
0100
0001
0100
1000
0000
,
1000
0010
0001
0010
1000
0010
0001
0000
,
1000
0010
0100
0010
1000
0010
0100
0000
,
0001
0100
0010
0100
0001
0100
0010
0000
,
2002
0000
0000
0000
0000
0000
3003
0001
,
0000
0001
1000
0000
0010
0000
0100
0000
,
0010
0100
0010
0000
1000
0001
1000
0000
,
0100
1000
0100
0000
0010
0001
0010
0000
,
0100
0110
1001
1100
,
0011
0000
0000
1010
0000
0000
0101
0000
0000
0001
1000
0001
,
2000
0000
0000
0000
,
0002
0000
0000
0000
,
0000
0000
0000
0000
,
3003
0000
0000
0000
;

//---------------dance-single - ----------------
#NOTES:
     dance-single:
     :
     Easy:
     6:
     0.311128,0.503639,0.308536,0.245014,0.000000,240.000000,206.000000,34.000000,27.000000,0.000000,0.000000,0.311128,0.503639,0.308536,0.245014,0.000000,240.000000,206.000000,34.000000,27.000000,0.000000,0.000000:
0000
0000
0000
0000
,
0000
0000
0000
0000
,
0000
0000
0000
0000
,
0000
0000
0000
0000
,
0000
0000
0000
0000
,
0100
0100
0110
1001
,
0010
0010
0110
1001
,
0100
1100
0100
0101
,
0101
0100
1100
1000
,
2002
0000
0000
0000
,
3003
0000
0000
0000
,
0000
0000
0000
0000
,
0120
0000
0000
0030
,
0210
0000
0010
0310
,
0001
0100
0000
1100
,
0001
0100
1000
0100
,
0001
0010
1000
0010
,
0001
0010
1000
0010
,
1000
0100
0001
0100
,
1000
0100
0001
0100
,
2000
0000
3002
0000
,
2003
0000
3001
0000
,
0100
1000
0010
0001
,
0100
0010
0001
0100
,
1000
0010
0001
0100
,
1000
0010
2002
3003
,
0001
0010
0100
1000
,
0010
0100
0001
0100
,
1000
0010
0001
0100
,
0020
0100
0130
0000
,
0100
1000
0100
1000
,
0010
0010
0020
0030
,
0001
0010
0001
0010
,
0100
0100
0200
0300
,
1000
0100
0010
0001
,
0010
0110
0110
1000
,
0001
0010
0100
1001
,
0200
0000
1000
0000
,
0001
0000
1000
0000
,
0320
0000
1000
0000
,
0001
0000
1000
0000
,
0230
0000
0001
0000
,
1000
0000
0001
0000
,
1000
0000
1000
0000
,
0001
0000
0001
0000
,
0002
0000
0303
0000
,
1001
1001
0110
0110
,
0001
0100
1000
0010
,
1000
0100
0010
0001
,
0100
1000
0100
0001
,
0100
1000
0010
0001
,
0100
0010
0220
0330
,
0001
1000
2002
3003
,
0100
1000
0010
0001
,
0100
0100
0220
0330
,
1000
0100
0010
0001
,
0001
0010
0100
1000
,
1010
0100
0101
0010
,
0011
0100
1010
0100
,
2001
0000
0001
3000
,
1002
0000
1000
0003
,
0100
1000
0010
0010
,
0001
0100
0010
0010
,
1000
0100
0001
0010
,
0100
1000
0010
0001
,
0200
0000
0000
0000
,
0010
0000
0310
0000
,
0001
0100
1000
0010
,
0010
0001
0100
1000
,
1001
0000
1001
0000
,
0110
0000
0110
0000
,
2002
0000
0000
0000
,
0003
0000
0000
0000
,
0000
0000
0000
0000
,
3000
0000
0000
0000
;

//---------------dance-single - ----------------
#NOTES:
     dance-single:
     :
     Beginner:
     3:
     0.142600,0.261348,0.099820,0.145193,0.000000,110.000000,99.000000,11.000000,16.000000,0.000000,0.000000,0.142600,0.261348,0.099820,0.145193,0.000000,110.000000,99.000000,11.000000,16.000000,0.000000,0.000000:
// measure 0
0000
0000
0000
0000
,  // measure 1
0000
0000
0000
0000
,  // measure 2
0000
0000
0000
0000
,  // measure 3
0000
0000
0000
0000
,  // measure 4
0000
0000
0000
0000
,  // measure 5
1000
0000
1000
0000
,  // measure 6
0001
0000
0001
0000
,  // measure 7
0100
0000
0100
0000
,  // measure 8
0010
0000
0010
0000
,  // measure 9
0220
0000
0000
0000
,  // measure 10
0330
0000
0000
0000
,  // measure 11
0000
0000
0000
0000
,  // measure 12
2002
0000
0000
0000
,  // measure 13
3003
0000
0000
0000
,  // measure 14
0100
0000
0100
0000
,  // measure 15
0100
0000
0010
0000
,  // measure 16
1000
0000
0000
0000
,  // measure 17
0001
0000
0000
0000
,  // measure 18
0010
0000
0010
0000
,  // measure 19
0010
0000
0100
0000
,  // measure 20
0001
0000
0000
0000
,  // measure 21
1000
0000
0000
0000
,  // measure 22
0100
0000
1000
0000
,  // measure 23
0100
0000
0000
0000
,  // measure 24
0010
0000
0001
0000
,  // measure 25
0010
0000
0000
0000
,  // measure 26
1000
0000
0100
0000
,  // measure 27
0001
0000
0000
0000
,  // measure 28
0001
0000
0010
0000
,  // measure 29
1000
0000
0000
0000
,  // measure 30
0100
0000
1000
0000
,  // measure 31
0010
0000
0000
0000
,  // measure 32
0010
0000
0001
0000
,  // measure 33
0100
0000
0000
0000
,  // measure 34
1000
0000
0001
0000
,  // measure 35
1000
0000
0000
0000
,  // measure 36
0001
0000
1000
0000
,  // measure 37
0001
0000
0000
0000
,  // measure 38
0100
0000
0000
0000
,  // measure 39
1000
0000
0000
0000
,  // measure 40
0010
0000
0000
0000
,  // measure 41
1001
0000
0000
0000
,  // measure 42
0000
0000
0000
0000
,  // measure 43
0000
0000
0000
0000
,  // measure 44
0100
0000
0100
0000
,  // measure 45
0100
0100
0100
0000
,  // measure 46
0100
0000
0010
0000
,  // measure 47
0100
0010
0100
0000
,  // measure 48
0001
0000
1000
0000
,  // measure 49
0001
1000
0001
0000
,  // measure 50
1000
0000
0001
0000
,  // measure 51
0200
0000
0300
0000
,  // measure 52
0020
0000
0030
0000
,  // measure 53
1000
0000
0001
0000
,  // measure 54
2002
0000
3003
0000
,  // measure 55
0100
0000
0100
0000
,  // measure 56
1000
0000
1000
0000
,  // measure 57
0010
0000
0010
0000
,  // measure 58
0001
0000
0001
0000
,  // measure 59
2002
0000
3003
0000
,  // measure 60
0220
0000
0330
0000
,  // measure 61
1000
0000
0100
0000
,  // measure 62
0010
0000
0001
0000
,  // measure 63
0100
0000
0001
0000
,  // measure 64
1000
0000
0010
0000
,  // measure 65
0220
0000
0000
0000
,  // measure 66
0000
0000
0000
0330
,  // measure 67
0001
0000
1000
0000
,  // measure 68
0001
0000
1000
0000
,  // measure 69
0000
0000
1001
0000
,  // measure 70
0110
0000
1001
0000
,  // measure 71
0220
0000
0000
0000
,  // measure 72
0330
0000
0000
0000
;
