#TITLE:アドレナリン;
#SUBTITLE:;
#ARTIST:U1 overground;
#TITLETRANSLIT:Adrenaline;
#SUBTITLETRANSLIT:;
#ARTISTTRANSLIT:;
#GENRE:FutureTomTom;
#CREDIT:;
#BANNER:;
#BACKGROUND:;
#LYRICSPATH:;
#CDTITLE:;
#MUSIC:Adrenaline.ogg;
#OFFSET:1.630000;
#SAMPLESTART:27.502060;
#SAMPLELENGTH:15.000000;
#LASTBEATHINT:1.380316;
#SELECTABLE:YES;
#BPMS:0.000000=140.000000
;
#STOPS:
;
#BGCHANGES:;
#KEYSOUNDS:;
#ATTACKS:;

//---------------dance-single - ----------------
#NOTES:
     dance-single:
     :
     Hard:
     12:
     0.554751,0.490363,0.203312,0.264306,0.243974,336.000000,20.000000,26.000000,0.000000,0.000000,0.000000,0.554751,0.490363,0.203312,0.264306,0.243974,336.000000,20.000000,26.000000,0.000000,0.000000,0.000000:
0000
0000
0000
0000
,
0000
0000
0000
0000
,
0000
0000
0000
0000
,
1000
0000
0100
0000
0010
0000
0001
0000
0200
0000
0000
0301
0000
0000
0000
0000
,
0001
0000
0010
0000
0100
0000
1000
0000
0020
0000
0000
1030
0000
0000
0000
0000
,
0010
0000
0000
0000
1001
0000
0000
0000
0110
0000
0000
1001
0000
0000
0000
0000
,
0010
0000
0100
0000
0001
0000
1000
0000
0020
0000
0000
0130
0000
0000
0000
0000
,
1000
0000
0010
0000
0100
0000
0001
0000
2000
0000
0000
3010
0000
0000
0000
0000
,
1000
0000
0010
0000
0100
0000
0000
0000
0001
1000
0000
1000
0000
0001
1000
0000
,
0010
0000
1001
0000
0010
1000
0100
0000
,
0001
0100
0010
1000
0100
0010
0001
0000
,
2000
0000
3002
0000
,
0103
0000
0100
0000
0100
0000
0100
0000
0001
0000
1000
0000
0010
0100
0010
0000
,
0002
0000
0103
0000
0010
1000
0100
0000
,
0001
0000
0000
0100
0000
0000
0010
0000
0000
0000
0000
0000
1000
0000
0001
0000
1000
0000
0001
0000
0000
0000
0000
0000
,
1001
0000
0010
0000
1000
0010
0100
0000
,
0001
0100
0010
1000
0100
0001
0100
0000
,
0010
1000
0100
0010
0001
0100
0010
1000
,
0001
0010
1000
0010
0001
0100
1000
0100
,
0001
0010
0001
0010
1000
0100
1000
0100
,
1000
0010
0001
0010
1000
0100
0001
0100
,
1000
0100
0010
1000
0001
0100
0010
0000
,
1000
0010
0100
0001
1000
0010
0100
0000
,
1000
0010
1000
0010
1000
0000
0000
0000
0001
0100
0001
0100
0001
0000
0000
0000
,
2002
0000
0000
3003
,
0001
0000
1000
0000
0010
1000
0001
0100
,
0020
0000
0230
0000
,
0301
0000
0001
0000
1000
0010
0100
0001
,
2000
0000
3002
0000
,
1003
0000
0000
0110
0000
0000
0001
1000
0010
0100
0000
0000
,
1001
0000
0100
0010
1000
0000
1001
0000
,
0200
0000
0000
0000
0000
0310
1000
0001
0100
0010
0000
0000
,
1001
0000
0010
0100
1000
0000
1001
0000
,
1100
0000
0000
0110
0000
0000
1000
0100
1000
0100
0000
0000
,
0001
0100
0001
0100
0001
0100
0010
0000
0000
1001
0000
0000
,
0011
0000
0000
0110
0000
0000
0001
0010
0001
0010
0000
0000
,
1000
0010
1000
0010
1000
0010
0100
0000
0000
1001
0000
0000
,
0010
0000
1000
0000
0001
0000
0000
0000
0100
0010
0000
0010
0000
0100
0010
0000
,
0001
0000
1000
0000
0010
0000
0000
0000
1000
0001
0000
0001
0000
1000
0001
0000
,
0020
0000
0000
0000
1030
0001
0200
0000
,
0310
1000
0002
0000
2003
0000
3010
0001
,
0200
0000
0000
0000
0301
1000
0010
0000
,
1001
0000
0001
0100
1000
0010
0100
0000
,
1001
0000
0010
0000
1000
0000
0000
0000
0010
1000
0000
1000
0000
0010
1000
0000
,
0001
0000
0010
0000
1000
0000
0000
0000
0001
0100
0000
0100
0000
0001
0100
0000
,
0020
0000
0000
0000
1030
0001
0100
0000
,
0020
0000
1030
0001
0100
0010
2000
0000
,
3002
0000
0000
0000
0103
0010
1000
0000
,
0002
1000
1000
1000
1003
0010
0001
0000
,
0100
0001
0010
0100
1000
0010
0100
0001
,
1000
0100
0001
0100
1000
0010
0001
0010
,
1000
0100
1000
0100
0001
0010
0001
0010
,
0001
0100
1000
0100
0001
0010
1000
0010
,
0001
0010
0100
0001
1000
0010
0100
0000
,
0001
0100
0010
1000
0001
0100
0010
0000
,
0001
0100
0001
0100
0001
0000
0000
0000
1000
0010
1000
0010
1000
0000
0000
0000
,
2002
0000
0000
3003
;

//---------------dance-single - ----------------
#NOTES:
     dance-single:
     :
     Medium:
     8:
     0.416790,0.403828,0.132153,0.274471,0.020331,247.000000,13.000000,27.000000,0.000000,0.000000,0.000000,0.416790,0.403828,0.132153,0.274471,0.020331,247.000000,13.000000,27.000000,0.000000,0.000000,0.000000:
0000
0000
0000
0000
,
0000
0000
0000
0000
,
0000
0000
0000
0000
,
1000
0000
0100
0000
1000
0000
0000
0000
1000
0000
0000
0001
0000
0000
0000
0000
,
0001
0000
0100
0000
0001
0000
0000
0000
0001
0000
0000
1000
0000
0000
0000
0000
,
0020
0100
0100
0130
,
1000
0000
0010
0000
1000
0000
0000
0000
1000
0000
0000
0001
0000
0000
0000
0000
,
0001
0000
0010
0000
0001
0000
0000
0000
0001
0000
0000
1000
0000
0000
0000
0000
,
0020
0100
0001
0100
,
1030
0000
0001
0000
1000
0010
0100
0000
,
0001
1000
1001
0101
,
0020
0000
0230
0000
,
0301
0001
1000
0000
0100
0100
0010
0000
,
1000
0000
0001
0000
1000
0010
0100
0000
,
0001
1000
1001
0000
,
0020
0100
0001
0130
,
0001
1000
0020
0000
0130
0001
2000
0000
,
3010
0000
0001
0000
1000
0010
0100
0000
,
0001
0000
1000
0000
0010
0001
0100
0000
,
0010
0000
1000
0000
0010
0100
0001
0000
,
0100
0000
0010
0000
1000
0001
0100
0000
,
0010
1000
0001
0000
0100
0000
1001
0000
,
0001
1000
0010
0000
0100
0000
0110
0000
,
1000
0100
0010
0001
1000
0100
0010
0001
,
2000
0000
0000
3000
,
0001
0100
0010
0100
,
1000
0010
1000
0000
0001
0010
0001
0000
,
1001
0000
1001
0000
0010
0100
0001
0000
,
2000
0000
3020
0100
,
0130
0001
2000
3010
,
0002
0013
2000
3001
,
0010
0100
0002
0103
,
2000
3100
0002
1003
,
0010
1000
0001
0000
0100
0000
1010
0000
,
0010
0100
0001
0000
0010
0000
0101
0000
,
0010
0000
1000
0000
0001
0100
1000
0000
,
1000
0100
0001
0100
1000
0100
0001
0000
,
2000
0010
0100
0010
,
3002
0100
0010
0100
,
0013
0000
1000
0001
,
0200
0010
0001
1000
,
0320
0000
1030
0001
,
0020
1000
0001
0130
,
0001
1000
0010
0000
1000
0000
1001
0000
,
0100
0010
1000
0000
0001
0000
1001
0000
,
0020
0000
0000
0000
1030
0001
0100
0000
,
2000
0000
3001
0010
0200
0000
0301
0000
,
0020
0000
0000
0000
1030
0001
0100
0000
,
0010
0100
0001
1000
0020
0000
0000
0000
,
0130
0000
1000
0000
0001
0100
0010
0000
,
1000
0000
0001
0000
0100
1000
0010
0000
,
0100
0000
0001
0000
0100
0010
1000
0000
,
0010
0000
0100
0000
0001
1000
0010
0000
,
0100
0001
1000
0000
0010
0000
1001
0000
,
1000
0001
0100
0000
0010
0000
0110
0000
,
0001
0010
0100
1000
0001
0010
0100
1000
,
0002
0000
0000
0003
;

//---------------dance-single - ----------------
#NOTES:
     dance-single:
     :
     Easy:
     6:
     0.331108,0.346139,0.010166,0.335465,0.020331,194.000000,1.000000,33.000000,0.000000,0.000000,0.000000,0.331108,0.346139,0.010166,0.335465,0.020331,194.000000,1.000000,33.000000,0.000000,0.000000,0.000000:
// measure 0
0000
0000
0000
0000
,  // measure 1
0000
0000
0000
0000
,  // measure 2
0000
0000
0000
0000
,  // measure 3
0100
0000
0000
0000
0100
0000
0000
0000
0010
0000
0000
0100
0000
0000
0000
0000
,  // measure 4
0001
0000
0000
0000
0001
0000
0000
0000
1000
0000
0000
0001
0000
0000
0000
0000
,  // measure 5
0100
0010
1000
0001
,  // measure 6
0100
0000
0000
0000
0100
0000
0000
0000
0010
0000
0000
0100
0000
0000
0000
0000
,  // measure 7
1000
0000
0000
0000
1000
0000
0000
0000
0001
0000
0000
1000
0000
0000
0000
0000
,  // measure 8
0010
0010
0100
0010
,  // measure 9
1000
0000
0001
0000
1000
0001
1000
0000
,  // measure 10
0020
0000
0130
0001
,  // measure 11
0200
0000
2300
0000
,  // measure 12
3010
0010
0100
0100
,  // measure 13
0001
1000
0010
0100
,  // measure 14
0001
1000
2002
3003
,  // measure 15
0010
0010
1000
0010
,  // measure 16
0200
0001
0010
0301
,  // measure 17
0010
1000
0010
0001
,  // measure 18
0100
1000
0100
0001
,  // measure 19
0010
1000
0010
0100
,  // measure 20
0010
0001
0010
0100
,  // measure 21
1000
0100
0010
0001
,  // measure 22
1000
0010
0100
0001
,  // measure 23
2000
3020
0230
0302
,  // measure 24
2000
0000
0000
3003
,  // measure 25
0002
0000
0103
0000
1000
0001
1000
0000
,  // measure 26
0020
0000
0230
0000
,  // measure 27
2300
0000
3010
0000
0001
1000
0001
0000
,  // measure 28
0020
0000
0230
0000
,  // measure 29
0301
1000
0020
1030
,  // measure 30
0200
0000
0310
0001
,  // measure 31
2000
0000
3001
0010
,  // measure 32
0002
0000
0103
1000
,  // measure 33
0010
0100
0010
0100
,  // measure 34
1000
0001
1000
0001
,  // measure 35
0100
0010
0100
0010
,  // measure 36
0001
0000
1000
0000
0001
1000
0001
0000
,  // measure 37
0100
1000
0010
0100
,  // measure 38
0001
0010
0100
0001
,  // measure 39
2000
0000
3010
0000
,  // measure 40
0002
0000
0013
0100
,  // measure 41
0020
0000
0130
0000
,  // measure 42
2000
0000
3001
0100
,  // measure 43
0010
1000
0010
0001
,  // measure 44
0100
1000
0100
0001
,  // measure 45
0020
0000
1030
0001
,  // measure 46
0200
0000
0310
0001
,  // measure 47
2000
0000
0000
0000
0000
0000
0000
3000
0010
0000
0000
0000
0001
0000
0000
0000
,  // measure 48
0100
0010
0100
0010
,  // measure 49
0100
0001
0100
1000
,  // measure 50
0010
0001
0010
1000
,  // measure 51
0100
0001
0100
0010
,  // measure 52
0100
1000
0100
0010
,  // measure 53
0001
0010
0100
1000
,  // measure 54
0001
0100
0010
1000
,  // measure 55
0002
0203
0320
2030
,  // measure 56
0002
0000
0000
3003
;

//---------------dance-single - ----------------
#NOTES:
     dance-single:
     :
     Beginner:
     2:
     0.136509,0.142318,0.020331,0.060994,0.000000,86.000000,2.000000,6.000000,0.000000,0.000000,0.000000,0.136509,0.142318,0.020331,0.060994,0.000000,86.000000,2.000000,6.000000,0.000000,0.000000,0.000000:
// measure 0
0000
0000
0000
0000
,  // measure 1
0000
0000
0000
0000
,  // measure 2
0000
0000
0000
0000
,  // measure 3
1000
0000
1000
0000
,  // measure 4
0001
0000
0001
0000
,  // measure 5
0100
0100
0100
0000
,  // measure 6
0001
0000
0001
0000
,  // measure 7
1000
0000
1000
0000
,  // measure 8
0001
0000
0001
0000
,  // measure 9
1000
0000
0100
0000
,  // measure 10
0010
0000
0001
0000
,  // measure 11
2000
0000
3000
0000
,  // measure 12
0100
0000
0010
0000
,  // measure 13
0001
0000
0010
0000
,  // measure 14
0100
0000
1000
0000
,  // measure 15
0002
0000
0003
0000
,  // measure 16
0100
0000
0010
0000
,  // measure 17
1000
0000
0000
0000
,  // measure 18
0100
0000
1000
0000
,  // measure 19
0010
0000
0000
0000
,  // measure 20
0001
0000
0100
0000
,  // measure 21
0010
0000
0000
0000
,  // measure 22
1000
0000
0100
0000
,  // measure 23
0001
0000
0001
0000
,  // measure 24
1001
0000
0000
0000
,  // measure 25
0100
0000
0000
0000
,  // measure 26
0100
0000
1000
0000
,  // measure 27
0010
0000
0001
0000
,  // measure 28
0010
0000
0100
0000
,  // measure 29
0001
0000
0000
0000
,  // measure 30
0001
0000
1000
0000
,  // measure 31
0001
0000
0000
0000
,  // measure 32
0100
0000
0010
0000
,  // measure 33
0100
0000
0100
0000
,  // measure 34
1000
1000
1000
0000
,  // measure 35
0100
0000
0100
0000
,  // measure 36
0001
0001
0001
0000
,  // measure 37
1000
0000
0010
0000
,  // measure 38
0100
0000
0001
0000
,  // measure 39
0200
0000
0000
0000
,  // measure 40
0300
0000
0000
0000
,  // measure 41
0020
0000
0000
0000
,  // measure 42
0030
0000
0000
0000
,  // measure 43
1000
0000
0100
0000
,  // measure 44
0010
0000
0001
0000
,  // measure 45
0020
0000
0000
0000
,  // measure 46
0030
0000
0000
0000
,  // measure 47
0200
0000
0000
0000
,  // measure 48
0300
0000
0000
0000
,  // measure 49
0001
0000
0000
0000
,  // measure 50
0010
0000
0001
0000
,  // measure 51
0100
0000
0000
0000
,  // measure 52
1000
0000
0010
0000
,  // measure 53
0100
0000
0000
0000
,  // measure 54
0001
0000
0010
0000
,  // measure 55
1000
0000
1000
0000
,  // measure 56
1001
0000
0000
0000
;
