#TITLE:199024club -Re\:BounceKiller-;
#SUBTITLE:;
#ARTIST:DJ Mass MAD Izm*;
#TITLETRANSLIT:;
#SUBTITLETRANSLIT:;
#ARTISTTRANSLIT:;
#GENRE:beatmania IIDX;
#CREDIT:;
#BANNER:;
#BACKGROUND:;
#LYRICSPATH:;
#CDTITLE:;
#MUSIC:199024club -ReBounceKiller-.ogg;
#OFFSET:0.860000;
#SAMPLESTART:81.365929;
#SAMPLELENGTH:15.000000;
#SELECTABLE:YES;
#BPMS:0.000000=143.000000
;
#STOPS:
;
#BGCHANGES:2.000=199024club -ReBounceKiller-.avi=1.000=0=0=0=StretchNoLoop====,
99999=-nosongbg-=1.000=0=0=0 // don't automatically add -songbackground-
;
#KEYSOUNDS:;
#ATTACKS:;

//---------------dance-single - ----------------
#NOTES:
     dance-single:
     :
     Beginner:
     2:
     0.121728,0.143496,0.007890,0.000000,0.000000,108.000000,107.000000,1.000000,0.000000,0.000000,0.000000,0.121728,0.143496,0.007890,0.000000,0.000000,108.000000,107.000000,1.000000,0.000000,0.000000,0.000000:
0000
0000
0000
0000
,
0000
0000
0000
0000
,
0000
0000
0000
0000
,
0000
0000
0000
0000
,
0000
0000
0000
0000
,
1000
0000
0000
0000
,
0001
0000
0000
0000
,
1000
0000
0000
0000
,
0001
0000
0000
0000
,
0100
0000
1000
0000
,
0100
0000
0000
0000
,
0100
0000
0001
0000
,
0100
0000
0000
0000
,
0010
0000
1000
0000
,
0010
0000
0000
0000
,
0010
0000
0001
0000
,
0010
0000
0000
0000
,
1000
0000
0100
0000
,
1000
0000
0100
0000
,
0001
0000
0100
0000
,
0001
0000
0100
0000
,
1000
0000
0001
0000
,
1000
0000
0000
0000
,
0001
0000
1000
0000
,
0001
0000
0000
0000
,
0100
0000
1000
0000
,
1000
0000
0100
0000
,
0010
0000
0001
0000
,
0001
0000
0010
0000
,
0100
0000
0010
0000
,
0100
0000
0000
0000
,
0010
0000
0100
0000
,
0010
0000
0000
0000
,
1000
0000
0100
0000
,
0001
0000
0000
0000
,
0001
0000
0010
0000
,
1000
0000
0000
0000
,
1000
0000
0010
0000
,
0100
0000
0000
0000
,
0001
0000
0100
0000
,
0010
0000
0000
0000
,
1000
0000
0000
0000
,
1000
0000
0000
0000
,
0001
0000
0000
0000
,
0001
0000
0000
0000
,
1000
0000
0000
0000
,
1000
0000
0000
0000
,
0001
0000
0000
0000
,
0001
0000
0000
0000
,
1000
0000
0100
0000
,
1000
0000
0100
0000
,
0001
0000
0010
0000
,
0001
0000
0010
0000
,
0100
0000
0010
0000
,
0100
0000
0000
0000
,
0001
0000
1000
0000
,
0001
0000
0000
0000
,
0100
0000
1000
0000
,
1000
0000
0100
0000
,
0010
0000
0001
0000
,
0001
0000
0010
0000
,
0100
0000
0010
0000
,
1000
0000
0000
0000
,
0010
0000
0100
0000
,
0001
0000
0000
0000
,
1000
0000
0100
0000
,
0010
0000
0010
0000
,
0001
0000
0010
0000
,
0100
0000
0100
0000
,
1000
0000
0100
0000
,
0001
0000
0000
0000
,
0001
0000
0010
0000
,
1000
0000
0000
1001
;

//---------------dance-single - ----------------
#NOTES:
     dance-single:
     :
     Easy:
     5:
     0.253601,0.344390,0.149906,0.173575,0.000000,225.000000,206.000000,19.000000,22.000000,0.000000,0.000000,0.253601,0.344390,0.149906,0.173575,0.000000,225.000000,206.000000,19.000000,22.000000,0.000000,0.000000:
0000
0000
0000
0000
,
0000
0000
0000
0000
,
0000
0000
0000
0000
,
0000
0000
0000
0000
,
0000
0000
0000
0000
,
1000
0000
1000
0000
,
0100
0000
0100
0000
,
0001
0000
0001
0000
,
0100
0000
0100
0000
,
1000
0000
0010
0000
,
0200
0000
0300
0000
,
0001
0000
0100
0000
,
0020
0000
0030
0000
,
1000
0000
1000
0000
,
0001
0000
0001
0000
,
1000
0000
1000
0000
,
0001
0000
0001
0000
,
0100
0000
1000
0000
,
0100
0000
0010
0000
,
0001
0000
0010
0000
,
0100
0000
0010
0000
,
0001
0000
0100
0000
,
1000
0000
0010
0000
,
1000
0000
0100
0000
,
0001
0000
0010
0000
,
0100
0000
0001
0000
,
0100
0100
0100
0000
,
0010
0000
1000
0000
,
0010
0010
0010
0000
,
0100
0000
0001
0000
,
1000
1000
1000
0000
,
0010
0000
1000
0000
,
0001
0001
0001
0000
,
0200
0000
1300
0100
,
0020
0000
0031
0010
,
2000
0000
3100
0010
,
0002
0000
0013
0100
,
0120
0000
0031
0100
,
0120
0000
1030
0100
,
0120
0000
0031
0100
,
2001
0000
3010
0100
,
1002
0000
1000
1003
,
2000
0000
0001
3001
,
0020
0000
0100
0130
,
0200
0000
0010
0310
,
0001
0100
0001
0010
,
1000
0010
1000
0100
,
0110
0001
0110
1000
,
0020
0100
0100
0130
,
0001
0100
0001
0010
,
0100
1000
0010
1000
,
0100
1000
0010
0001
,
0100
0010
1000
1001
,
0001
0100
1000
1010
,
1000
0010
0001
0101
,
0001
0100
1000
1001
,
1000
0010
0001
1001
,
0200
1000
1000
1300
,
0100
0010
0100
0010
,
0020
0001
0001
0031
,
0010
0100
0010
0100
,
1000
0100
0010
0110
,
0001
0010
0100
0110
,
0001
0100
1000
1001
,
0200
0010
0010
0310
,
0002
0100
0010
0013
,
0100
0010
1000
1010
,
2000
0010
0100
3100
,
0010
0100
0001
0101
,
0002
0100
1000
0013
,
2000
0010
0001
3100
,
0001
0100
1000
1010
,
1000
0010
0001
0101
;

//---------------dance-single - ----------------
#NOTES:
     dance-single:
     :
     Medium:
     11:
     0.453100,0.517472,0.118347,0.118347,0.000000,402.000000,387.000000,15.000000,15.000000,0.000000,0.000000,0.453100,0.517472,0.118347,0.118347,0.000000,402.000000,387.000000,15.000000,15.000000,0.000000,0.000000:
0000
0000
0000
0000
,
0000
0000
0000
0000
,
0000
0000
0000
0000
,
0000
0000
0000
0000
,
0000
0000
0000
0000
,
1000
0100
0010
0010
,
0001
0010
0100
0100
,
1000
0100
0001
0001
,
0001
0010
1000
1000
,
0100
1000
0100
0000
0010
0000
0010
0000
,
0100
0001
0100
0000
0010
0000
0010
0000
,
0010
0001
0010
0000
0100
0000
0100
0000
,
0010
1000
0010
0000
0100
0000
0100
0000
,
0001
0100
1000
0000
0001
0000
1001
0000
,
1000
0010
0001
0000
1000
0000
1001
0000
,
0100
1000
0010
0000
0001
0000
0011
0000
,
0010
0001
0100
0000
1000
0000
1100
0000
,
1000
0001
1000
0000
0010
0000
0010
0000
,
1000
0001
1000
0000
0100
0000
0100
0000
,
0001
1000
0001
0000
0010
0000
0010
0000
,
0001
1000
0001
0000
0100
0000
0100
0000
,
0001
0100
0010
0000
1000
0000
1010
0000
,
1000
0010
0100
0000
0001
0000
0101
0000
,
0010
0100
0001
0000
0100
0010
1000
0000
,
0010
1000
0001
0000
0100
0001
1000
0000
,
0020
1000
0100
0031
,
0200
0001
0010
1300
,
0002
0000
1000
0000
0010
0010
0013
0000
,
2000
0000
0001
0000
0100
0100
3100
0000
,
0001
0100
0010
0000
1000
0000
1010
0000
,
1000
0010
0100
0000
0001
0000
0011
0000
,
0001
0100
0010
0000
1000
0000
1100
0000
,
1000
0010
0100
0000
0001
0000
0101
0000
,
0020
0100
0001
0031
,
0200
0000
0010
0000
1000
1000
1300
0000
,
0020
1000
0001
0031
,
0200
0000
0001
0000
1000
1000
1300
0000
,
0020
1000
0100
0130
,
0200
0000
0001
0000
0010
0010
0310
0000
,
0100
0001
1000
1001
,
1000
0000
0010
0000
0100
0100
0110
0000
,
0002
0000
0100
0000
0010
0010
0013
0000
,
2000
0000
0010
0000
0100
0100
3100
0000
,
0002
0000
1000
0000
0100
0100
0103
0000
,
2000
0000
0001
0000
0010
0010
3010
0000
,
0001
0100
0010
0000
1000
0000
1100
0000
,
1000
0010
0100
0000
0001
0000
0011
0000
,
0001
0100
1000
0000
1000
0100
0001
0000
,
0010
0100
0010
0100
0001
1000
0001
0000
,
0001
0010
0100
1000
0001
0010
0100
1000
,
0001
0100
0010
1000
0001
0100
0010
1000
,
0001
0010
0100
1000
0001
0010
0100
1000
,
0001
0100
0010
1000
0001
0100
0010
0000
,
1000
0010
0100
0001
1000
0010
0100
0001
,
1000
0100
0010
0001
1000
0100
0010
0001
,
1000
0010
0100
0001
1000
0010
0100
0001
,
1000
0100
0010
0001
1000
0100
0010
0000
,
0001
0100
0001
0000
0100
1000
0100
0000
,
1000
0010
1000
0000
0010
0001
0010
0000
,
0001
0100
0010
0000
1000
0010
0100
0000
,
0001
0100
1000
0000
1000
0100
0001
0000
,
1000
0010
0100
0000
0001
0100
0010
0000
,
1000
0010
0100
0000
0001
0100
0010
0000
,
0001
0100
1000
0000
1000
0010
0001
0000
,
0200
0010
0010
0310
,
0001
0100
0001
0100
1000
0100
1000
0100
,
0001
0010
0100
0010
0001
0010
0100
0010
,
0001
0010
0001
0010
1000
0010
1000
0010
,
0100
0010
0100
1000
0100
0010
0100
1000
,
0001
0100
0001
0100
1000
0010
1000
0010
,
1000
0010
0100
0010
1000
0010
0100
0010
,
0001
0100
0010
1000
0001
0100
0010
1000
,
0001
0010
0100
1000
0001
0010
0100
1100
;

//---------------dance-single - ----------------
#NOTES:
     dance-single:
     :
     Hard:
     15:
     0.670633,0.919950,0.378710,0.094678,0.556231,595.000000,547.000000,48.000000,12.000000,0.000000,0.000000,0.670633,0.919950,0.378710,0.094678,0.556231,595.000000,547.000000,48.000000,12.000000,0.000000,0.000000:
// measure 0
0000
0000
0000
0000
,  // measure 1
0000
0000
0000
0000
,  // measure 2
0000
0000
0000
0000
,  // measure 3
0000
0000
0000
0000
,  // measure 4
0000
0000
0000
0000
,  // measure 5
1000
0000
0000
1000
0000
0000
1000
0000
0000
0000
0100
0000
0000
0100
0000
0000
,  // measure 6
0001
0000
0000
0001
0000
0000
0001
0000
0000
0000
0010
0000
0000
0010
0000
0000
,  // measure 7
0100
0000
0000
0100
0000
0000
0100
0000
0000
0000
0010
0000
0100
0010
0100
0000
,  // measure 8
1000
0000
0000
1000
0000
0000
1000
0000
0000
0000
0001
0000
0000
0001
0000
0000
,  // measure 9
0100
0000
1000
0010
0000
0100
0010
0000
,  // measure 10
0010
0000
0001
0100
0000
0010
0100
0000
,  // measure 11
0100
0000
0001
1000
0000
1000
0010
0000
,  // measure 12
1000
0000
1000
0001
0000
0001
0100
0000
,  // measure 13
0010
0000
0100
0010
0000
0100
0010
0000
0000
0000
0001
0000
1000
0001
0000
0000
,  // measure 14
1000
0000
0001
1000
0000
0001
1000
0000
0000
0000
0100
0000
0010
0100
0000
0000
,  // measure 15
0001
0000
0010
0100
0000
0010
0100
0000
0000
0000
1000
0000
0001
1000
0000
0000
,  // measure 16
1000
0000
0000
0000
0000
0000
0100
0000
0000
0010
0000
0000
0000
0000
0000
0100
0000
0000
0010
0000
0000
0000
0000
0000
1000
0000
0000
0000
0001
0000
0000
0000
1000
0000
0000
0000
0001
0000
0000
0000
0000
0000
0000
0000
0000
0000
0000
0000
,  // measure 17
0001
0100
1000
0000
1000
0100
0001
0000
,  // measure 18
1000
0010
0001
0000
0001
0010
1000
0000
,  // measure 19
0001
0100
0010
0000
1000
0010
0100
0000
,  // measure 20
0001
0100
1000
0000
1000
0010
0001
0000
,  // measure 21
1000
0000
0010
1000
0000
0010
1000
0000
0001
0000
0100
0000
0010
0000
0000
0000
,  // measure 22
0001
0000
0100
0001
0000
0100
0001
0000
1000
0000
0010
0000
0100
0000
0000
0000
,  // measure 23
0001
0000
1000
0001
0000
1000
0001
0000
0100
0000
0010
0000
1000
0000
0000
0000
,  // measure 24
0010
0000
0100
0010
0000
0100
0010
0000
0100
0000
0001
0000
0010
0000
0000
0000
,  // measure 25
1000
0100
0010
0001
1000
0010
0100
0001
,  // measure 26
0001
0010
0100
1000
0001
0100
0010
1000
,  // measure 27
1000
0010
1000
0100
1000
0010
1000
0100
,  // measure 28
0001
0100
0001
0010
0001
0100
0011
0000
,  // measure 29
0001
0000
1000
0010
0000
1000
0010
0000
0001
0000
0010
0000
1000
0000
0100
0000
,  // measure 30
0010
0000
0100
0010
0000
0100
0010
0000
0001
0000
0010
0000
0100
0000
1000
0000
,  // measure 31
0001
0000
1000
0001
0000
1000
0001
0000
0100
0000
1000
0000
0010
0000
0001
0000
,  // measure 32
0100
0000
0010
0100
0000
0010
0100
0000
0001
0000
0010
0000
0100
0000
1000
0000
,  // measure 33
0002
0000
0000
0100
0000
0000
0100
0000
0000
0000
0010
0000
0000
0013
0000
0000
,  // measure 34
2000
0000
0000
0010
0000
0000
0010
0000
0000
0000
0100
0000
0000
3100
0000
0000
,  // measure 35
0020
0000
0000
0100
0000
0000
0100
0000
0000
0000
0001
0000
0000
0031
0000
0000
,  // measure 36
0200
0000
0000
0010
0000
0000
0010
0000
0000
0000
1000
0000
0000
1000
0300
0000
,  // measure 37
0020
0000
0000
1000
0000
0000
0100
0000
0000
0000
0001
0000
0000
0031
0000
0000
,  // measure 38
0200
0000
0000
0001
0000
0000
0010
0000
0000
0000
1000
0000
0000
1000
0300
0000
,  // measure 39
0002
0000
0000
1000
0000
0000
0100
0000
0000
0000
0010
0000
0000
0013
0000
0000
,  // measure 40
2000
0000
0000
0001
0000
0000
0010
0000
0000
0000
0100
0000
0000
3100
0000
0000
,  // measure 41
0020
0000
1000
0000
0100
0100
0130
0010
,  // measure 42
0200
0000
0001
0000
0010
0010
0310
0100
,  // measure 43
2000
0000
0001
0000
0100
0100
3100
0010
,  // measure 44
0002
0000
1000
0000
0010
0010
0013
0100
,  // measure 45
0101
0100
0001
0100
1000
0100
1000
0000
,  // measure 46
1010
0010
1000
0010
0001
0010
0001
0000
,  // measure 47
0101
0010
0100
0000
1010
0100
0010
0000
,  // measure 48
0101
0010
0100
1000
1010
0100
1001
0000
,  // measure 49
0010
0000
1000
0010
1000
0010
1000
0010
1000
0010
0100
0010
0001
0000
1000
0000
,  // measure 50
0100
0000
0001
0100
0001
0100
0001
0100
0001
0100
0010
0100
1000
0000
0001
0000
,  // measure 51
1000
0000
0100
1000
0100
1000
0100
1000
0100
1000
0001
1000
0010
0000
0100
0000
,  // measure 52
0001
0000
0010
0001
0010
0001
0010
0001
0010
0001
1000
0001
0100
0000
0010
0000
,  // measure 53
0010
0000
1000
0100
0010
0100
1000
0100
0010
0000
0001
0010
0100
0010
0001
0000
,  // measure 54
0100
0000
0001
0010
0100
0010
0001
0010
0100
0000
1000
0100
0010
0100
1000
0000
,  // measure 55
1000
0000
0100
0001
1000
0001
0100
0001
1000
0000
0010
1000
0001
1000
0010
0000
,  // measure 56
0001
0000
0010
1000
0001
1000
0010
1000
0001
0000
0100
0001
1000
0001
0100
0000
,  // measure 57
1000
1010
0000
0011
0000
0101
0000
1100
,  // measure 58
0000
1010
0000
1001
0000
0101
0100
1100
,  // measure 59
0000
0101
0000
1100
0000
0101
0000
1010
,  // measure 60
0000
0011
0000
1010
0000
1010
0010
0110
,  // measure 61
0000
0110
0000
0101
0000
0101
0100
1100
,  // measure 62
0000
1010
0000
0101
0000
1010
0010
0011
,  // measure 63
0000
1001
1000
1010
0000
1001
0001
0101
,  // measure 64
0011
0010
0110
0100
1100
1000
1001
0000
,  // measure 65
0001
0100
0010
0100
0001
0100
0010
0100
0001
0010
1000
0010
0001
0000
0101
0000
,  // measure 66
1000
0010
0100
0010
1000
0010
0100
0010
1000
0100
0001
0100
1000
0000
1010
0000
,  // measure 67
0010
0001
1000
0001
0010
0001
1000
0001
0010
1000
0100
1000
0010
0000
0011
0000
,  // measure 68
0100
1000
0001
1000
0100
1000
0001
1000
0100
0001
0010
0001
0100
0000
1100
0000
,  // measure 69
1000
0100
0001
0100
1000
0100
0001
0100
1000
0100
0010
0001
1000
0000
1100
0000
,  // measure 70
0001
0010
1000
0010
0001
0010
1000
0010
0001
0010
0100
1000
0001
0000
0011
0000
,  // measure 71
0010
1000
0100
1000
0010
1000
0100
1000
0010
1000
0001
0100
0010
0000
1010
0000
,  // measure 72
0100
0001
0010
0001
0100
0001
0010
0001
0100
0001
1000
0010
0100
0000
0101
0000
;
