#TITLE:10,000,000,000;
#SUBTITLE:;
#ARTIST:TAG feat. 96;
#TITLETRANSLIT:;
#SUBTITLETRANSLIT:;
#ARTISTTRANSLIT:;
#GENRE:GITADORA;
#CREDIT:;
#BANNER:;
#BACKGROUND:;
#LYRICSPATH:;
#CDTITLE:;
#MUSIC:10,000,000,000.ogg;
#OFFSET:0.915000;
#SAMPLESTART:51.756031;
#SAMPLELENGTH:15.000000;
#SELECTABLE:YES;
#BPMS:0.000000=205.000000
;
#STOPS:
;
#BGCHANGES:;
#KEYSOUNDS:;
#ATTACKS:;

//---------------dance-single - ----------------
#NOTES:
     dance-single:
     :
     Hard:
     14:
     0.835818,0.802414,0.525329,0.123607,0.030902,505.000000,51.000000,12.000000,0.000000,0.000000,0.000000,0.835818,0.802414,0.525329,0.123607,0.030902,505.000000,51.000000,12.000000,0.000000,0.000000,0.000000:
0000
0000
0000
0000
,
0000
0000
0000
0000
,
0000
0000
0000
0000
,
0000
0000
0000
0000
,
0000
0000
0000
0000
,
0001
0100
0000
0001
0100
0000
1000
0100
,
0000
1000
0100
0000
1001
0000
1001
0000
,
0001
0010
0000
0001
0010
0000
1000
0010
,
0000
1000
0010
0000
1001
0000
1001
0000
,
0001
0010
0100
1000
0001
0000
0001
0010
,
0100
1000
0001
0000
1100
0000
1100
0000
,
1000
0100
0010
0001
1000
0000
1000
0100
,
0010
0001
1000
0000
1100
0000
1100
0000
,
1000
0100
0001
0100
1000
0000
0001
0100
,
1000
0100
0001
0000
0110
0000
0110
0000
,
0001
0010
1000
0010
0001
0000
1000
0010
,
0001
0010
1000
0100
0000
1100
0000
0000
,
1000
0010
0100
0001
0010
0100
1000
0010
,
1000
0100
0010
0100
0001
0010
0100
0010
,
1000
0100
1000
0100
0001
0100
0001
0100
,
0010
1000
0010
1000
0001
0010
1000
0100
,
0010
1000
0100
0010
0100
0001
0011
0000
,
0010
0001
0100
0010
0100
1000
1010
0000
,
0010
0100
0001
1000
0010
1000
0100
0010
,
0100
0000
0001
0000
0010
0000
0100
0000
0010
0000
1000
0100
1000
0100
1000
0100
,
0001
0100
0010
1000
0100
0010
0001
0100
,
0001
0010
0100
0010
1000
0100
0010
0100
,
0001
0010
0001
0010
1000
0010
1000
0010
,
0100
0001
0100
0001
1000
0100
0001
0010
,
0100
0001
0010
0100
0010
1000
1100
0000
,
0100
1000
0010
0100
0010
0001
0101
0000
,
0100
0010
1000
0001
0100
0001
0010
0100
,
0010
0000
1000
0000
0100
0000
0010
0000
0100
0000
0001
0010
0001
0010
0001
0010
,
1000
1001
0010
1100
,
1000
0000
0001
0100
0010
1000
0001
0000
,
0011
1000
1001
0010
,
0011
0000
0010
0000
1000
0010
0100
0001
,
0010
1100
0100
0101
,
0001
0000
1001
0010
1000
0100
0010
0001
,
0100
1100
0010
1010
,
0001
0000
0011
0010
1000
0100
0010
0100
,
0001
0000
1100
0000
1000
0000
0001
0100
,
0010
1000
0001
0000
1000
0000
0010
1000
,
0001
0100
0010
0000
1000
0000
1000
0000
,
0100
0010
0100
0001
0000
2200
0000
3300
,
1001
0000
0001
0100
0010
1000
0100
1000
,
0010
0001
0100
0101
0000
0110
0000
0000
,
0001
0100
0010
1000
0100
0010
0100
0001
,
0010
1000
0100
0110
0000
0011
0000
1001
,
0001
1000
0001
0200
0000
1300
0002
0000
,
1003
0010
0100
0020
0000
0031
1000
0001
,
1000
0100
0001
0100
1000
0100
0001
0100
,
0001
0010
1000
0010
0001
0010
1000
0010
,
1001
0000
1000
0010
0100
0001
0010
0001
,
0100
1000
0010
1010
0000
0110
0000
0000
,
1000
0010
0100
0001
0010
0100
0010
1000
,
0100
0001
0010
0110
0000
1100
0000
1001
,
1000
0001
1000
0020
0000
0031
2000
0000
,
3001
0100
0010
0200
0000
1300
0001
1000
,
0001
0010
1000
0010
0001
0010
1000
0010
,
1000
0100
0001
0100
1000
0100
0001
0100
,
1000
0010
0100
0001
0100
0010
1000
0100
,
0002
0000
0203
0000
,
1300
0010
0100
0001
0010
0100
1000
0010
,
1000
0100
0001
0010
0011
0000
0011
0000
,
0001
0100
0010
1000
0001
0100
0010
1000
,
0100
0010
1000
0100
1100
0000
1100
0000
,
0010
1000
0100
0001
0100
0010
1000
0100
,
0010
0100
0001
0010
0110
0000
0110
0000
,
0010
0100
0001
1000
0010
0100
1000
0010
,
0100
0001
0100
0001
1001
0000
1001
0000
,
0001
0100
1000
0100
0001
0100
1000
0100
,
0001
0100
1000
0100
0001
0100
1000
0100
,
0010
0001
0010
1000
0010
0001
0010
1000
,
0010
0001
0010
1000
0010
0001
0010
0100
,
1000
0010
1000
0001
0100
0010
0100
0010
,
1000
0100
0010
0100
0001
0010
0100
1000
,
0010
0100
0010
0100
0001
0010
0100
1000
,
0010
1000
0100
0010
0100
0001
0010
0100
,
1000
0000
0000
1100
0000
0000
1001
0202
,
0000
0000
0000
0000
,
0000
0000
0000
0000
,
0303
0000
0000
0000
;

//---------------dance-single - ----------------
#NOTES:
     dance-single:
     :
     Medium:
     11:
     0.693081,0.633485,0.525329,0.298717,0.000000,391.000000,51.000000,29.000000,0.000000,0.000000,0.000000,0.693081,0.633485,0.525329,0.298717,0.000000,391.000000,51.000000,29.000000,0.000000,0.000000,0.000000:
0000
0000
0000
0000
,
0000
0000
0000
0000
,
0000
0000
0000
0000
,
0000
0000
0000
0000
,
0000
0000
0000
0000
,
1000
0100
0000
1000
0100
0000
1000
0100
,
0000
1000
0100
0000
1100
0000
1100
0000
,
0001
0100
0000
0001
0100
0000
0001
0100
,
0000
0001
0100
0000
0101
0000
0101
0000
,
0001
0010
0000
0001
0010
0000
0001
0010
,
0000
0001
0010
0000
0011
0000
0011
0000
,
1000
0010
0000
1000
0010
0000
1000
0010
,
0000
1000
0010
0000
1010
0000
1010
0000
,
0001
1000
0000
0001
1000
0000
0010
0100
,
0000
0010
0100
0000
0110
0000
0110
0000
,
0100
0010
0000
0100
0010
0000
1000
0001
,
0000
1000
0001
1000
0001
0200
0000
0000
,
0310
0100
1000
0100
0000
0010
0100
0000
,
0002
2003
3020
0230
,
0301
0010
0100
0010
0000
0010
0100
0000
,
0002
2003
3020
0230
,
1300
0100
0001
0100
0000
0000
1100
0000
,
1000
0100
0001
0100
0000
0000
1100
0000
,
0020
2030
3002
0203
,
0310
1000
0001
0100
0010
1000
0001
0000
,
0100
0010
0001
0010
0000
0100
0010
0000
,
2000
3002
0203
0320
,
1030
0100
0010
0100
0000
0100
0010
0000
,
2000
3002
0203
0320
,
0031
0010
1000
0010
0000
0000
0011
0000
,
0001
0010
1000
0010
0000
0000
0011
0000
,
0200
0302
2003
3020
,
0130
0001
1000
0010
0100
0001
1000
0000
,
1100
0000
0001
0000
0100
0000
0010
1000
,
0001
0100
1010
1001
,
0101
0000
0010
0000
0100
0000
0001
0100
,
0010
1000
0011
1001
,
1010
0000
0010
0000
0100
0001
1000
0000
,
0010
1000
0001
0000
0100
0000
1010
0000
,
0001
1000
0010
0000
0010
1000
0001
0000
,
0001
0100
1000
0100
0001
0000
1001
0000
,
0001
0000
0010
0000
1000
0010
0001
0000
,
0011
0000
0001
0000
0100
0010
1000
0000
,
0001
1000
1100
1100
,
0001
0100
1000
0010
0000
1001
0000
0000
,
0010
0000
1000
0010
0100
0001
0000
1100
,
0000
0101
0000
1100
0000
0101
0000
0000
,
0001
0000
1000
0001
0100
0010
0000
1000
,
0000
1010
0000
1001
0000
0011
0000
0000
,
0001
0010
0100
1000
0010
0100
0001
0000
,
1000
0010
0100
0001
0010
0100
1000
0000
,
0010
1000
0100
0001
0000
0001
0100
0000
,
0001
0100
0010
1000
0000
1000
0100
0000
,
0100
0000
0001
0100
0010
1000
0000
0011
,
0000
1010
0000
0011
0000
1010
0000
0000
,
1000
0000
0001
1000
0010
0100
0000
0001
,
0000
0101
0000
1001
0000
1100
0000
0000
,
1000
0100
0010
0001
0100
0010
1000
0000
,
0001
0100
0010
1000
0100
0010
0001
0000
,
0100
0001
0010
1000
0000
1000
0010
0000
,
1000
0010
0100
0001
0000
0001
0010
0000
,
0001
0000
0100
0010
0000
1000
0010
0100
,
0002
0000
0203
0000
,
0301
0010
0000
0001
1000
0000
1000
0100
,
0000
0001
0100
0000
1100
0000
1001
0000
,
1000
0010
0000
1000
0001
0000
0100
0001
,
0000
0010
0001
0000
0011
0000
1001
0000
,
0001
0010
0000
0100
1000
0000
0010
0100
,
0000
1000
0001
0000
1100
0000
1001
0000
,
0100
1000
0000
0010
0001
0000
1000
0100
,
0000
0001
0010
0000
0011
0000
1001
0000
,
0001
0100
0001
1000
0000
0001
1000
0000
,
0010
1000
0001
0100
0000
0010
1000
0000
,
0010
1000
0100
0010
0000
0001
0010
0000
,
0010
0100
1000
0010
0000
0010
0100
0000
,
0001
0010
0100
1000
0000
1000
0100
0000
,
0001
1000
0100
0010
0000
0001
0010
0000
,
1000
0100
0001
0010
0000
0010
0100
0000
,
0010
1000
0100
0001
0010
0100
1000
0000
,
1100
0000
0000
0101
0000
0000
0002
2000
,
0000
0000
0000
0000
,
0000
0000
0000
0000
,
3003
0000
0000
0000
;

//---------------dance-single - ----------------
#NOTES:
     dance-single:
     :
     Easy:
     9:
     0.544459,0.549020,0.257514,0.154509,0.000000,330.000000,25.000000,15.000000,0.000000,0.000000,0.000000,0.544459,0.549020,0.257514,0.154509,0.000000,330.000000,25.000000,15.000000,0.000000,0.000000,0.000000:
// measure 0
0000
0000
0000
0000
,  // measure 1
0000
0000
0000
0000
,  // measure 2
0000
0000
0000
0000
,  // measure 3
0000
0000
0000
0000
,  // measure 4
0000
0000
0000
0000
,  // measure 5
1000
0100
0000
1000
0000
0000
0100
0001
,  // measure 6
0000
0100
0000
0000
0001
0000
1001
0000
,  // measure 7
0001
0010
0000
0001
0000
0000
1000
0010
,  // measure 8
0000
1000
0000
0000
1000
0000
1001
0000
,  // measure 9
0001
0100
0000
1000
0000
0000
1000
0100
,  // measure 10
0000
0001
0000
0000
1000
0000
1001
0000
,  // measure 11
0001
0100
0000
0010
0000
0000
1000
0001
,  // measure 12
0000
0010
0000
0000
1001
0000
1001
0000
,  // measure 13
0010
1000
0000
0001
0000
0000
0010
1000
,  // measure 14
0000
0001
0000
0000
0100
0000
1100
0000
,  // measure 15
1000
0010
0000
0001
0000
0000
0001
0100
,  // measure 16
0000
1000
0000
0001
0000
1000
0000
0000
,  // measure 17
0010
1000
0002
0100
,  // measure 18
0013
0100
2000
0100
,  // measure 19
3001
0100
0020
1030
,  // measure 20
0001
0000
0100
0000
0010
0100
0010
0000
,  // measure 21
0001
1000
0100
0000
1000
0000
1001
0000
,  // measure 22
1000
0010
0001
0000
1000
0000
1001
0000
,  // measure 23
0001
0010
0100
1000
0100
0000
0001
0000
,  // measure 24
1000
0000
0010
0000
0100
0001
1000
0000
,  // measure 25
0100
0001
2000
0010
,  // measure 26
3100
0010
0002
0010
,  // measure 27
1003
0010
0200
0301
,  // measure 28
1000
0000
0010
0000
0100
0010
0100
0000
,  // measure 29
1000
0001
0010
0000
0001
0000
1001
0000
,  // measure 30
0001
0100
1000
0000
0001
0000
1001
0000
,  // measure 31
1000
0100
0010
0001
0010
0000
1000
0000
,  // measure 32
0001
0000
0100
0000
0010
1000
0001
0000
,  // measure 33
1100
0000
0001
0000
0100
0010
1000
0000
,  // measure 34
0001
0000
0011
0000
0010
1000
0001
0000
,  // measure 35
0010
0000
1010
0000
0001
1000
0010
0000
,  // measure 36
0100
0000
1100
0000
0100
0001
0100
0000
,  // measure 37
1000
0010
0100
0001
,  // measure 38
0010
0100
1000
0000
0010
0100
0001
0000
,  // measure 39
0010
1000
0001
0100
,  // measure 40
1000
0010
0100
0000
0001
0100
0010
0000
,  // measure 41
1000
0100
0001
0100
,  // measure 42
1000
0010
0001
0000
0001
0010
1000
0000
,  // measure 43
0010
0001
1000
0010
,  // measure 44
1000
0001
0000
2001
0000
3002
0000
0000
,  // measure 45
0013
0000
0100
0001
1000
0010
0000
0100
,  // measure 46
0000
0001
0000
1000
0000
0010
0000
0000
,  // measure 47
1000
0000
0001
0100
0010
1000
0000
0001
,  // measure 48
0000
0100
0000
0010
0000
1000
0000
0000
,  // measure 49
1000
0010
0100
0001
,  // measure 50
0100
0010
1000
0001
,  // measure 51
0101
1000
0100
1000
,  // measure 52
1100
1000
0001
0100
,  // measure 53
0100
0000
0010
1000
0001
0100
0000
0010
,  // measure 54
0000
1000
0000
0001
0000
0100
0000
0000
,  // measure 55
0001
0000
1000
0010
0100
0001
0000
1000
,  // measure 56
0000
0010
0000
0100
0000
0001
0000
0000
,  // measure 57
0001
0100
0010
1000
,  // measure 58
0010
0100
0001
1000
,  // measure 59
1010
0001
0010
0001
,  // measure 60
0011
0001
1000
0010
,  // measure 61
2000
0000
0000
3200
0000
0000
0320
0000
,  // measure 62
0032
0000
2003
0000
,  // measure 63
3001
0010
0100
1000
,  // measure 64
0010
0000
0100
0000
0001
0100
0001
0000
,  // measure 65
0010
1000
0001
0100
,  // measure 66
0010
0000
1000
0000
0001
1000
0001
0000
,  // measure 67
1000
0010
0100
0001
,  // measure 68
0010
0000
1000
0000
0001
1000
0001
0000
,  // measure 69
0010
1000
0100
0001
,  // measure 70
0010
0000
1000
0000
0010
0100
0010
0000
,  // measure 71
1000
0100
0000
0001
0000
0000
0100
0001
,  // measure 72
0000
1000
0000
0000
0010
0000
1001
0000
,  // measure 73
0010
0100
0000
0001
0000
0000
1000
0010
,  // measure 74
0000
0100
0000
0000
1000
0000
1100
0000
,  // measure 75
0001
1000
0010
1000
0000
0000
0001
1000
,  // measure 76
0010
0100
0000
0000
0001
0000
0011
0000
,  // measure 77
0001
0100
0010
1000
0000
0000
1000
0010
,  // measure 78
0100
0001
0000
0000
0100
0000
1000
0000
,  // measure 79
1100
0000
0000
0101
0000
0000
2002
0000
,  // measure 80
0000
0000
0000
0000
,  // measure 81
0000
0000
0000
0000
,  // measure 82
3003
0000
0000
0000
;

//---------------dance-single - ----------------
#NOTES:
     dance-single:
     :
     Beginner:
     5:
     0.279587,0.295626,0.020601,0.072104,0.000000,181.000000,2.000000,7.000000,0.000000,0.000000,0.000000,0.279587,0.295626,0.020601,0.072104,0.000000,181.000000,2.000000,7.000000,0.000000,0.000000,0.000000:
// measure 0
0000
0000
0000
0000
,  // measure 1
0000
0000
0000
0000
,  // measure 2
0000
0000
0000
0000
,  // measure 3
0000
0000
0000
0000
,  // measure 4
0000
0000
0000
0000
,  // measure 5
1000
0100
1000
0000
,  // measure 6
1000
0100
1000
0000
,  // measure 7
0001
0100
0001
0000
,  // measure 8
0001
0100
0001
0000
,  // measure 9
1000
0010
1000
0000
,  // measure 10
1000
0010
1000
0000
,  // measure 11
0001
0010
0001
0000
,  // measure 12
0001
0010
0001
0000
,  // measure 13
1000
0100
0001
0000
,  // measure 14
1000
0100
0001
0000
,  // measure 15
0001
0010
1000
0000
,  // measure 16
0001
0010
1000
0000
,  // measure 17
1000
0010
0100
0001
,  // measure 18
0010
0000
0010
0000
,  // measure 19
0001
0100
0010
1000
,  // measure 20
0100
0000
0100
0000
,  // measure 21
1000
0100
0001
0000
,  // measure 22
1000
0100
0001
0000
,  // measure 23
0002
0000
2000
0000
,  // measure 24
0000
0000
3003
0000
,  // measure 25
0001
0100
0010
1000
,  // measure 26
0100
0000
0100
0000
,  // measure 27
1000
0010
0100
0001
,  // measure 28
0010
0000
0010
0000
,  // measure 29
0001
0010
1000
0000
,  // measure 30
0001
0010
1000
0000
,  // measure 31
2000
0000
0002
0000
,  // measure 32
0000
0000
3003
0000
,  // measure 33
1000
0000
0010
0000
,  // measure 34
0100
0000
0001
0000
,  // measure 35
1000
0000
0010
0000
,  // measure 36
0100
0000
0001
0000
,  // measure 37
0100
0000
0010
0000
,  // measure 38
1000
0000
0001
0000
,  // measure 39
0100
0000
0010
0000
,  // measure 40
0001
0000
1000
0000
,  // measure 41
0001
0000
0100
0000
,  // measure 42
0010
0000
1000
0000
,  // measure 43
0001
0000
0100
0000
,  // measure 44
0110
0000
1001
0000
,  // measure 45
0010
0100
0010
0000
,  // measure 46
1000
0000
0001
0000
,  // measure 47
0100
0010
0100
0000
,  // measure 48
0001
0000
1000
0000
,  // measure 49
0100
0000
0010
0000
,  // measure 50
1000
0000
0001
0000
,  // measure 51
0100
0000
0010
0000
,  // measure 52
1000
0000
0001
0000
,  // measure 53
0100
0010
0100
0000
,  // measure 54
0001
0000
1000
0000
,  // measure 55
0010
0100
0010
0000
,  // measure 56
1000
0000
0001
0000
,  // measure 57
0010
0000
0100
0000
,  // measure 58
0001
0000
1000
0000
,  // measure 59
0010
0000
0100
0000
,  // measure 60
0001
0000
1000
0000
,  // measure 61
0002
0000
0000
0000
,  // measure 62
2000
0000
3003
0000
,  // measure 63
1000
0000
0010
0000
,  // measure 64
0100
0000
0001
0000
,  // measure 65
1000
0000
0010
0000
,  // measure 66
0100
0000
0001
0000
,  // measure 67
1000
0000
0100
0000
,  // measure 68
0010
0000
0001
0000
,  // measure 69
1000
0000
0100
0000
,  // measure 70
0010
0000
0001
0000
,  // measure 71
1000
0100
1000
0000
,  // measure 72
1000
0100
1000
0000
,  // measure 73
0001
0100
0001
0000
,  // measure 74
0001
0100
0001
0000
,  // measure 75
1000
0010
1000
0000
,  // measure 76
1000
0010
1000
0000
,  // measure 77
0001
0010
0001
0000
,  // measure 78
0001
0010
0001
0000
,  // measure 79
1000
0000
0000
0001
0000
0000
2000
0000
,  // measure 80
0000
0000
0000
0000
,  // measure 81
0000
0000
0000
0000
,  // measure 82
3000
0000
0000
0000
;
