#VERSION:0.83;
#TITLE:トリコロージュ;
#SUBTITLE:;
#ARTIST:煮ル果実;
#TITLETRANSLIT:Tricologe;
#SUBTITLETRANSLIT:;
#ARTISTTRANSLIT:NILFRUITS;
#GENRE:;
#ORIGIN:;
#CREDIT:;
#BANNER:;
#BACKGROUND:;
#PREVIEWVID:;
#JACKET:;
#CDIMAGE:;
#DISCIMAGE:;
#LYRICSPATH:;
#CDTITLE:;
#MUSIC:Tricologe.ogg;
#OFFSET:0.000000;
#SAMPLESTART:75.230766;
#SAMPLELENGTH:15.000000;
#SELECTABLE:YES;
#BPMS:0.000=130.000;
#STOPS:296.000=0.923;
#DELAYS:;
#WARPS:;
#TIMESIGNATURES:0.000=4=4;
#TICKCOUNTS:0.000=4;
#COMBOS:0.000=1;
#SPEEDS:0.000=1.000=0.000=0;
#SCROLLS:0.000=1.000;
#FAKES:;
#LABELS:0.000=Song Start;
#BGCHANGES:;
#KEYSOUNDS:;
#ATTACKS:
;

//---------------dance-single - ----------------
#NOTEDATA:;
#CHARTNAME:;
#STEPSTYPE:dance-single;
#DESCRIPTION:;
#CHARTSTYLE:;
#DIFFICULTY:Easy;
#METER:4;
#RADARVALUES:0.127419,0.241167,0.038280,0.202886,0.000000,233.000000,223.000000,10.000000,53.000000,0.000000,0.000000,0.000000,0.000000,0.000000,0.127419,0.241167,0.038280,0.202886,0.000000,233.000000,223.000000,10.000000,53.000000,0.000000,0.000000,0.000000,0.000000,0.000000;
#CREDIT:;
#NOTES:
// measure 0
0000
0000
0000
0000
,  // measure 1
0000
0000
0000
0000
,  // measure 2
0000
0000
0000
0000
,  // measure 3
0000
0000
0000
0000
,  // measure 4
0000
0000
0000
0000
,  // measure 5
0000
0000
0000
0000
,  // measure 6
0000
0000
0000
0000
,  // measure 7
0000
0000
0000
0000
,  // measure 8
0000
0000
0000
0000
,  // measure 9
0010
0000
0000
0000
,  // measure 10
0010
0000
0000
0000
,  // measure 11
1000
0000
0001
0000
,  // measure 12
0001
0000
0010
0000
,  // measure 13
0100
0000
0000
0000
,  // measure 14
0100
0000
0000
0000
,  // measure 15
0001
0000
1000
0000
,  // measure 16
1000
0000
0100
0000
,  // measure 17
0010
0000
0010
0000
,  // measure 18
0001
0000
0000
0000
,  // measure 19
0100
0000
0100
0000
,  // measure 20
1000
0000
0000
0000
,  // measure 21
0100
0000
0100
0000
,  // measure 22
0010
0000
0010
0000
,  // measure 23
1000
0000
1000
0000
,  // measure 24
0001
0000
0001
0000
,  // measure 25
2000
0000
3001
0000
,  // measure 26
0002
0000
1003
0000
,  // measure 27
0020
0000
0130
0000
,  // measure 28
0200
0000
0310
0000
,  // measure 29
1000
0000
1000
0000
,  // measure 30
0001
0000
0001
0000
,  // measure 31
0020
0000
0000
0000
,  // measure 32
0200
0000
0000
0330
,  // measure 33
2000
0000
0000
0000
,  // measure 34
0000
0000
0000
3000
,  // measure 35
0002
0000
0000
0000
,  // measure 36
0000
0000
0000
0003
,  // measure 37
1000
0000
1000
0001
,  // measure 38
0001
0000
0001
1000
,  // measure 39
2002
0000
0000
3003
,  // measure 40
1000
0000
0001
0000
1000
0000
2002
3003
,  // measure 41
0020
0000
0000
0030
,  // measure 42
0100
0000
0001
1000
,  // measure 43
0200
0000
0000
0300
,  // measure 44
0010
0000
1000
0001
,  // measure 45
0002
0000
0000
0003
,  // measure 46
1000
0000
0100
0010
,  // measure 47
2000
0000
0000
3000
,  // measure 48
0001
0000
0010
0100
,  // measure 49
0020
0000
0000
0030
,  // measure 50
0100
0000
0001
1000
,  // measure 51
0200
0000
0000
0300
,  // measure 52
0010
0000
1000
0001
,  // measure 53
0002
0000
0000
0003
,  // measure 54
1000
0000
0100
0010
,  // measure 55
0001
0000
1000
0001
,  // measure 56
1000
0000
0001
1000
,  // measure 57
0220
0330
2002
3003
,  // measure 58
0010
0000
0000
0000
,  // measure 59
0010
0000
0000
0000
,  // measure 60
1000
0000
0001
0000
,  // measure 61
0001
0000
0010
0000
,  // measure 62
0100
0000
0000
0000
,  // measure 63
0100
0000
0000
0000
,  // measure 64
0001
0000
1000
0000
,  // measure 65
1000
0000
0100
0000
,  // measure 66
0010
0000
0010
0000
,  // measure 67
0001
0000
0000
0000
,  // measure 68
0100
0000
0100
0000
,  // measure 69
1000
0000
0000
0000
,  // measure 70
0100
0000
0100
0000
,  // measure 71
0010
0000
0010
0000
,  // measure 72
1000
0000
1000
0000
,  // measure 73
0001
0000
0001
0000
,  // measure 74
2000
0000
3001
0000
,  // measure 75
0002
0000
1003
0000
,  // measure 76
0020
0000
0130
0000
,  // measure 77
0200
0000
0310
0000
,  // measure 78
1000
0000
1000
0000
,  // measure 79
0001
0000
0001
0000
,  // measure 80
0020
0000
0000
0000
,  // measure 81
0200
0000
0000
0330
,  // measure 82
0020
0000
0000
0030
,  // measure 83
0100
0000
0001
1000
,  // measure 84
0200
0000
0000
0300
,  // measure 85
0010
0000
1000
0001
,  // measure 86
0002
0000
0000
0003
,  // measure 87
1000
0000
0100
0010
,  // measure 88
2000
0000
0000
3000
,  // measure 89
0001
0000
0010
0100
,  // measure 90
0020
0000
0000
0030
,  // measure 91
0100
0000
0001
1000
,  // measure 92
0200
0000
0000
0300
,  // measure 93
0010
0000
1000
0001
,  // measure 94
0002
0000
0000
0003
,  // measure 95
1000
0000
0100
0010
,  // measure 96
0001
0000
1000
0001
,  // measure 97
1000
0000
0001
1000
,  // measure 98
0220
0330
2002
3003
,  // measure 99
0001
0000
0000
0000
,  // measure 100
0001
0000
0000
0000
,  // measure 101
1000
0000
0000
0000
,  // measure 102
1000
0000
0000
0000
,  // measure 103
0100
0000
0000
0000
,  // measure 104
0100
0000
0000
0000
,  // measure 105
0010
0000
0000
0000
,  // measure 106
0010
0000
0000
0000
,  // measure 107
2002
0000
0000
0000
,  // measure 108
0000
0000
0000
0000
,  // measure 109
0000
0000
0000
0000
,  // measure 110
0000
0000
0000
0000
,  // measure 111
0000
0000
0000
0000
,  // measure 112
0000
0000
0000
0000
,  // measure 113
0000
0000
0000
0000
,  // measure 114
0000
0000
0000
3003
,  // measure 115
0020
0000
0000
0030
,  // measure 116
0100
0000
0001
1000
,  // measure 117
0200
0000
0000
0300
,  // measure 118
0010
0000
1000
0001
,  // measure 119
0002
0000
0000
0003
,  // measure 120
1000
0000
0100
0010
,  // measure 121
2000
0000
0000
3000
,  // measure 122
0001
0000
0010
0100
,  // measure 123
0020
0000
0000
0030
,  // measure 124
0100
0000
0001
1000
,  // measure 125
0200
0000
0000
0300
,  // measure 126
0010
0000
1000
0001
,  // measure 127
0002
0000
0000
0003
,  // measure 128
1000
0000
0100
0010
,  // measure 129
0001
0000
1000
0001
,  // measure 130
1000
0000
0001
1000
,  // measure 131
0220
0330
2002
3003
,  // measure 132
0010
0000
0000
0000
,  // measure 133
0010
0000
0000
0000
,  // measure 134
1000
0000
0001
0000
,  // measure 135
0001
0000
0010
0000
,  // measure 136
0100
0000
0000
0000
,  // measure 137
0100
0000
0000
0000
,  // measure 138
0001
0000
1000
0000
,  // measure 139
1000
0000
0100
0000
,  // measure 140
1001
0000
0000
0000
;

//---------------dance-single - ----------------
#NOTEDATA:;
#CHARTNAME:;
#STEPSTYPE:dance-single;
#DESCRIPTION:;
#CHARTSTYLE:;
#DIFFICULTY:Beginner;
#METER:4;
#RADARVALUES:0.108826,0.241167,0.038280,0.202886,0.000000,199.000000,189.000000,10.000000,53.000000,0.000000,0.000000,0.000000,0.000000,0.000000,0.108826,0.241167,0.038280,0.202886,0.000000,199.000000,189.000000,10.000000,53.000000,0.000000,0.000000,0.000000,0.000000,0.000000;
#CREDIT:;
#NOTES:
// measure 0
0000
0000
0000
0000
,  // measure 1
0000
0000
0000
0000
,  // measure 2
0000
0000
0000
0000
,  // measure 3
0000
0000
0000
0000
,  // measure 4
0000
0000
0000
0000
,  // measure 5
0000
0000
0000
0000
,  // measure 6
0000
0000
0000
0000
,  // measure 7
0000
0000
0000
0000
,  // measure 8
0000
0000
0000
0000
,  // measure 9
0010
0000
0000
0000
,  // measure 10
0010
0000
0000
0000
,  // measure 11
1000
0000
0000
0000
,  // measure 12
0001
0000
0010
0000
,  // measure 13
0100
0000
0000
0000
,  // measure 14
0100
0000
0000
0000
,  // measure 15
0001
0000
0000
0000
,  // measure 16
1000
0000
0100
0000
,  // measure 17
0010
0000
0000
0000
,  // measure 18
0001
0000
0000
0000
,  // measure 19
0100
0000
0000
0000
,  // measure 20
1000
0000
0000
0000
,  // measure 21
0100
0000
0100
0000
,  // measure 22
0010
0000
0010
0000
,  // measure 23
1000
0000
1000
0000
,  // measure 24
0001
0000
0001
0000
,  // measure 25
2000
0000
3001
0000
,  // measure 26
0002
0000
1003
0000
,  // measure 27
0020
0000
0130
0000
,  // measure 28
0200
0000
0310
0000
,  // measure 29
1000
0000
1000
0000
,  // measure 30
0001
0000
0001
0000
,  // measure 31
0020
0000
0000
0000
,  // measure 32
0200
0000
0000
0330
,  // measure 33
2000
0000
0000
0000
,  // measure 34
0000
0000
0000
3000
,  // measure 35
0002
0000
0000
0000
,  // measure 36
0000
0000
0000
0003
,  // measure 37
1000
0000
1000
0000
,  // measure 38
0001
0000
0001
0000
,  // measure 39
2002
0000
0000
3003
,  // measure 40
1000
0000
0000
0000
0001
0000
2002
3003
,  // measure 41
0020
0000
0000
0030
,  // measure 42
0100
0000
0001
0000
,  // measure 43
0200
0000
0000
0300
,  // measure 44
0010
0000
1000
0000
,  // measure 45
0002
0000
0000
0003
,  // measure 46
1000
0000
0100
0000
,  // measure 47
2000
0000
0000
3000
,  // measure 48
0001
0000
0010
0000
,  // measure 49
0020
0000
0000
0030
,  // measure 50
0100
0000
0001
0000
,  // measure 51
0200
0000
0000
0300
,  // measure 52
0010
0000
1000
0000
,  // measure 53
0002
0000
0000
0003
,  // measure 54
1000
0000
0100
0000
,  // measure 55
0001
0000
1000
0001
,  // measure 56
1000
0000
0001
1000
,  // measure 57
0220
0330
2002
3003
,  // measure 58
0010
0000
0000
0000
,  // measure 59
0010
0000
0000
0000
,  // measure 60
1000
0000
0000
0000
,  // measure 61
0001
0000
0010
0000
,  // measure 62
0100
0000
0000
0000
,  // measure 63
0100
0000
0000
0000
,  // measure 64
0001
0000
0000
0000
,  // measure 65
1000
0000
0100
0000
,  // measure 66
0010
0000
0000
0000
,  // measure 67
0001
0000
0000
0000
,  // measure 68
0100
0000
0000
0000
,  // measure 69
1000
0000
0000
0000
,  // measure 70
0100
0000
0100
0000
,  // measure 71
0010
0000
0010
0000
,  // measure 72
1000
0000
1000
0000
,  // measure 73
0001
0000
0001
0000
,  // measure 74
2000
0000
3001
0000
,  // measure 75
0002
0000
1003
0000
,  // measure 76
0020
0000
0130
0000
,  // measure 77
0200
0000
0310
0000
,  // measure 78
1000
0000
1000
0000
,  // measure 79
0001
0000
0001
0000
,  // measure 80
0020
0000
0000
0000
,  // measure 81
0200
0000
0000
0330
,  // measure 82
0020
0000
0000
0030
,  // measure 83
0100
0000
0001
0000
,  // measure 84
0200
0000
0000
0300
,  // measure 85
0010
0000
1000
0000
,  // measure 86
0002
0000
0000
0003
,  // measure 87
1000
0000
0100
0000
,  // measure 88
2000
0000
0000
3000
,  // measure 89
0001
0000
0010
0000
,  // measure 90
0020
0000
0000
0030
,  // measure 91
0100
0000
0001
0000
,  // measure 92
0200
0000
0000
0300
,  // measure 93
0010
0000
1000
0000
,  // measure 94
0002
0000
0000
0003
,  // measure 95
1000
0000
0100
0000
,  // measure 96
0001
0000
1000
0001
,  // measure 97
1000
0000
0001
1000
,  // measure 98
0220
0330
2002
3003
,  // measure 99
0001
0000
0000
0000
,  // measure 100
0001
0000
0000
0000
,  // measure 101
1000
0000
0000
0000
,  // measure 102
1000
0000
0000
0000
,  // measure 103
0100
0000
0000
0000
,  // measure 104
0100
0000
0000
0000
,  // measure 105
0010
0000
0000
0000
,  // measure 106
0010
0000
0000
0000
,  // measure 107
2002
0000
0000
0000
,  // measure 108
0000
0000
0000
0000
,  // measure 109
0000
0000
0000
0000
,  // measure 110
0000
0000
0000
0000
,  // measure 111
0000
0000
0000
0000
,  // measure 112
0000
0000
0000
0000
,  // measure 113
0000
0000
0000
0000
,  // measure 114
0000
0000
0000
3003
,  // measure 115
0020
0000
0000
0030
,  // measure 116
0100
0000
0001
0000
,  // measure 117
0200
0000
0000
0300
,  // measure 118
0010
0000
1000
0000
,  // measure 119
0002
0000
0000
0003
,  // measure 120
1000
0000
0100
0000
,  // measure 121
2000
0000
0000
3000
,  // measure 122
0001
0000
0010
0000
,  // measure 123
0020
0000
0000
0030
,  // measure 124
0100
0000
0001
0000
,  // measure 125
0200
0000
0000
0300
,  // measure 126
0010
0000
1000
0000
,  // measure 127
0002
0000
0000
0003
,  // measure 128
1000
0000
0100
0000
,  // measure 129
0001
0000
1000
0001
,  // measure 130
1000
0000
0001
1000
,  // measure 131
0220
0330
2002
3003
,  // measure 132
0010
0000
0000
0000
,  // measure 133
0010
0000
0000
0000
,  // measure 134
1000
0000
0000
0000
,  // measure 135
0001
0000
0010
0000
,  // measure 136
0100
0000
0000
0000
,  // measure 137
0100
0000
0000
0000
,  // measure 138
0001
0000
0000
0000
,  // measure 139
1000
0000
0100
0000
,  // measure 140
1001
0000
0000
0000
;

//---------------dance-single - ----------------
#NOTEDATA:;
#CHARTNAME:;
#STEPSTYPE:dance-single;
#DESCRIPTION:;
#CHARTSTYLE:;
#DIFFICULTY:Medium;
#METER:4;
#RADARVALUES:0.130700,0.267963,0.038280,0.225855,0.000000,239.000000,229.000000,10.000000,59.000000,0.000000,0.000000,0.000000,0.000000,0.000000,0.130700,0.267963,0.038280,0.225855,0.000000,239.000000,229.000000,10.000000,59.000000,0.000000,0.000000,0.000000,0.000000,0.000000;
#CREDIT:;
#NOTES:
// measure 0
0000
0000
0000
0000
,  // measure 1
0000
0000
0000
0000
,  // measure 2
0000
0000
0000
0000
,  // measure 3
0000
0000
0000
0000
,  // measure 4
0000
0000
0000
0000
,  // measure 5
0000
0000
0000
0000
,  // measure 6
0000
0000
0000
0000
,  // measure 7
0000
0000
0000
0000
,  // measure 8
0000
0000
0000
0000
,  // measure 9
0020
0000
0000
0030
,  // measure 10
0010
0000
0000
0000
,  // measure 11
1000
0000
0001
0000
,  // measure 12
0001
0000
0010
0000
,  // measure 13
0200
0000
0000
0300
,  // measure 14
0100
0000
0000
0000
,  // measure 15
0001
0000
1000
0000
,  // measure 16
1000
0000
0100
0000
,  // measure 17
0010
0000
0010
0000
,  // measure 18
0001
0000
0000
0000
,  // measure 19
0100
0000
0100
0000
,  // measure 20
1000
0000
0000
0000
,  // measure 21
0100
0000
0100
0000
,  // measure 22
0010
0000
0010
0000
,  // measure 23
1000
0000
1000
0000
,  // measure 24
0001
0000
0001
0000
,  // measure 25
2000
0000
3001
0000
,  // measure 26
0002
0000
1003
0000
,  // measure 27
0020
0000
0130
0000
,  // measure 28
0200
0000
0310
0000
,  // measure 29
1000
0000
1000
0000
,  // measure 30
0001
0000
0001
0000
,  // measure 31
0020
0000
0000
0000
,  // measure 32
0200
0000
0000
0330
,  // measure 33
2000
0000
0000
0000
,  // measure 34
0000
0000
0000
3000
,  // measure 35
0002
0000
0000
0000
,  // measure 36
0000
0000
0000
0003
,  // measure 37
1000
0000
1000
0001
,  // measure 38
0001
0000
0001
1000
,  // measure 39
2002
0000
0000
3003
,  // measure 40
1000
0000
0001
0000
1000
0000
2002
3003
,  // measure 41
0020
0000
0000
0030
,  // measure 42
0100
0000
0001
1000
,  // measure 43
0200
0000
0000
0300
,  // measure 44
0010
0000
1000
0001
,  // measure 45
0002
0000
0000
0003
,  // measure 46
1000
0000
0100
0010
,  // measure 47
2000
0000
0000
3000
,  // measure 48
0001
0000
0010
0100
,  // measure 49
0020
0000
0000
0030
,  // measure 50
0100
0000
0001
1000
,  // measure 51
0200
0000
0000
0300
,  // measure 52
0010
0000
1000
0001
,  // measure 53
0002
0000
0000
0003
,  // measure 54
1000
0000
0100
0010
,  // measure 55
0001
0000
1000
0001
,  // measure 56
1000
0000
0001
1000
,  // measure 57
0220
0330
2002
3003
,  // measure 58
0020
0000
0000
0030
,  // measure 59
0010
0000
0000
0000
,  // measure 60
1000
0000
0001
0000
,  // measure 61
0001
0000
0010
0000
,  // measure 62
0200
0000
0000
0300
,  // measure 63
0100
0000
0000
0000
,  // measure 64
0001
0000
1000
0000
,  // measure 65
1000
0000
0100
0000
,  // measure 66
0010
0000
0010
0000
,  // measure 67
0001
0000
0000
0000
,  // measure 68
0100
0000
0100
0000
,  // measure 69
1000
0000
0000
0000
,  // measure 70
0100
0000
0100
0000
,  // measure 71
0010
0000
0010
0000
,  // measure 72
1000
0000
1000
0000
,  // measure 73
0001
0000
0001
0000
,  // measure 74
2000
0000
3001
0000
,  // measure 75
0002
0000
1003
0000
,  // measure 76
0020
0000
0130
0000
,  // measure 77
0200
0000
0310
0000
,  // measure 78
1000
0000
1000
0000
,  // measure 79
0001
0000
0001
0000
,  // measure 80
0020
0000
0000
0000
,  // measure 81
0200
0000
0000
0330
,  // measure 82
0020
0000
0000
0030
,  // measure 83
0100
0000
0001
1000
,  // measure 84
0200
0000
0000
0300
,  // measure 85
0010
0000
1000
0001
,  // measure 86
0002
0000
0000
0003
,  // measure 87
1000
0000
0100
0010
,  // measure 88
2000
0000
0000
3000
,  // measure 89
0001
0000
0010
0100
,  // measure 90
0020
0000
0000
0030
,  // measure 91
0100
0000
0001
1000
,  // measure 92
0200
0000
0000
0300
,  // measure 93
0010
0000
1000
0001
,  // measure 94
0002
0000
0000
0003
,  // measure 95
1000
0000
0100
0010
,  // measure 96
0001
0001
1000
0001
,  // measure 97
1000
0010
0001
1000
,  // measure 98
0220
0330
2002
3003
,  // measure 99
0001
0000
1000
0000
,  // measure 100
0001
0000
0000
0000
,  // measure 101
1000
0000
0000
0000
,  // measure 102
1000
0000
0000
0000
,  // measure 103
0100
0000
0010
0000
,  // measure 104
0100
0000
0000
0000
,  // measure 105
0010
0000
0000
0000
,  // measure 106
0010
0000
0000
0000
,  // measure 107
2002
0000
0000
0000
,  // measure 108
0000
0000
0000
0000
,  // measure 109
0000
0000
0000
0000
,  // measure 110
0000
0000
0000
0000
,  // measure 111
0000
0000
0000
0000
,  // measure 112
0000
0000
0000
0000
,  // measure 113
0000
0000
0000
0000
,  // measure 114
0000
0000
0000
3003
,  // measure 115
0020
0000
0000
0030
,  // measure 116
0100
0000
0001
1000
,  // measure 117
0200
0000
0000
0300
,  // measure 118
0010
0000
1000
0001
,  // measure 119
0002
0000
0000
0003
,  // measure 120
1000
0000
0100
0010
,  // measure 121
2000
0000
0000
3000
,  // measure 122
0001
0000
0010
0100
,  // measure 123
0020
0000
0000
0030
,  // measure 124
0100
0000
0001
1000
,  // measure 125
0200
0000
0000
0300
,  // measure 126
0010
0000
1000
0001
,  // measure 127
0002
0000
0000
0003
,  // measure 128
1000
0000
0100
0010
,  // measure 129
0001
0001
1000
0001
,  // measure 130
1000
0100
0001
1000
,  // measure 131
0220
0330
2002
3003
,  // measure 132
0020
0000
0000
0030
,  // measure 133
0010
0000
0000
0000
,  // measure 134
1000
0000
0001
0000
,  // measure 135
0001
0000
0010
0000
,  // measure 136
0200
0000
0000
0300
,  // measure 137
0100
0000
0000
0000
,  // measure 138
0001
0000
1000
0000
,  // measure 139
1000
0000
0100
0000
,  // measure 140
1001
0000
0000
0000
;

//---------------dance-single - ----------------
#NOTEDATA:;
#CHARTNAME:;
#STEPSTYPE:dance-single;
#DESCRIPTION:;
#CHARTSTYLE:;
#DIFFICULTY:Hard;
#METER:4;
#RADARVALUES:0.137263,0.267963,0.038280,0.225855,0.000000,251.000000,241.000000,10.000000,59.000000,0.000000,0.000000,0.000000,0.000000,0.000000,0.137263,0.267963,0.038280,0.225855,0.000000,251.000000,241.000000,10.000000,59.000000,0.000000,0.000000,0.000000,0.000000,0.000000;
#CREDIT:;
#NOTES:
// measure 0
0000
0000
0000
0000
,  // measure 1
0000
0000
0000
0000
,  // measure 2
0000
0000
0000
0000
,  // measure 3
0000
0000
0000
0000
,  // measure 4
0000
0000
0000
0000
,  // measure 5
0000
0000
0000
0000
,  // measure 6
0000
0000
0000
0000
,  // measure 7
0000
0000
0000
0000
,  // measure 8
0000
0000
0000
0000
,  // measure 9
0020
0000
0000
0030
,  // measure 10
0010
0000
0001
0000
,  // measure 11
1000
0000
0001
0000
,  // measure 12
0001
0000
0010
0000
,  // measure 13
0200
0000
0000
0300
,  // measure 14
0100
0000
1000
0000
,  // measure 15
0001
0000
1000
0000
,  // measure 16
1000
0000
0100
0000
,  // measure 17
0010
0000
0010
0000
,  // measure 18
0001
0000
0001
0000
,  // measure 19
0100
0000
0100
0000
,  // measure 20
1000
0000
1000
0000
,  // measure 21
0100
0000
0100
0000
,  // measure 22
0010
0000
0010
0000
,  // measure 23
1000
0000
1000
0000
,  // measure 24
0001
0000
0001
0000
,  // measure 25
2000
0000
3001
0000
,  // measure 26
0002
0000
1003
0000
,  // measure 27
0020
0000
0130
0000
,  // measure 28
0200
0000
0310
0000
,  // measure 29
1000
0000
1000
0000
,  // measure 30
0001
0000
0001
0000
,  // measure 31
0020
0000
0000
0000
,  // measure 32
0200
0000
0000
0330
,  // measure 33
2000
0000
0000
0000
,  // measure 34
0000
0000
0000
3000
,  // measure 35
0002
0000
0000
0000
,  // measure 36
0000
0000
0000
0003
,  // measure 37
1000
0000
1000
0001
,  // measure 38
0001
0000
0001
1000
,  // measure 39
2002
0000
0000
3003
,  // measure 40
1000
0000
0001
0000
1000
0000
2002
3003
,  // measure 41
0020
0000
0000
0030
,  // measure 42
0100
0000
0001
1000
,  // measure 43
0200
0000
0000
0300
,  // measure 44
0010
0000
1000
0001
,  // measure 45
0002
0000
0000
0003
,  // measure 46
1000
0000
0100
0010
,  // measure 47
2000
0000
0000
3000
,  // measure 48
0001
0000
0010
0100
,  // measure 49
0020
0000
0000
0030
,  // measure 50
0100
0000
0001
1000
,  // measure 51
0200
0000
0000
0300
,  // measure 52
0010
0000
1000
0001
,  // measure 53
0002
0000
0000
0003
,  // measure 54
1000
0000
0100
0010
,  // measure 55
0001
0000
1000
0001
,  // measure 56
1000
0000
0001
1000
,  // measure 57
0220
0330
2002
3003
,  // measure 58
0020
0000
0000
0030
,  // measure 59
0010
0000
0001
0000
,  // measure 60
1000
0000
0001
0000
,  // measure 61
0001
0000
0010
0000
,  // measure 62
0200
0000
0000
0300
,  // measure 63
0100
0000
1000
0000
,  // measure 64
0001
0000
1000
0000
,  // measure 65
1000
0000
0100
0000
,  // measure 66
0010
0000
0010
0000
,  // measure 67
0001
0000
0001
0000
,  // measure 68
0100
0000
0100
0000
,  // measure 69
1000
0000
1000
0000
,  // measure 70
0100
0000
0100
0000
,  // measure 71
0010
0000
0010
0000
,  // measure 72
1000
0000
1000
0000
,  // measure 73
0001
0000
0001
0000
,  // measure 74
2000
0000
3001
0000
,  // measure 75
0002
0000
1003
0000
,  // measure 76
0020
0000
0130
0000
,  // measure 77
0200
0000
0310
0000
,  // measure 78
1000
0000
1000
0000
,  // measure 79
0001
0000
0001
0000
,  // measure 80
0020
0000
0000
0000
,  // measure 81
0200
0000
0000
0330
,  // measure 82
0020
0000
0000
0030
,  // measure 83
0100
0000
0001
1000
,  // measure 84
0200
0000
0000
0300
,  // measure 85
0010
0000
1000
0001
,  // measure 86
0002
0000
0000
0003
,  // measure 87
1000
0000
0100
0010
,  // measure 88
2000
0000
0000
3000
,  // measure 89
0001
0000
0010
0100
,  // measure 90
0020
0000
0000
0030
,  // measure 91
0100
0000
0001
1000
,  // measure 92
0200
0000
0000
0300
,  // measure 93
0010
0000
1000
0001
,  // measure 94
0002
0000
0000
0003
,  // measure 95
1000
0000
0100
0010
,  // measure 96
0001
0001
1000
0001
,  // measure 97
1000
0010
0001
1000
,  // measure 98
0220
0330
2002
3003
,  // measure 99
0001
0000
1000
0000
,  // measure 100
0001
0000
0000
0000
,  // measure 101
1000
0000
0001
0000
,  // measure 102
1000
0000
0000
0000
,  // measure 103
0100
0000
0010
0000
,  // measure 104
0100
0000
0000
0000
,  // measure 105
0010
0000
0100
0000
,  // measure 106
0010
0000
0000
0000
,  // measure 107
2002
0000
0000
0000
,  // measure 108
0000
0000
0000
0000
,  // measure 109
0000
0000
0000
0000
,  // measure 110
0000
0000
0000
0000
,  // measure 111
0000
0000
0000
0000
,  // measure 112
0000
0000
0000
0000
,  // measure 113
0000
0000
0000
0000
,  // measure 114
0000
0000
0000
3003
,  // measure 115
0020
0000
0000
0030
,  // measure 116
0100
0000
0001
1000
,  // measure 117
0200
0000
0000
0300
,  // measure 118
0010
0000
1000
0001
,  // measure 119
0002
0000
0000
0003
,  // measure 120
1000
0000
0100
0010
,  // measure 121
2000
0000
0000
3000
,  // measure 122
0001
0000
0010
0100
,  // measure 123
0020
0000
0000
0030
,  // measure 124
0100
0000
0001
1000
,  // measure 125
0200
0000
0000
0300
,  // measure 126
0010
0000
1000
0001
,  // measure 127
0002
0000
0000
0003
,  // measure 128
1000
0000
0100
0010
,  // measure 129
0001
0001
1000
0001
,  // measure 130
1000
0100
0001
1000
,  // measure 131
0220
0330
2002
3003
,  // measure 132
0020
0000
0000
0030
,  // measure 133
0010
0000
0001
0000
,  // measure 134
1000
0000
0001
0000
,  // measure 135
0001
0000
0010
0000
,  // measure 136
0200
0000
0000
0300
,  // measure 137
0100
0000
1000
0000
,  // measure 138
0001
0000
1000
0000
,  // measure 139
1000
0000
0100
0000
,  // measure 140
1001
0000
0000
0000
;

//---------------dance-single - ----------------
#NOTEDATA:;
#CHARTNAME:;
#STEPSTYPE:dance-single;
#DESCRIPTION:;
#CHARTSTYLE:;
#DIFFICULTY:Challenge;
#METER:5;
#RADARVALUES:0.158590,0.267963,0.038280,0.225855,0.000000,290.000000,280.000000,10.000000,59.000000,0.000000,0.000000,0.000000,0.000000,0.000000,0.158590,0.267963,0.038280,0.225855,0.000000,290.000000,280.000000,10.000000,59.000000,0.000000,0.000000,0.000000,0.000000,0.000000;
#CREDIT:;
#NOTES:
// measure 0
0000
0000
0000
0000
,  // measure 1
0000
0000
0000
0000
,  // measure 2
0000
0000
0000
0000
,  // measure 3
0000
0000
0000
0000
,  // measure 4
0000
0000
0000
0000
,  // measure 5
0000
0000
0000
0000
,  // measure 6
0000
0000
0000
0000
,  // measure 7
0000
0000
0000
0000
,  // measure 8
0000
0000
0000
0000
,  // measure 9
0020
0000
0100
0030
,  // measure 10
0010
0000
0001
0000
,  // measure 11
1000
0000
0001
0000
,  // measure 12
0001
0000
0010
0000
,  // measure 13
0200
0000
0010
0300
,  // measure 14
0100
0000
1000
0000
,  // measure 15
0001
0000
1000
0000
,  // measure 16
1000
0000
0100
0000
,  // measure 17
0010
0000
0010
0000
,  // measure 18
0001
0000
0001
1000
,  // measure 19
0100
0000
0100
0000
,  // measure 20
1000
0000
1000
0001
,  // measure 21
0100
0000
0100
0000
,  // measure 22
0010
0000
0010
0000
,  // measure 23
1000
0000
1000
0000
,  // measure 24
0001
0000
0001
0000
,  // measure 25
2000
0000
0001
3000
,  // measure 26
0002
0000
1000
0003
,  // measure 27
0020
0000
0100
0030
,  // measure 28
0200
0000
0010
0300
,  // measure 29
1000
0001
1000
0000
,  // measure 30
0001
1000
0001
0000
,  // measure 31
0020
0000
0000
0000
,  // measure 32
0200
0000
0000
0330
,  // measure 33
2000
0000
0000
0000
,  // measure 34
0000
0000
0000
3000
,  // measure 35
0002
0000
0000
0000
,  // measure 36
0000
0000
0000
0003
,  // measure 37
1000
0000
1000
0001
,  // measure 38
0001
0000
0001
1000
,  // measure 39
2002
0000
0000
3003
,  // measure 40
1000
0000
0001
0000
1000
0000
2002
3003
,  // measure 41
0020
0000
0100
0030
,  // measure 42
0100
0000
0001
1000
,  // measure 43
0200
0000
0010
0300
,  // measure 44
0010
0000
1000
0001
,  // measure 45
0002
0000
1000
0003
,  // measure 46
1000
0000
0100
0010
,  // measure 47
2000
0000
0001
3000
,  // measure 48
0001
0000
0010
0100
,  // measure 49
0020
0000
0100
0030
,  // measure 50
0100
0000
0001
1000
,  // measure 51
0200
0000
0010
0300
,  // measure 52
0010
0000
1000
0001
,  // measure 53
0002
0000
1000
0003
,  // measure 54
1000
0000
0100
0010
,  // measure 55
0001
0000
1000
0001
,  // measure 56
1000
0000
0001
1000
,  // measure 57
0220
0330
2002
3003
,  // measure 58
0020
0000
0100
0030
,  // measure 59
0010
0000
0001
0000
,  // measure 60
1000
0000
0001
0000
,  // measure 61
0001
0000
0010
0000
,  // measure 62
0200
0000
0010
0300
,  // measure 63
0100
0000
1000
0000
,  // measure 64
0001
0000
1000
0000
,  // measure 65
1000
0000
0100
0000
,  // measure 66
0010
0000
0010
0000
,  // measure 67
0001
0000
0001
1000
,  // measure 68
0100
0000
0100
0000
,  // measure 69
1000
0000
1000
0001
,  // measure 70
0100
0000
0100
0000
,  // measure 71
0010
0000
0010
0000
,  // measure 72
1000
0000
1000
0000
,  // measure 73
0001
0000
0001
0000
,  // measure 74
2000
0000
0001
3000
,  // measure 75
0002
0000
1000
0003
,  // measure 76
0020
0000
0100
0030
,  // measure 77
0200
0000
0010
0300
,  // measure 78
1000
0001
1000
0000
,  // measure 79
0001
1000
0001
0000
,  // measure 80
0020
0000
0000
0000
,  // measure 81
0200
0000
0000
0330
,  // measure 82
0020
0000
0100
0030
,  // measure 83
0100
0000
0001
1000
,  // measure 84
0200
0000
0010
0300
,  // measure 85
0010
0000
1000
0001
,  // measure 86
0002
0000
1000
0003
,  // measure 87
1000
0000
0100
0010
,  // measure 88
2000
0000
0001
3000
,  // measure 89
0001
0000
0010
0100
,  // measure 90
0020
0000
0100
0030
,  // measure 91
0100
0000
0001
1000
,  // measure 92
0200
0000
0010
0300
,  // measure 93
0010
0000
1000
0001
,  // measure 94
0002
0000
1000
0003
,  // measure 95
1000
0000
0100
0010
,  // measure 96
0001
0001
1000
0001
,  // measure 97
1000
0010
0001
1000
,  // measure 98
0220
0330
2002
3003
,  // measure 99
0001
0000
1000
0000
,  // measure 100
0001
0000
1000
0000
,  // measure 101
1000
0000
0001
0000
,  // measure 102
1000
0000
0001
0000
,  // measure 103
0100
0000
0010
0000
,  // measure 104
0100
0000
0010
0000
,  // measure 105
0010
0000
0100
0000
,  // measure 106
0010
0000
0100
0000
,  // measure 107
2002
0000
0000
0000
,  // measure 108
0000
0000
0000
0000
,  // measure 109
0000
0000
0000
0000
,  // measure 110
0000
0000
0000
0000
,  // measure 111
0000
0000
0000
0000
,  // measure 112
0000
0000
0000
0000
,  // measure 113
0000
0000
0000
0000
,  // measure 114
0000
0000
0000
3003
,  // measure 115
0020
0000
0100
0030
,  // measure 116
0100
0000
0001
1000
,  // measure 117
0200
0000
0010
0300
,  // measure 118
0010
0000
1000
0001
,  // measure 119
0002
0000
1000
0003
,  // measure 120
1000
0000
0100
0010
,  // measure 121
2000
0000
0001
3000
,  // measure 122
0001
0000
0010
0100
,  // measure 123
0020
0000
0100
0030
,  // measure 124
0100
0000
0001
1000
,  // measure 125
0200
0000
0010
0300
,  // measure 126
0010
0000
1000
0001
,  // measure 127
0002
0000
1000
0003
,  // measure 128
1000
0000
0100
0010
,  // measure 129
0001
0001
1000
0001
,  // measure 130
1000
0100
0001
1000
,  // measure 131
0220
0330
2002
3003
,  // measure 132
0020
0000
0100
0030
,  // measure 133
0010
0000
0001
0000
,  // measure 134
1000
0000
0001
0000
,  // measure 135
0001
0000
0010
0000
,  // measure 136
0200
0000
0010
0300
,  // measure 137
0100
0000
1000
0000
,  // measure 138
0001
0000
1000
0000
,  // measure 139
1000
0000
0100
0000
,  // measure 140
1001
0000
0000
0000
;

//---------------dance-single - Deluxe----------------
#NOTEDATA:;
#CHARTNAME:Deluxe;
#STEPSTYPE:dance-single;
#DESCRIPTION:Deluxe;
#CHARTSTYLE:;
#DIFFICULTY:Edit;
#METER:5;
#RADARVALUES:0.165153,0.267963,0.038280,0.225855,0.000000,302.000000,292.000000,10.000000,59.000000,0.000000,0.000000,0.000000,0.000000,0.000000,0.165153,0.267963,0.038280,0.225855,0.000000,302.000000,292.000000,10.000000,59.000000,0.000000,0.000000,0.000000,0.000000,0.000000;
#CREDIT:;
#NOTES:
// measure 0
0000
0000
0000
0000
,  // measure 1
0000
0000
0000
0000
,  // measure 2
0000
0000
0000
0000
,  // measure 3
0000
0000
0000
0000
,  // measure 4
0000
0000
0000
0000
,  // measure 5
0000
0000
0000
0000
,  // measure 6
0000
0000
0000
0000
,  // measure 7
0000
0000
0000
0000
,  // measure 8
0000
0000
0000
0000
,  // measure 9
0020
0000
0100
0030
,  // measure 10
0010
0000
0001
0000
,  // measure 11
1000
0000
0001
0000
,  // measure 12
0001
0000
0010
0000
,  // measure 13
0200
0000
0010
0300
,  // measure 14
0100
0000
1000
0000
,  // measure 15
0001
0000
1000
0000
,  // measure 16
1000
0000
0100
0000
,  // measure 17
0010
0000
0010
0000
,  // measure 18
0001
0000
0001
1000
,  // measure 19
0100
0000
0100
0000
,  // measure 20
1000
0000
1000
0001
,  // measure 21
0100
0000
0100
0010
,  // measure 22
0010
0000
0010
0100
,  // measure 23
1000
0000
1000
0001
,  // measure 24
0001
0000
0001
1000
,  // measure 25
2000
0000
0001
3000
,  // measure 26
0002
0000
1000
0003
,  // measure 27
0020
0000
0100
0030
,  // measure 28
0200
0000
0010
0300
,  // measure 29
1000
0001
1000
1000
,  // measure 30
0001
1000
0001
0001
,  // measure 31
0020
0000
0000
0000
,  // measure 32
0200
0000
0000
0330
,  // measure 33
2000
0000
0000
0000
,  // measure 34
0000
0000
0000
3000
,  // measure 35
0002
0000
0000
0000
,  // measure 36
0000
0000
0000
0003
,  // measure 37
1000
0000
1000
0001
,  // measure 38
0001
0000
0001
1000
,  // measure 39
2002
0000
0000
3003
,  // measure 40
1000
0000
0001
0000
1000
0000
2002
3003
,  // measure 41
0020
0000
0100
0030
,  // measure 42
0100
0000
0001
1000
,  // measure 43
0200
0000
0010
0300
,  // measure 44
0010
0000
1000
0001
,  // measure 45
0002
0000
1000
0003
,  // measure 46
1000
0000
0100
0010
,  // measure 47
2000
0000
0001
3000
,  // measure 48
0001
0000
0010
0100
,  // measure 49
0020
0000
0100
0030
,  // measure 50
0100
0000
0001
1000
,  // measure 51
0200
0000
0010
0300
,  // measure 52
0010
0000
1000
0001
,  // measure 53
0002
0000
1000
0003
,  // measure 54
1000
0000
0100
0010
,  // measure 55
0001
0000
1000
0001
,  // measure 56
1000
0000
0001
1000
,  // measure 57
0220
0330
2002
3003
,  // measure 58
0020
0000
0100
0030
,  // measure 59
0010
0000
0001
0000
,  // measure 60
1000
0000
0001
0000
,  // measure 61
0001
0000
0010
0000
,  // measure 62
0200
0000
0010
0300
,  // measure 63
0100
0000
1000
0000
,  // measure 64
0001
0000
1000
0000
,  // measure 65
1000
0000
0100
0000
,  // measure 66
0010
0000
0010
0000
,  // measure 67
0001
0000
0001
1000
,  // measure 68
0100
0000
0100
0000
,  // measure 69
1000
0000
1000
0001
,  // measure 70
0100
0000
0100
0010
,  // measure 71
0010
0000
0010
0100
,  // measure 72
1000
0000
1000
0001
,  // measure 73
0001
0000
0001
1000
,  // measure 74
2000
0000
0001
3000
,  // measure 75
0002
0000
1000
0003
,  // measure 76
0020
0000
0100
0030
,  // measure 77
0200
0000
0010
0300
,  // measure 78
1000
0001
1000
1000
,  // measure 79
0001
1000
0001
0001
,  // measure 80
0020
0000
0000
0000
,  // measure 81
0200
0000
0000
0330
,  // measure 82
0020
0000
0100
0030
,  // measure 83
0100
0000
0001
1000
,  // measure 84
0200
0000
0010
0300
,  // measure 85
0010
0000
1000
0001
,  // measure 86
0002
0000
1000
0003
,  // measure 87
1000
0000
0100
0010
,  // measure 88
2000
0000
0001
3000
,  // measure 89
0001
0000
0010
0100
,  // measure 90
0020
0000
0100
0030
,  // measure 91
0100
0000
0001
1000
,  // measure 92
0200
0000
0010
0300
,  // measure 93
0010
0000
1000
0001
,  // measure 94
0002
0000
1000
0003
,  // measure 95
1000
0000
0100
0010
,  // measure 96
0001
0001
1000
0001
,  // measure 97
1000
0010
0001
1000
,  // measure 98
0220
0330
2002
3003
,  // measure 99
0001
0000
1000
0000
,  // measure 100
0001
0000
1000
0000
,  // measure 101
1000
0000
0001
0000
,  // measure 102
1000
0000
0001
0000
,  // measure 103
0100
0000
0010
0000
,  // measure 104
0100
0000
0010
0000
,  // measure 105
0010
0000
0100
0000
,  // measure 106
0010
0000
0100
0000
,  // measure 107
2002
0000
0000
0000
,  // measure 108
0000
0000
0000
0000
,  // measure 109
0000
0000
0000
0000
,  // measure 110
0000
0000
0000
0000
,  // measure 111
0000
0000
0000
0000
,  // measure 112
0000
0000
0000
0000
,  // measure 113
0000
0000
0000
0000
,  // measure 114
0000
0000
0000
3003
,  // measure 115
0020
0000
0100
0030
,  // measure 116
0100
0000
0001
1000
,  // measure 117
0200
0000
0010
0300
,  // measure 118
0010
0000
1000
0001
,  // measure 119
0002
0000
1000
0003
,  // measure 120
1000
0000
0100
0010
,  // measure 121
2000
0000
0001
3000
,  // measure 122
0001
0000
0010
0100
,  // measure 123
0020
0000
0100
0030
,  // measure 124
0100
0000
0001
1000
,  // measure 125
0200
0000
0010
0300
,  // measure 126
0010
0000
1000
0001
,  // measure 127
0002
0000
1000
0003
,  // measure 128
1000
0000
0100
0010
,  // measure 129
0001
0001
1000
0001
,  // measure 130
1000
0100
0001
1000
,  // measure 131
0220
0330
2002
3003
,  // measure 132
0020
0000
0100
0030
,  // measure 133
0010
0000
0001
0000
,  // measure 134
1000
0000
0001
0000
,  // measure 135
0001
0000
0010
0000
,  // measure 136
0200
0000
0010
0300
,  // measure 137
0100
0000
1000
0000
,  // measure 138
0001
0000
1000
0000
,  // measure 139
1000
0000
0100
0000
,  // measure 140
1001
0000
0000
0000
;

//---------------dance-single - Casual----------------
#NOTEDATA:;
#CHARTNAME:Casual;
#STEPSTYPE:dance-single;
#DESCRIPTION:Casual;
#CHARTSTYLE:;
#DIFFICULTY:Edit;
#METER:3;
#RADARVALUES:0.084764,0.187574,0.034452,0.202886,0.000000,155.000000,146.000000,9.000000,53.000000,0.000000,0.000000,0.000000,0.000000,0.000000,0.084764,0.187574,0.034452,0.202886,0.000000,155.000000,146.000000,9.000000,53.000000,0.000000,0.000000,0.000000,0.000000,0.000000;
#CREDIT:;
#NOTES:
// measure 0
0000
0000
0000
0000
,  // measure 1
0000
0000
0000
0000
,  // measure 2
0000
0000
0000
0000
,  // measure 3
0000
0000
0000
0000
,  // measure 4
0000
0000
0000
0000
,  // measure 5
0000
0000
0000
0000
,  // measure 6
0000
0000
0000
0000
,  // measure 7
0000
0000
0000
0000
,  // measure 8
0000
0000
0000
0000
,  // measure 9
0010
0000
0000
0000
,  // measure 10
0010
0000
0000
0000
,  // measure 11
1000
0000
0000
0000
,  // measure 12
0001
0000
0000
0000
,  // measure 13
0100
0000
0000
0000
,  // measure 14
0100
0000
0000
0000
,  // measure 15
0001
0000
0000
0000
,  // measure 16
1000
0000
0000
0000
,  // measure 17
0010
0000
0000
0000
,  // measure 18
0001
0000
0000
0000
,  // measure 19
0100
0000
0000
0000
,  // measure 20
1000
0000
0000
0000
,  // measure 21
0100
0000
0000
0000
,  // measure 22
0010
0000
0000
0000
,  // measure 23
1000
0000
0000
0000
,  // measure 24
0001
0000
0000
0000
,  // measure 25
2000
0000
3000
0000
,  // measure 26
0002
0000
0003
0000
,  // measure 27
0020
0000
0030
0000
,  // measure 28
0200
0000
0300
0000
,  // measure 29
1000
0000
1000
0000
,  // measure 30
0001
0000
0001
0000
,  // measure 31
0020
0000
0000
0000
,  // measure 32
0200
0000
0000
0330
,  // measure 33
2000
0000
0000
0000
,  // measure 34
0000
0000
0000
3000
,  // measure 35
0002
0000
0000
0000
,  // measure 36
0000
0000
0000
0003
,  // measure 37
1000
0000
1000
0000
,  // measure 38
0001
0000
0001
0000
,  // measure 39
2002
0000
0000
3003
,  // measure 40
1000
0000
0000
0000
0001
0000
2002
3003
,  // measure 41
0020
0000
0000
0030
,  // measure 42
0100
0000
0000
0000
,  // measure 43
0200
0000
0000
0300
,  // measure 44
0010
0000
0000
0000
,  // measure 45
0002
0000
0000
0003
,  // measure 46
1000
0000
0000
0000
,  // measure 47
2000
0000
0000
3000
,  // measure 48
0001
0000
0000
0000
,  // measure 49
0020
0000
0000
0030
,  // measure 50
0100
0000
0000
0000
,  // measure 51
0200
0000
0000
0300
,  // measure 52
0010
0000
0000
0000
,  // measure 53
0002
0000
0000
0003
,  // measure 54
1000
0000
0000
0000
,  // measure 55
0001
0000
1000
0000
,  // measure 56
1000
0000
0001
0000
,  // measure 57
0220
0330
2002
3003
,  // measure 58
0010
0000
0000
0000
,  // measure 59
0010
0000
0000
0000
,  // measure 60
1000
0000
0000
0000
,  // measure 61
0001
0000
0000
0000
,  // measure 62
0100
0000
0000
0000
,  // measure 63
0100
0000
0000
0000
,  // measure 64
0001
0000
0000
0000
,  // measure 65
1000
0000
0000
0000
,  // measure 66
0010
0000
0000
0000
,  // measure 67
0001
0000
0000
0000
,  // measure 68
0100
0000
0000
0000
,  // measure 69
1000
0000
0000
0000
,  // measure 70
0100
0000
0000
0000
,  // measure 71
0010
0000
0000
0000
,  // measure 72
1000
0000
0000
0000
,  // measure 73
0001
0000
0000
0000
,  // measure 74
2000
0000
3001
0000
,  // measure 75
0002
0000
1003
0000
,  // measure 76
0020
0000
0130
0000
,  // measure 77
0200
0000
0310
0000
,  // measure 78
1000
0000
1000
0000
,  // measure 79
0001
0000
0001
0000
,  // measure 80
0020
0000
0000
0000
,  // measure 81
0200
0000
0000
0330
,  // measure 82
0020
0000
0000
0030
,  // measure 83
0100
0000
0001
0000
,  // measure 84
0200
0000
0000
0300
,  // measure 85
0010
0000
0000
0000
,  // measure 86
0002
0000
0000
0003
,  // measure 87
1000
0000
0000
0000
,  // measure 88
2000
0000
0000
3000
,  // measure 89
0001
0000
0000
0000
,  // measure 90
0020
0000
0000
0030
,  // measure 91
0100
0000
0000
0000
,  // measure 92
0200
0000
0000
0300
,  // measure 93
0010
0000
0000
0000
,  // measure 94
0002
0000
0000
0003
,  // measure 95
1000
0000
0100
0000
,  // measure 96
0001
0000
1000
0000
,  // measure 97
1000
0000
0001
0000
,  // measure 98
0220
0330
2002
3003
,  // measure 99
0001
0000
0000
0000
,  // measure 100
0001
0000
0000
0000
,  // measure 101
1000
0000
0000
0000
,  // measure 102
1000
0000
0000
0000
,  // measure 103
0100
0000
0000
0000
,  // measure 104
0100
0000
0000
0000
,  // measure 105
0010
0000
0000
0000
,  // measure 106
0010
0000
0000
0000
,  // measure 107
2002
0000
0000
0000
,  // measure 108
0000
0000
0000
0000
,  // measure 109
0000
0000
0000
0000
,  // measure 110
0000
0000
0000
0000
,  // measure 111
0000
0000
0000
0000
,  // measure 112
0000
0000
0000
0000
,  // measure 113
0000
0000
0000
0000
,  // measure 114
0000
0000
0000
3003
,  // measure 115
0020
0000
0000
0030
,  // measure 116
0100
0000
0000
0000
,  // measure 117
0200
0000
0000
0300
,  // measure 118
0010
0000
0000
0000
,  // measure 119
0002
0000
0000
0003
,  // measure 120
1000
0000
0000
0000
,  // measure 121
2000
0000
0000
3000
,  // measure 122
0001
0000
0000
0000
,  // measure 123
0020
0000
0000
0030
,  // measure 124
0100
0000
0000
0000
,  // measure 125
0200
0000
0000
0300
,  // measure 126
0010
0000
0000
0000
,  // measure 127
0002
0000
0000
0003
,  // measure 128
1000
0000
0000
0000
,  // measure 129
0001
0000
1000
0000
,  // measure 130
1000
0000
0001
0000
,  // measure 131
0220
0330
2002
3003
,  // measure 132
0010
0000
0000
0000
,  // measure 133
0010
0000
0000
0000
,  // measure 134
1000
0000
0000
0000
,  // measure 135
0001
0000
0000
0000
,  // measure 136
0100
0000
0000
0000
,  // measure 137
0100
0000
0000
0000
,  // measure 138
0001
0000
0000
0000
,  // measure 139
1000
0000
0000
0000
,  // measure 140
0010
0000
0000
0000
;
