#VERSION:0.83;
#TITLE:千本桜;
#SUBTITLE:;
#ARTIST:和楽器バンド;
#TITLETRANSLIT:Senbonzakura;
#SUBTITLETRANSLIT:;
#ARTISTTRANSLIT:WagakkiBand;
#GENRE:;
#ORIGIN:;
#CREDIT:;
#BANNER:;
#BACKGROUND:;
#PREVIEWVID:;
#JACKET:;
#CDIMAGE:;
#DISCIMAGE:;
#LYRICSPATH:;
#CDTITLE:;
#MUSIC:Senbonzakura.ogg;
#OFFSET:-0.482000;
#SAMPLESTART:74.403564;
#SAMPLELENGTH:15.000000;
#SELECTABLE:YES;
#BPMS:0.000=306.000,
252.000=153.000,
316.000=306.000,
508.000=153.000,
572.000=306.000,
700.000=153.000,
716.000=306.000,
844.000=153.000,
916.000=306.000;
#STOPS:;
#DELAYS:;
#WARPS:;
#TIMESIGNATURES:0.000=4=4;
#TICKCOUNTS:0.000=4;
#COMBOS:0.000=1;
#SPEEDS:0.000=1.000=0.000=0;
#SCROLLS:0.000=1.000;
#FAKES:;
#LABELS:0.000=Song Start;
#BGCHANGES:;
#KEYSOUNDS:;
#ATTACKS:
;

//---------------dance-single - ----------------
#NOTEDATA:;
#CHARTNAME:;
#STEPSTYPE:dance-single;
#DESCRIPTION:;
#CHARTSTYLE:;
#DIFFICULTY:Easy;
#METER:15;
#RADARVALUES:0.808079,1.361050,0.125783,0.199774,0.201623,1529.000000,1495.000000,34.000000,54.000000,0.000000,0.000000,0.000000,0.000000,0.000000,0.808079,1.361050,0.125783,0.199774,0.201623,1529.000000,1495.000000,34.000000,54.000000,0.000000,0.000000,0.000000,0.000000,0.000000;
#CREDIT:;
#NOTES:
// measure 0
0000
0000
0000
0000
,  // measure 1
0000
0000
0000
0000
,  // measure 2
0000
0000
0000
0000
,  // measure 3
0000
0000
0000
0000
,  // measure 4
0000
0000
0000
0000
,  // measure 5
0000
0000
0000
0000
,  // measure 6
0000
0000
0000
0000
,  // measure 7
0000
0000
0000
0000
,  // measure 8
1000
0000
1000
0000
,  // measure 9
0001
0000
0001
0000
,  // measure 10
1000
1000
0001
0001
,  // measure 11
1000
1000
0001
0001
,  // measure 12
0001
0000
0001
0000
,  // measure 13
1000
0000
1000
0000
,  // measure 14
0001
0001
1000
1000
,  // measure 15
0001
0001
1000
1000
,  // measure 16
0010
0000
0010
0000
,  // measure 17
0100
0000
0100
0000
,  // measure 18
0010
0010
0100
0100
,  // measure 19
0010
0010
0100
0100
,  // measure 20
1010
0000
0011
0000
,  // measure 21
0101
0000
1100
0000
,  // measure 22
1000
0001
1000
0001
1000
0001
1000
0000
,  // measure 23
1010
0000
0000
0010
0000
0000
0011
0000
,  // measure 24
0101
0000
0000
0100
0000
0000
1100
0000
,  // measure 25
0011
0000
0000
0001
0000
0000
0101
0000
,  // measure 26
1000
0100
0010
0100
1000
0001
0010
0000
,  // measure 27
0101
0000
0000
0100
0000
0000
1100
0000
,  // measure 28
1010
0000
0000
0010
0000
0000
0011
0000
,  // measure 29
1000
0100
1000
0000
0100
0001
0100
0000
,  // measure 30
0001
0010
0100
0010
0001
1000
0100
0000
,  // measure 31
0010
0000
0010
0000
1000
0010
1000
0000
,  // measure 32
0100
0000
0100
0000
0001
0100
0001
0000
,  // measure 33
1000
0000
1000
0000
0001
1000
0001
0000
,  // measure 34
1000
0001
1000
0000
0010
0100
0010
0000
,  // measure 35
0100
0000
0100
0000
0001
0100
0001
0000
,  // measure 36
0010
0000
0010
0000
1000
0010
1000
0000
,  // measure 37
0001
0000
0001
0000
1000
0001
1000
0000
,  // measure 38
0001
1000
0001
0000
0100
0010
0100
0000
,  // measure 39
0010
0000
0010
0000
1000
0010
1000
0000
,  // measure 40
0100
0000
0100
0000
0001
0100
0001
0000
,  // measure 41
1000
0000
1000
0000
0001
1000
0001
0000
,  // measure 42
1000
0001
1000
0000
0010
0100
0010
0000
,  // measure 43
1000
0100
1000
0000
1000
0010
0001
0000
,  // measure 44
0001
0010
0001
0000
0001
0100
1000
0000
,  // measure 45
1000
0100
0001
1000
0100
0001
0100
0010
,  // measure 46
0200
0000
0010
0300
,  // measure 47
0100
0000
0100
0000
0001
0100
0001
0000
,  // measure 48
0010
0000
0010
0000
1000
0010
1000
0000
,  // measure 49
0001
0000
0001
0000
1000
0001
1000
0000
,  // measure 50
0001
1000
0001
0000
0100
0010
0100
0000
,  // measure 51
0010
0000
0010
0000
1000
0010
1000
0000
,  // measure 52
0100
0000
0100
0000
0001
0100
0001
0000
,  // measure 53
1000
0000
1000
0000
0001
1000
0001
0000
,  // measure 54
1000
0001
1000
0000
0010
0100
0010
0000
,  // measure 55
0100
0000
0100
0000
0001
0100
0001
0000
,  // measure 56
0010
0000
0010
0000
1000
0010
1000
0000
,  // measure 57
0001
0000
0001
0000
1000
0001
1000
0000
,  // measure 58
0001
1000
0001
0000
0100
0010
0100
0000
,  // measure 59
0001
0010
0001
0000
0001
0100
1000
0000
,  // measure 60
1000
0100
1000
0000
1000
0010
0001
0000
,  // measure 61
0001
0010
1000
0001
0010
1000
0010
0100
,  // measure 62
0020
0000
0100
0030
,  // measure 63
2000
0000
0000
0000
0000
0000
0000
0000
3010
0001
0000
0000
0001
0010
0000
0000
,  // measure 64
0002
0000
0000
0000
0000
0000
0000
0000
0103
1000
0000
0000
1000
0100
0000
0000
,  // measure 65
0020
0000
0000
0000
0000
0000
0000
0000
0031
0100
0000
0000
0100
0001
0000
0000
,  // measure 66
0200
0000
0000
0000
0000
0000
0000
0000
1300
0010
0000
0000
0010
1000
0000
0000
,  // measure 67
0002
0000
0000
0000
0000
0000
0000
0000
0103
1000
0000
0000
1000
0100
0000
0000
,  // measure 68
2000
0000
0000
0000
0000
0000
0000
0000
3010
0001
0000
0000
0001
0010
0000
0000
,  // measure 69
0200
0000
0000
0000
0000
0000
0000
0000
1300
0010
0000
0000
0010
1000
0000
0000
,  // measure 70
0020
0000
0000
0000
0000
0000
0000
0000
0031
0100
0000
0000
0100
0001
0000
0000
,  // measure 71
1000
0010
0000
0000
0010
1000
0000
0000
0001
0010
0000
0000
0010
0001
0000
0000
,  // measure 72
0100
0000
0010
0000
0100
0000
0001
0000
1000
0100
0010
0001
0010
0100
0010
0000
,  // measure 73
0001
0100
0000
0000
0100
0001
0000
0000
1000
0100
0000
0000
0100
1000
0000
0000
,  // measure 74
0010
0000
0100
0000
0010
0000
1000
0000
0001
0010
0100
1000
0100
0010
0100
0000
,  // measure 75
0010
0001
0000
0000
0001
0010
0000
0000
0100
0001
0000
0000
0001
0100
0000
0000
,  // measure 76
0100
1000
0000
0000
1000
0100
0000
0000
0010
1000
0000
0000
1000
0010
0000
0000
,  // measure 77
1010
0010
0000
0011
0010
0000
1010
0000
,  // measure 78
0020
0000
0100
0100
0030
0000
0110
0000
,  // measure 79
1000
1000
0010
0001
,  // measure 80
1000
0100
1000
0010
1000
0100
1000
0100
,  // measure 81
0001
0001
0100
1000
,  // measure 82
0001
0010
0001
0100
0001
0010
0001
0010
,  // measure 83
0100
0100
1000
0010
,  // measure 84
0100
0001
0100
1000
0100
0001
0100
0001
,  // measure 85
0010
0010
0001
0100
,  // measure 86
0010
1000
0010
0001
0010
1000
0010
1000
,  // measure 87
0001
0001
0100
1000
,  // measure 88
0001
0010
0001
0100
0001
0010
0001
0010
,  // measure 89
1000
1000
0010
0001
,  // measure 90
1000
0100
1000
0010
1000
0100
1000
0100
,  // measure 91
0010
0010
0001
0100
,  // measure 92
0010
1000
0010
0001
0010
1000
0010
1000
,  // measure 93
0100
0100
1000
0010
,  // measure 94
0100
0001
0100
1000
0100
0001
0100
0001
,  // measure 95
1000
1000
0010
0001
,  // measure 96
1000
0100
1000
0010
1000
0100
1000
0100
,  // measure 97
0001
0001
0100
1000
,  // measure 98
0001
0010
0001
0100
0001
0010
0001
0010
,  // measure 99
0100
0100
1000
0010
,  // measure 100
0100
0001
0100
1000
0100
0001
0100
0001
,  // measure 101
0010
0010
0001
0100
,  // measure 102
0010
1000
0010
0001
0010
1000
0010
1000
,  // measure 103
0001
0001
0100
1000
,  // measure 104
0001
0010
0001
0100
0001
0010
0001
0010
,  // measure 105
1000
1000
0010
0001
,  // measure 106
1000
0100
1000
0010
1000
0100
1000
0100
,  // measure 107
0010
0010
0001
0100
,  // measure 108
0010
1000
0010
0001
0010
1000
0010
1000
,  // measure 109
0100
0100
1000
0010
,  // measure 110
0100
0001
0100
1000
0100
0001
0100
0001
,  // measure 111
0010
0000
0010
0000
1000
0010
1000
0000
,  // measure 112
0100
0000
0100
0000
0001
0100
0001
0000
,  // measure 113
1000
0000
1000
0000
0001
1000
0001
0000
,  // measure 114
1000
0001
1000
0000
0010
0100
0010
0000
,  // measure 115
0100
0000
0100
0000
0001
0100
0001
0000
,  // measure 116
0010
0000
0010
0000
1000
0010
1000
0000
,  // measure 117
0001
0000
0001
0000
1000
0001
1000
0000
,  // measure 118
0001
1000
0001
0000
0100
0010
0100
0000
,  // measure 119
0010
0000
0010
0000
1000
0010
1000
0000
,  // measure 120
0100
0000
0100
0000
0001
0100
0001
0000
,  // measure 121
1000
0000
1000
0000
0001
1000
0001
0000
,  // measure 122
1000
0001
1000
0000
0010
0100
0010
0000
,  // measure 123
1000
0100
1000
0000
1000
0010
0001
0000
,  // measure 124
0001
0010
0001
0000
0001
0100
1000
0000
,  // measure 125
1000
0100
0001
1000
0100
0001
0100
0010
,  // measure 126
0200
0000
0010
0300
,  // measure 127
2000
0000
0000
0000
0000
0000
0000
0000
3010
0001
0000
0000
0001
0010
0000
0000
,  // measure 128
0002
0000
0000
0000
0000
0000
0000
0000
0103
1000
0000
0000
1000
0100
0000
0000
,  // measure 129
0020
0000
0000
0000
0000
0000
0000
0000
0031
0100
0000
0000
0100
0001
0000
0000
,  // measure 130
0200
0000
0000
0000
0000
0000
0000
0000
1300
0010
0000
0000
0010
1000
0000
0000
,  // measure 131
0002
0000
0000
0000
0000
0000
0000
0000
0103
1000
0000
0000
1000
0100
0000
0000
,  // measure 132
2000
0000
0000
0000
0000
0000
0000
0000
3010
0001
0000
0000
0001
0010
0000
0000
,  // measure 133
0200
0000
0000
0000
0000
0000
0000
0000
1300
0010
0000
0000
0010
1000
0000
0000
,  // measure 134
0020
0000
0000
0000
0000
0000
0000
0000
0031
0100
0000
0000
0100
0001
0000
0000
,  // measure 135
1000
0010
0000
0000
0010
1000
0000
0000
0001
0010
0000
0000
0010
0001
0000
0000
,  // measure 136
0100
0000
0010
0000
0100
0000
0001
0000
1000
0100
0010
0001
0010
0100
0010
0000
,  // measure 137
0001
0100
0000
0000
0100
0001
0000
0000
1000
0100
0000
0000
0100
1000
0000
0000
,  // measure 138
0010
0000
0100
0000
0010
0000
1000
0000
0001
0010
0100
1000
0100
0010
0100
0000
,  // measure 139
0010
0001
0000
0000
0001
0010
0000
0000
0100
0001
0000
0000
0001
0100
0000
0000
,  // measure 140
0100
1000
0000
0000
1000
0100
0000
0000
0010
1000
0000
0000
1000
0010
0000
0000
,  // measure 141
1010
0010
0000
0011
0010
0000
1010
0000
,  // measure 142
0020
0000
0100
0100
0030
0000
0110
0000
,  // measure 143
1000
1000
0010
0001
,  // measure 144
1000
0100
1000
0010
1000
0100
1000
0100
,  // measure 145
0001
0001
0100
1000
,  // measure 146
0001
0010
0001
0100
0001
0010
0001
0010
,  // measure 147
0100
0100
1000
0010
,  // measure 148
0100
0001
0100
1000
0100
0001
0100
0001
,  // measure 149
0010
0010
0001
0100
,  // measure 150
0010
1000
0010
0001
0010
1000
0010
1000
,  // measure 151
0001
0001
0100
1000
,  // measure 152
0001
0010
0001
0100
0001
0010
0001
0010
,  // measure 153
1000
1000
0010
0001
,  // measure 154
1000
0100
1000
0010
1000
0100
1000
0100
,  // measure 155
0010
0010
0001
0100
,  // measure 156
0010
1000
0010
0001
0010
1000
0010
1000
,  // measure 157
0100
0100
1000
0010
,  // measure 158
0100
0001
0100
1000
0100
0001
0100
0001
,  // measure 159
1000
1000
0010
0001
,  // measure 160
1000
0100
1000
0010
1000
0100
1000
0100
,  // measure 161
0001
0001
0100
1000
,  // measure 162
0001
0010
0001
0100
0001
0010
0001
0010
,  // measure 163
0100
0100
1000
0010
,  // measure 164
0100
0001
0100
1000
0100
0001
0100
0001
,  // measure 165
0010
0010
0001
0100
,  // measure 166
0010
1000
0010
0001
0010
1000
0010
1000
,  // measure 167
0001
0001
0100
1000
,  // measure 168
0001
0010
0001
0100
0001
0010
0001
0010
,  // measure 169
1000
1000
0010
0001
,  // measure 170
1000
0100
1000
0010
1000
0100
1000
0100
,  // measure 171
0010
0010
0001
0100
,  // measure 172
0010
1000
0010
0001
0010
1000
0010
1000
,  // measure 173
0100
0100
1000
0010
,  // measure 174
0100
0001
0100
1000
0100
0001
0100
0001
,  // measure 175
0010
0000
0010
0000
0010
0000
0010
0000
0010
0000
0010
0000
0010
0100
0010
0000
,  // measure 176
0100
0000
0100
0000
0100
0000
0100
0000
0100
0000
0100
0000
0100
0010
0100
0000
,  // measure 177
1000
0000
1000
0000
1000
0000
1000
0000
1000
0000
1000
0000
1000
0001
1000
0000
,  // measure 178
0001
1000
0001
1000
0001
1000
0001
1000
0001
1000
0001
1000
0001
1000
0001
1000
,  // measure 179
0010
0100
0001
0010
0000
0010
0100
0000
,  // measure 180
0100
0010
1000
0100
0000
0100
0010
0000
,  // measure 181
0001
1000
0100
0001
0000
0001
1000
0000
,  // measure 182
1000
0001
0010
1000
0000
1000
0001
0000
,  // measure 183
0010
0100
0001
0010
0000
0010
0100
0000
,  // measure 184
0100
0010
1000
0100
0000
0100
0010
0000
,  // measure 185
0001
1000
0100
0001
0000
0001
1000
0000
,  // measure 186
1000
0001
0010
1000
0000
1000
0001
0000
,  // measure 187
1000
0100
1000
0000
0202
0000
0000
0303
,  // measure 188
0001
0010
0001
0000
2020
0000
0000
3030
,  // measure 189
0010
1000
0010
0000
2200
0000
0000
3300
,  // measure 190
0100
0001
0100
0000
0022
0000
0000
0033
,  // measure 191
0001
0010
0001
0000
2020
0000
0000
3030
,  // measure 192
1000
0100
1000
0000
0202
0000
0000
0303
,  // measure 193
1000
0100
0010
0001
1000
0100
0010
0001
,  // measure 194
1000
0100
0010
0001
1000
0100
0010
0001
,  // measure 195
1000
0100
1000
0010
1000
0001
1000
0100
,  // measure 196
0001
0010
0001
0100
0001
1000
0001
0010
,  // measure 197
0100
0001
0100
1000
0100
0010
0100
0001
,  // measure 198
0010
1000
0010
0001
0010
0100
0010
1000
,  // measure 199
0020
0000
0100
0100
,  // measure 200
0230
0000
0010
0010
,  // measure 201
2300
0000
0001
0001
,  // measure 202
3002
0000
1000
1000
,  // measure 203
1003
0100
1000
0010
1000
0001
1000
0100
,  // measure 204
0001
0010
0001
0100
0001
1000
0001
0010
,  // measure 205
0100
0001
0100
1000
0100
0010
0100
0001
,  // measure 206
0010
1000
0010
0001
0010
0100
0010
1000
,  // measure 207
0001
0100
0001
0100
0001
0000
0001
0000
,  // measure 208
1000
0010
1000
0010
1000
0000
1000
0000
,  // measure 209
2002
0000
0000
0000
,  // measure 210
0000
0000
0000
3003
,  // measure 211
1000
0010
0000
0000
0010
1000
0000
0000
0001
0010
0000
0000
0010
0001
0000
0000
,  // measure 212
0100
0000
0010
0000
0100
0000
0001
0000
1000
0100
0010
0001
0010
0100
0010
0000
,  // measure 213
0001
0100
0000
0000
0100
0001
0000
0000
1000
0100
0000
0000
0100
1000
0000
0000
,  // measure 214
0010
0000
0100
0000
0010
0000
1000
0000
0001
0010
0100
1000
0100
0010
0100
0000
,  // measure 215
0010
0001
0000
0000
0001
0010
0000
0000
0100
0001
0000
0000
0001
0100
0000
0000
,  // measure 216
0100
1000
0000
0000
1000
0100
0000
0000
0010
1000
0000
0000
1000
0010
0000
0000
,  // measure 217
1010
0010
0000
0011
0010
0000
1010
0000
,  // measure 218
0020
0000
0100
0100
0030
0000
0110
0000
,  // measure 219
2000
0000
0000
0000
,  // measure 220
3002
0000
0000
0000
,  // measure 221
2003
0000
0000
0000
,  // measure 222
3002
0000
0000
0000
,  // measure 223
0203
0000
0000
0000
,  // measure 224
0320
0000
0000
0000
,  // measure 225
0230
0000
0000
0000
,  // measure 226
0320
0000
0000
0030
,  // measure 227
2002
0000
0000
0000
,  // measure 228
0000
0000
0000
0000
0000
0000
0000
3003
,  // measure 229
1000
1000
0010
0001
,  // measure 230
1000
0100
1000
0010
1000
0100
1000
0100
,  // measure 231
0001
0001
0100
1000
,  // measure 232
0001
0010
0001
0100
0001
0010
0001
0010
,  // measure 233
0100
0100
1000
0010
,  // measure 234
0100
0001
0100
1000
0100
0001
0100
0001
,  // measure 235
0010
0010
0001
0100
,  // measure 236
0010
1000
0010
0001
0010
1000
0010
1000
,  // measure 237
0001
0001
0100
1000
,  // measure 238
0001
0010
0001
0100
0001
0010
0001
0010
,  // measure 239
1000
1000
0010
0001
,  // measure 240
1000
0100
1000
0010
1000
0100
1000
0100
,  // measure 241
0010
0010
0001
0100
,  // measure 242
0010
1000
0010
0001
0010
1000
0010
1000
,  // measure 243
0100
0100
1000
0010
,  // measure 244
0100
0001
0100
1000
0100
0001
0100
0001
,  // measure 245
0010
0000
0010
0000
1000
0010
1000
0000
,  // measure 246
0100
0000
0100
0000
0001
0100
0001
0000
,  // measure 247
1000
0000
1000
0000
0001
1000
0001
0000
,  // measure 248
1000
0001
1000
0000
0010
0100
0010
0000
,  // measure 249
0100
0000
0100
0000
0001
0100
0001
0000
,  // measure 250
0010
0000
0010
0000
1000
0010
1000
0000
,  // measure 251
0001
0000
0001
0000
1000
0001
1000
0000
,  // measure 252
0001
1000
0001
0000
0100
0010
0100
0000
,  // measure 253
0010
0000
0010
0000
1000
0010
1000
0000
,  // measure 254
0100
0000
0100
0000
0001
0100
0001
0000
,  // measure 255
1000
0000
1000
0000
0001
1000
0001
0000
,  // measure 256
1000
0001
1000
0000
0010
0100
0010
0000
,  // measure 257
1000
0100
1000
0000
1000
0010
0001
0000
,  // measure 258
0001
0010
0001
0000
0001
0100
1000
0000
,  // measure 259
1000
0100
0001
1000
0100
0001
0100
0010
,  // measure 260
0200
0000
0010
0300
,  // measure 261
0100
0000
0100
0000
0001
0100
0001
0000
,  // measure 262
0010
0000
0010
0000
1000
0010
1000
0000
,  // measure 263
0001
0000
0001
0000
1000
0001
1000
0000
,  // measure 264
0001
1000
0001
0000
0100
0010
0100
0000
,  // measure 265
0010
0000
0010
0000
1000
0010
1000
0000
,  // measure 266
0100
0000
0100
0000
0001
0100
0001
0000
,  // measure 267
1000
0000
1000
0000
0001
1000
0001
0000
,  // measure 268
1000
0001
1000
0000
0010
0100
0010
0000
,  // measure 269
0100
0000
0100
0000
0001
0100
0001
0000
,  // measure 270
0010
0000
0010
0000
1000
0010
1000
0000
,  // measure 271
0001
0000
0001
0000
1000
0001
1000
0000
,  // measure 272
0001
1000
0001
0000
0100
0010
0100
0000
,  // measure 273
0001
0010
0001
0000
0001
0100
1000
0000
,  // measure 274
1000
0100
1000
0000
1000
0010
0001
0000
,  // measure 275
0001
0010
1000
0001
0010
1000
0010
0100
,  // measure 276
0020
0000
0100
0030
,  // measure 277
1000
0100
0001
1000
0100
0001
0100
0010
,  // measure 278
0200
0000
0020
0000
,  // measure 279
0000
0000
0000
0000
,  // measure 280
0000
0000
0000
0000
,  // measure 281
0000
0000
0000
0000
,  // measure 282
0000
0000
0000
0000
,  // measure 283
0330
0000
0000
0000
;

//---------------dance-single - ----------------
#NOTEDATA:;
#CHARTNAME:;
#STEPSTYPE:dance-single;
#DESCRIPTION:;
#CHARTSTYLE:;
#DIFFICULTY:Beginner;
#METER:14;
#RADARVALUES:0.714006,1.099310,0.110985,0.203473,0.105436,1351.000000,1321.000000,30.000000,55.000000,0.000000,0.000000,0.000000,0.000000,0.000000,0.714006,1.099310,0.110985,0.203473,0.105436,1351.000000,1321.000000,30.000000,55.000000,0.000000,0.000000,0.000000,0.000000,0.000000;
#CREDIT:;
#NOTES:
0000
0000
0000
0000
,
0000
0000
0000
0000
,
0000
0000
0000
0000
,
0000
0000
0000
0000
,
0000
0000
0000
0000
,
0000
0000
0000
0000
,
0000
0000
0000
0000
,
0000
0000
0000
0000
,
1000
0000
1000
0000
,
0001
0000
0001
0000
,
1000
1000
0001
0001
,
1000
1000
0001
0001
,
0001
0000
0001
0000
,
1000
0000
1000
0000
,
0001
0001
1000
1000
,
0001
0001
1000
1000
,
0010
0000
0010
0000
,
0100
0000
0100
0000
,
0010
0010
0100
0100
,
0010
0010
0100
0100
,
1010
0000
0011
0000
,
0101
0000
1100
0000
,
1000
0000
0001
0000
1000
0001
1000
0000
,
1010
0000
0000
0010
0000
0000
0001
0000
,
0101
0000
0000
0100
0000
0000
1000
0000
,
0011
0000
0000
0001
0000
0000
0100
0000
,
1000
0100
0010
0000
1000
0001
0010
0000
,
0101
0000
0000
0100
0000
0000
1000
0000
,
1010
0000
0000
0010
0000
0000
0001
0000
,
1000
0100
0000
0000
0100
0001
0000
0000
,
0001
0010
0100
0000
0001
1000
0100
0000
,
0010
0000
0010
0000
1000
0010
1000
0000
,
0100
0000
0100
0000
0001
0100
0001
0000
,
1000
0000
1000
0000
0001
1000
0001
0000
,
1000
0001
1000
0000
0001
1000
0001
0000
,
0100
0000
0100
0000
0001
0100
0001
0000
,
0010
0000
0010
0000
1000
0010
1000
0000
,
0001
0000
0001
0000
1000
0001
1000
0000
,
0001
1000
0001
0000
1000
0001
1000
0000
,
0010
0000
0010
0000
1000
0010
1000
0000
,
0100
0000
0100
0000
0001
0100
0001
0000
,
1000
0000
1000
0000
0001
1000
0001
0000
,
1000
0001
1000
0000
0001
1000
0001
0000
,
1000
0000
1000
0000
1000
0010
0001
0000
,
0001
0000
0001
0000
0001
0100
1000
0000
,
1000
0100
0001
0000
0100
0001
0100
0000
,
0200
0000
0000
0300
,
0100
0000
0100
0000
0001
0100
0001
0000
,
0010
0000
0010
0000
1000
0010
1000
0000
,
0001
0000
0001
0000
1000
0001
1000
0000
,
0001
1000
0001
0000
1000
0001
1000
0000
,
0010
0000
0010
0000
1000
0010
1000
0000
,
0100
0000
0100
0000
0001
0100
0001
0000
,
1000
0000
1000
0000
0001
1000
0001
0000
,
1000
0001
1000
0000
0001
1000
0001
0000
,
0100
0000
0100
0000
0001
0100
0001
0000
,
0010
0000
0010
0000
1000
0010
1000
0000
,
0001
0000
0001
0000
1000
0001
1000
0000
,
0001
1000
0001
0000
1000
0001
1000
0000
,
0001
0000
0001
0000
0001
0100
1000
0000
,
1000
0000
1000
0000
1000
0010
0001
0000
,
0001
0010
1000
0000
0010
1000
0010
0000
,
0020
0000
0000
0030
,
2000
0000
0000
0000
0000
0000
0000
0000
3010
0000
0000
0000
0001
0010
0000
0000
,
0002
0000
0000
0000
0000
0000
0000
0000
0103
0000
0000
0000
1000
0100
0000
0000
,
0020
0000
0000
0000
0000
0000
0000
0000
0031
0000
0000
0000
0100
0001
0000
0000
,
0200
0000
0000
0000
0000
0000
0000
0000
1300
0000
0000
0000
0010
1000
0000
0000
,
0002
0000
0000
0000
0000
0000
0000
0000
0103
0000
0000
0000
1000
0100
0000
0000
,
2000
0000
0000
0000
0000
0000
0000
0000
3010
0000
0000
0000
0001
0010
0000
0000
,
0200
0000
0000
0000
0000
0000
0000
0000
1300
0000
0000
0000
0010
1000
0000
0000
,
0020
0000
0000
0000
0000
0000
0000
0000
0031
0000
0000
0000
0100
0001
0000
0000
,
1000
0000
0000
0000
0010
1000
0000
0000
0001
0010
0000
0000
0010
0001
0000
0000
,
0100
0000
0010
0000
0100
0000
0001
0000
1000
0100
0010
0001
0010
0000
0010
0000
,
0001
0000
0000
0000
0100
0001
0000
0000
1000
0000
0000
0000
0100
1000
0000
0000
,
0010
0000
0100
0000
0010
0000
1000
0000
0001
0010
0100
1000
0100
0000
0100
0000
,
0010
0000
0000
0000
0001
0010
0000
0000
0100
0000
0000
0000
0001
0100
0000
0000
,
0100
0000
0000
0000
1000
0100
0000
0000
0010
0000
0000
0000
1000
0010
0000
0000
,
1010
0000
0000
0011
0000
0000
1010
0000
,
0020
0100
0030
0110
,
1000
1000
0010
0001
,
1000
0100
1000
0010
1000
0100
1000
0000
,
0001
0001
0100
1000
,
0001
0010
0001
0100
0001
0010
0001
0000
,
0100
0100
1000
0010
,
0100
0001
0100
1000
0100
0001
0100
0000
,
0010
0010
0001
0100
,
0010
1000
0010
0001
0010
1000
0010
0000
,
0001
0001
0100
1000
,
0001
0010
0001
0100
0001
0010
0001
0000
,
1000
1000
0010
0001
,
1000
0100
1000
0010
1000
0100
1000
0000
,
0010
0010
0001
0100
,
0010
1000
0010
0001
0010
1000
0010
0000
,
0100
0100
1000
0010
,
0100
0001
0100
1000
0100
0001
0100
0000
,
1000
1000
0010
0001
,
1000
0100
1000
0010
1000
0100
1000
0000
,
0001
0001
0100
1000
,
0001
0010
0001
0100
0001
0010
0001
0000
,
0100
0100
1000
0010
,
0100
0001
0100
1000
0100
0001
0100
0000
,
0010
0010
0001
0100
,
0010
1000
0010
0001
0010
1000
0010
0000
,
0001
0001
0100
1000
,
0001
0010
0001
0100
0001
0010
0001
0000
,
1000
1000
0010
0001
,
1000
0100
1000
0010
1000
0100
1000
0000
,
0010
0010
0001
0100
,
0010
1000
0010
0001
0010
1000
0010
0000
,
0100
0100
1000
0010
,
0100
0001
0100
1000
0100
0001
0100
0000
,
0010
0000
0010
0000
1000
0010
1000
0000
,
0100
0000
0100
0000
0001
0100
0001
0000
,
1000
0000
1000
0000
0001
1000
0001
0000
,
1000
0001
1000
0000
0001
1000
0001
0000
,
0100
0000
0100
0000
0001
0100
0001
0000
,
0010
0000
0010
0000
1000
0010
1000
0000
,
0001
0000
0001
0000
1000
0001
1000
0000
,
0001
1000
0001
0000
1000
0001
1000
0000
,
0010
0000
0010
0000
1000
0010
1000
0000
,
0100
0000
0100
0000
0001
0100
0001
0000
,
1000
0000
1000
0000
0001
1000
0001
0000
,
1000
0001
1000
0000
0001
1000
0001
0000
,
1000
0000
1000
0000
1000
0010
0001
0000
,
0001
0000
0001
0000
0001
0100
1000
0000
,
1000
0100
0001
0000
0100
0001
0100
0000
,
0200
0000
0000
0300
,
2000
0000
0000
0000
0000
0000
0000
0000
3010
0000
0000
0000
0001
0010
0000
0000
,
0002
0000
0000
0000
0000
0000
0000
0000
0103
0000
0000
0000
1000
0100
0000
0000
,
0020
0000
0000
0000
0000
0000
0000
0000
0031
0000
0000
0000
0100
0001
0000
0000
,
0200
0000
0000
0000
0000
0000
0000
0000
1300
0000
0000
0000
0010
1000
0000
0000
,
0002
0000
0000
0000
0000
0000
0000
0000
0103
0000
0000
0000
1000
0100
0000
0000
,
2000
0000
0000
0000
0000
0000
0000
0000
3010
0000
0000
0000
0001
0010
0000
0000
,
0200
0000
0000
0000
0000
0000
0000
0000
1300
0000
0000
0000
0010
1000
0000
0000
,
0020
0000
0000
0000
0000
0000
0000
0000
0031
0000
0000
0000
0100
0001
0000
0000
,
1000
0000
0000
0000
0010
1000
0000
0000
0001
0000
0000
0000
0010
0001
0000
0000
,
0100
0000
0010
0000
0100
0000
0001
0000
1000
0100
0010
0001
0010
0000
0010
0000
,
0001
0000
0000
0000
0100
0001
0000
0000
1000
0000
0000
0000
0100
1000
0000
0000
,
0010
0000
0100
0000
0010
0000
1000
0000
0001
0010
0100
1000
0100
0000
0100
0000
,
0010
0000
0000
0000
0001
0010
0000
0000
0100
0000
0000
0000
0001
0100
0000
0000
,
0100
0000
0000
0000
1000
0100
0000
0000
0010
0000
0000
0000
1000
0010
0000
0000
,
1010
0000
0000
0011
0000
0000
1010
0000
,
0020
0100
0030
0110
,
1000
1000
0010
0001
,
1000
0100
1000
0010
1000
0100
1000
0000
,
0001
0001
0100
1000
,
0001
0010
0001
0100
0001
0010
0001
0000
,
0100
0100
1000
0010
,
0100
0001
0100
1000
0100
0001
0100
0000
,
0010
0010
0001
0100
,
0010
1000
0010
0001
0010
1000
0010
0000
,
0001
0001
0100
1000
,
0001
0010
0001
0100
0001
0010
0001
0000
,
1000
1000
0010
0001
,
1000
0100
1000
0010
1000
0100
1000
0000
,
0010
0010
0001
0100
,
0010
1000
0010
0001
0010
1000
0010
0000
,
0100
0100
1000
0010
,
0100
0001
0100
1000
0100
0001
0100
0000
,
1000
1000
0010
0001
,
1000
0100
1000
0010
1000
0100
1000
0000
,
0001
0001
0100
1000
,
0001
0010
0001
0100
0001
0010
0001
0000
,
0100
0100
1000
0010
,
0100
0001
0100
1000
0100
0001
0100
0000
,
0010
0010
0001
0100
,
0010
1000
0010
0001
0010
1000
0010
0000
,
0001
0001
0100
1000
,
0001
0010
0001
0100
0001
0010
0001
0000
,
1000
1000
0010
0001
,
1000
0100
1000
0010
1000
0100
1000
0000
,
0010
0010
0001
0100
,
0010
1000
0010
0001
0010
1000
0010
0000
,
0100
0100
1000
0010
,
0100
0001
0100
1000
0100
0001
0100
0000
,
0010
0010
0010
0010
0010
0010
0010
0010
,
0100
0100
0100
0100
0100
0100
0100
0100
,
1000
1000
1000
1000
1000
1000
1000
1000
,
0001
0000
1000
0000
0001
0000
1000
0000
0001
1000
0001
1000
0001
1000
0001
1000
,
0010
0000
0001
0010
0000
0010
0100
0000
,
0100
0000
1000
0100
0000
0100
0010
0000
,
0001
0000
0100
0001
0000
0001
1000
0000
,
1000
0000
0010
1000
0000
1000
0001
0000
,
0010
0000
0001
0010
0000
0010
0100
0000
,
0100
0000
1000
0100
0000
0100
0010
0000
,
0001
0000
0100
0001
0000
0001
1000
0000
,
1000
0000
0010
1000
0000
1000
0001
0000
,
1000
0000
1000
0000
0202
0000
0000
0303
,
0001
0000
0001
0000
2020
0000
0000
3030
,
0010
0000
0010
0000
2200
0000
0000
3300
,
0100
0000
0100
0000
0022
0000
0000
0033
,
0001
0000
0001
0000
2020
0000
0000
3030
,
1000
0000
1000
0000
0202
0000
0000
0303
,
2002
0000
0000
3003
,
1000
0100
0010
0001
1000
0100
0010
0001
,
1000
0100
1000
0000
1000
0001
1000
0000
,
0001
0010
0001
0000
0001
1000
0001
0000
,
0100
0001
0100
0000
0100
0010
0100
0000
,
0010
1000
0010
0000
0010
0100
0010
0000
,
0020
0000
0100
0100
,
0230
0000
0010
0010
,
2300
0000
0001
0001
,
3002
0000
1000
1000
,
1003
0100
1000
0000
1000
0001
1000
0000
,
0001
0010
0001
0000
0001
1000
0001
0000
,
0100
0001
0100
0000
0100
0010
0100
0000
,
0010
1000
0010
0000
0010
0100
0010
0000
,
0001
0000
0001
0100
0001
0000
0001
0000
,
1000
0000
1000
0010
1000
0000
1000
0000
,
2002
0000
0000
0000
,
0000
0000
0000
3003
,
1000
0000
0000
0000
0010
1000
0000
0000
0001
0000
0000
0000
0010
0001
0000
0000
,
0100
0000
0010
0000
0100
0000
0001
0000
1000
0100
0010
0001
0010
0000
0010
0000
,
0001
0000
0000
0000
0100
0001
0000
0000
1000
0000
0000
0000
0100
1000
0000
0000
,
0010
0000
0100
0000
0010
0000
1000
0000
0001
0010
0100
1000
0100
0000
0100
0000
,
0010
0000
0000
0000
0001
0010
0000
0000
0100
0000
0000
0000
0001
0100
0000
0000
,
0100
0000
0000
0000
1000
0100
0000
0000
0010
0000
0000
0000
1000
0010
0000
0000
,
1010
0000
0000
0011
0000
0000
1010
0000
,
0020
0100
0030
0110
,
2000
0000
0000
0000
,
3002
0000
0000
0000
,
2003
0000
0000
0000
,
3002
0000
0000
0000
,
2003
0000
0000
0000
,
3002
0000
0000
0000
,
2003
0000
0000
0000
,
3002
0000
0000
0003
,
2002
0000
0000
0000
,
0000
0000
0000
0000
0000
0000
0000
3003
,
1000
1000
0010
0001
,
1000
0100
1000
0010
1000
0100
1000
0000
,
0001
0001
0100
1000
,
0001
0010
0001
0100
0001
0010
0001
0000
,
0100
0100
1000
0010
,
0100
0001
0100
1000
0100
0001
0100
0000
,
0010
0010
0001
0100
,
0010
1000
0010
0001
0010
1000
0010
0000
,
0001
0001
0100
1000
,
0001
0010
0001
0100
0001
0010
0001
0000
,
1000
1000
0010
0001
,
1000
0100
1000
0010
1000
0100
1000
0000
,
0010
0010
0001
0100
,
0010
1000
0010
0001
0010
1000
0010
0000
,
0100
0100
1000
0010
,
0100
0001
0100
1000
0100
0001
0100
0000
,
0010
0000
0010
0000
1000
0010
1000
0000
,
0100
0000
0100
0000
0001
0100
0001
0000
,
1000
0000
1000
0000
0001
1000
0001
0000
,
1000
0001
1000
0000
0001
1000
0001
0000
,
0100
0000
0100
0000
0001
0100
0001
0000
,
0010
0000
0010
0000
1000
0010
1000
0000
,
0001
0000
0001
0000
1000
0001
1000
0000
,
0001
1000
0001
0000
1000
0001
1000
0000
,
0010
0000
0010
0000
1000
0010
1000
0000
,
0100
0000
0100
0000
0001
0100
0001
0000
,
1000
0000
1000
0000
0001
1000
0001
0000
,
1000
0001
1000
0000
0001
1000
0001
0000
,
1000
0000
1000
0000
1000
0010
0001
0000
,
0001
0000
0001
0000
0001
0100
1000
0000
,
1000
0100
0001
0000
0100
0001
0100
0000
,
0200
0000
0000
0300
,
0100
0000
0100
0000
0001
0100
0001
0000
,
0010
0000
0010
0000
1000
0010
1000
0000
,
0001
0000
0001
0000
1000
0001
1000
0000
,
0001
1000
0001
0000
1000
0001
1000
0000
,
0010
0000
0010
0000
1000
0010
1000
0000
,
0100
0000
0100
0000
0001
0100
0001
0000
,
1000
0000
1000
0000
0001
1000
0001
0000
,
1000
0001
1000
0000
0001
1000
0001
0000
,
0100
0000
0100
0000
0001
0100
0001
0000
,
0010
0000
0010
0000
1000
0010
1000
0000
,
0001
0000
0001
0000
1000
0001
1000
0000
,
0001
1000
0001
0000
1000
0001
1000
0000
,
0001
0000
0001
0000
0001
0100
1000
0000
,
1000
0000
1000
0000
1000
0010
0001
0000
,
0001
0010
1000
0000
0010
1000
0010
0000
,
0020
0000
0000
0030
,
1000
0100
0001
0000
0100
0001
0100
0000
,
0200
0000
0000
0000
,
0000
0000
0000
0000
,
0000
0000
0000
0000
,
0000
0000
0000
0000
,
0000
0000
0000
0000
,
0300
0000
0000
0000
;

//---------------dance-single - ----------------
#NOTEDATA:;
#CHARTNAME:;
#STEPSTYPE:dance-single;
#DESCRIPTION:;
#CHARTSTYLE:;
#DIFFICULTY:Medium;
#METER:17;
#RADARVALUES:0.899510,1.413398,0.147980,0.240468,0.207173,1702.000000,1662.000000,40.000000,65.000000,0.000000,0.000000,0.000000,0.000000,0.000000,0.899510,1.413398,0.147980,0.240468,0.207173,1702.000000,1662.000000,40.000000,65.000000,0.000000,0.000000,0.000000,0.000000,0.000000;
#CREDIT:;
#NOTES:
0000
0000
0000
0000
,
0000
0000
0000
0000
,
0000
0000
0000
0000
,
0000
0000
0000
0000
,
0000
0000
0000
0000
,
0000
0000
0000
0000
,
0000
0000
0000
0000
,
0000
0000
0000
0000
,
1000
0000
1000
0000
,
0001
0000
0001
0000
,
1000
1000
0001
0001
,
0100
0100
0010
0010
,
0001
0000
0001
0000
,
1000
0000
1000
0000
,
0001
0001
1000
1000
,
0010
0010
0100
0100
,
0010
0000
0010
0000
,
0100
0000
0100
0000
,
0010
0010
0100
0100
,
0001
0001
1000
1000
,
1010
0010
0011
0000
,
0101
0100
1100
0000
,
1000
0001
1000
0001
1000
0001
1000
0000
,
1010
0000
0000
0110
0000
0000
0011
0000
,
0101
0000
0000
0110
0000
0000
1100
0000
,
0011
0000
0000
1001
0000
0000
0101
0000
,
1000
0100
0010
0100
1000
0001
0010
0000
,
0101
0000
0000
0110
0000
0000
1100
0000
,
1010
0000
0000
0110
0000
0000
0011
0000
,
1000
0100
1000
0010
0100
0001
0100
0000
,
0001
0010
0100
0010
0001
1000
0100
0000
,
0010
1000
0010
0000
1000
0010
1000
0000
,
0100
0001
0100
0000
0001
0100
0001
0000
,
1000
0001
1000
0000
0001
1000
0001
0000
,
1000
0001
1000
0001
0010
0100
0010
0000
,
0100
0001
0100
0000
0001
0100
0001
0000
,
0010
1000
0010
0000
1000
0010
1000
0000
,
0001
1000
0001
0000
1000
0001
1000
0000
,
0001
1000
0001
1000
0100
0010
0100
0000
,
0010
1000
0010
0000
1000
0010
1000
0000
,
0100
0001
0100
0000
0001
0100
0001
0000
,
1000
0001
1000
0000
0001
1000
0001
0000
,
1000
0001
1000
0001
0010
0100
0010
0000
,
1000
0100
1000
0100
1000
0010
0001
0000
,
0001
0010
0001
0010
0001
0100
1000
0000
,
1000
0100
0001
1000
0100
0001
0100
0010
,
0200
0010
0010
0300
,
0100
0001
0100
0000
0001
0100
0001
0000
,
0010
1000
0010
0000
1000
0010
1000
0000
,
0001
1000
0001
0000
1000
0001
1000
0000
,
0001
1000
0001
1000
0100
0010
0100
0000
,
0010
1000
0010
0000
1000
0010
1000
0000
,
0100
0001
0100
0000
0001
0100
0001
0000
,
1000
0001
1000
0000
0001
1000
0001
0000
,
1000
0001
1000
0001
0010
0100
0010
0000
,
0100
0001
0100
0000
0001
0100
0001
0000
,
0010
1000
0010
0000
1000
0010
1000
0000
,
0001
1000
0001
0000
1000
0001
1000
0000
,
0001
1000
0001
1000
0100
0010
0100
0000
,
0001
0010
0001
0010
0001
0100
1000
0000
,
1000
0100
1000
0100
1000
0010
0001
0000
,
0001
0010
1000
0001
0010
1000
0010
0100
,
0020
0100
0100
0030
,
2000
0000
0000
0000
0001
0000
0000
0000
3010
0001
0000
0000
0001
0010
0000
0000
,
0002
0000
0000
0000
1000
0000
0000
0000
0103
1000
0000
0000
1000
0100
0000
0000
,
0020
0000
0000
0000
0100
0000
0000
0000
0031
0100
0000
0000
0100
0001
0000
0000
,
0200
0000
0000
0000
0010
0000
0000
0000
1300
0010
0000
0000
0010
1000
0000
0000
,
0002
0000
0000
0000
1000
0000
0000
0000
0103
1000
0000
0000
1000
0100
0000
0000
,
2000
0000
0000
0000
0001
0000
0000
0000
3010
0001
0000
0000
0001
0010
0000
0000
,
0200
0000
0000
0000
0010
0000
0000
0000
1300
0010
0000
0000
0010
1000
0000
0000
,
0020
0000
0000
0000
0100
0000
0000
0000
0031
0100
0000
0000
0100
0001
0000
0000
,
1000
0010
0000
0000
0010
1000
0000
0000
0001
0010
0000
0000
0010
0001
0000
0000
,
0100
0000
0010
0000
0100
0000
0001
0000
1000
0100
0010
0001
0010
0100
0010
0000
,
0001
0100
0000
0000
0100
0001
0000
0000
1000
0100
0000
0000
0100
1000
0000
0000
,
0010
0000
0100
0000
0010
0000
1000
0000
0001
0010
0100
1000
0100
0010
0100
0000
,
0010
0001
0000
0000
0001
0010
0000
0000
0100
0001
0000
0000
0001
0100
0000
0000
,
0100
1000
0000
0000
1000
0100
0000
0000
0010
1000
0000
0000
1000
0010
0000
0000
,
2010
0010
3000
0012
0010
0003
2010
0000
,
3020
0000
0100
0100
0030
0000
0110
0000
,
1000
0100
1000
0000
0010
0000
0001
0000
,
1000
0100
1000
0010
1000
0100
1000
0100
,
0001
0010
0001
0000
0100
0000
1000
0000
,
0001
0010
0001
0100
0001
0010
0001
0010
,
0100
0001
0100
0000
1000
0000
0010
0000
,
0100
0001
0100
1000
0100
0001
0100
0001
,
0010
1000
0010
0000
0001
0000
0100
0000
,
0010
1000
0010
0001
0010
1000
0010
1000
,
0001
0010
0001
0000
0100
0000
1000
0000
,
0001
0010
0001
0100
0001
0010
0001
0010
,
1000
0100
1000
0000
0010
0000
0001
0000
,
1000
0100
1000
0010
1000
0100
1000
0100
,
0010
1000
0010
0000
0001
0000
0100
0000
,
0010
1000
0010
0001
0010
1000
0010
1000
,
0100
0001
0100
0000
1000
0000
0010
0000
,
0100
0001
0100
1000
0100
0001
0100
0001
,
1000
0100
1000
0000
0010
0000
0001
0000
,
1000
0100
1000
0010
1000
0100
1000
0100
,
0001
0010
0001
0000
0100
0000
1000
0000
,
0001
0010
0001
0100
0001
0010
0001
0010
,
0100
0001
0100
0000
1000
0000
0010
0000
,
0100
0001
0100
1000
0100
0001
0100
0001
,
0010
1000
0010
0000
0001
0000
0100
0000
,
0010
1000
0010
0001
0010
1000
0010
1000
,
0001
0010
0001
0000
0100
0000
1000
0000
,
0001
0010
0001
0100
0001
0010
0001
0010
,
1000
0100
1000
0000
0010
0000
0001
0000
,
1000
0100
1000
0010
1000
0100
1000
0100
,
0010
1000
0010
0000
0001
0000
0100
0000
,
0010
1000
0010
0001
0010
1000
0010
1000
,
0100
0001
0100
0000
1000
0000
0010
0000
,
0100
0001
0100
1000
0100
0001
0100
0001
,
0010
1000
0010
0000
1000
0010
1000
0000
,
0100
0001
0100
0000
0001
0100
0001
0000
,
1000
0001
1000
0000
0001
1000
0001
0000
,
1000
0001
1000
0001
0010
0100
0010
0000
,
0100
0001
0100
0000
0001
0100
0001
0000
,
0010
1000
0010
0000
1000
0010
1000
0000
,
0001
1000
0001
0000
1000
0001
1000
0000
,
0001
1000
0001
1000
0100
0010
0100
0000
,
0010
1000
0010
0000
1000
0010
1000
0000
,
0100
0001
0100
0000
0001
0100
0001
0000
,
1000
0001
1000
0000
0001
1000
0001
0000
,
1000
0001
1000
0001
0010
0100
0010
0000
,
1000
0100
1000
0100
1000
0010
0001
0000
,
0001
0010
0001
0010
0001
0100
1000
0000
,
1000
0100
0001
1000
0100
0001
0100
0010
,
0200
0010
0010
0300
,
2000
0000
0000
0000
0001
0000
0000
0000
3010
0001
0000
0000
0001
0010
0000
0000
,
0002
0000
0000
0000
1000
0000
0000
0000
0103
1000
0000
0000
1000
0100
0000
0000
,
0020
0000
0000
0000
0100
0000
0000
0000
0031
0100
0000
0000
0100
0001
0000
0000
,
0200
0000
0000
0000
0010
0000
0000
0000
1300
0010
0000
0000
0010
1000
0000
0000
,
0002
0000
0000
0000
1000
0000
0000
0000
0103
1000
0000
0000
1000
0100
0000
0000
,
2000
0000
0000
0000
0001
0000
0000
0000
3010
0001
0000
0000
0001
0010
0000
0000
,
0200
0000
0000
0000
0010
0000
0000
0000
1300
0010
0000
0000
0010
1000
0000
0000
,
0020
0000
0000
0000
0100
0000
0000
0000
0031
0100
0000
0000
0100
0001
0000
0000
,
1000
0010
0000
0000
0010
1000
0000
0000
0001
0010
0000
0000
0010
0001
0000
0000
,
0100
0000
0010
0000
0100
0000
0001
0000
1000
0100
0010
0001
0010
0100
0010
0000
,
0001
0100
0000
0000
0100
0001
0000
0000
1000
0100
0000
0000
0100
1000
0000
0000
,
0010
0000
0100
0000
0010
0000
1000
0000
0001
0010
0100
1000
0100
0010
0100
0000
,
0010
0001
0000
0000
0001
0010
0000
0000
0100
0001
0000
0000
0001
0100
0000
0000
,
0100
1000
0000
0000
1000
0100
0000
0000
0010
1000
0000
0000
1000
0010
0000
0000
,
2010
0010
3000
0012
0010
0003
2010
0000
,
3020
0000
0100
0100
0030
0000
0110
0000
,
1000
0100
1000
0000
0010
0000
0001
0000
,
1000
0100
1000
0010
1000
0100
1000
0100
,
0001
0010
0001
0000
0100
0000
1000
0000
,
0001
0010
0001
0100
0001
0010
0001
0010
,
0100
0001
0100
0000
1000
0000
0010
0000
,
0100
0001
0100
1000
0100
0001
0100
0001
,
0010
1000
0010
0000
0001
0000
0100
0000
,
0010
1000
0010
0001
0010
1000
0010
1000
,
0001
0010
0001
0000
0100
0000
1000
0000
,
0001
0010
0001
0100
0001
0010
0001
0010
,
1000
0100
1000
0000
0010
0000
0001
0000
,
1000
0100
1000
0010
1000
0100
1000
0100
,
0010
1000
0010
0000
0001
0000
0100
0000
,
0010
1000
0010
0001
0010
1000
0010
1000
,
0100
0001
0100
0000
1000
0000
0010
0000
,
0100
0001
0100
1000
0100
0001
0100
0001
,
1000
0100
1000
0000
0010
0000
0001
0000
,
1000
0100
1000
0010
1000
0100
1000
0100
,
0001
0010
0001
0000
0100
0000
1000
0000
,
0001
0010
0001
0100
0001
0010
0001
0010
,
0100
0001
0100
0000
1000
0000
0010
0000
,
0100
0001
0100
1000
0100
0001
0100
0001
,
0010
1000
0010
0000
0001
0000
0100
0000
,
0010
1000
0010
0001
0010
1000
0010
1000
,
0001
0010
0001
0000
0100
0000
1000
0000
,
0001
0010
0001
0100
0001
0010
0001
0010
,
1000
0100
1000
0000
0010
0000
0001
0000
,
1000
0100
1000
0010
1000
0100
1000
0100
,
0010
1000
0010
0000
0001
0000
0100
0000
,
0010
1000
0010
0001
0010
1000
0010
1000
,
0100
0001
0100
0000
1000
0000
0010
0000
,
0100
0001
0100
1000
0100
0001
0100
0001
,
0010
0100
0010
0000
0010
0000
0010
0000
0010
0000
0010
0000
0010
0100
0010
0000
,
0100
0010
0100
0000
0100
0000
0100
0000
0100
0000
0100
0000
0100
0010
0100
0000
,
1000
0001
1000
0000
1000
0000
1000
0000
1000
0000
1000
0000
1000
0001
1000
0000
,
0001
1000
0001
1000
0001
1000
0001
1000
0010
0100
0010
0100
0010
0100
0010
0100
,
0010
0100
0001
0010
1000
0010
0100
0000
,
0100
0010
1000
0100
0001
0100
0010
0000
,
0001
1000
0100
0001
0010
0001
1000
0000
,
1000
0001
0010
1000
0100
1000
0001
0000
,
0010
0100
0001
0010
1000
0010
0100
0000
,
0100
0010
1000
0100
0001
0100
0010
0000
,
0001
1000
0100
0001
0010
0001
1000
0000
,
1000
0001
0010
1000
0100
1000
0001
0000
,
1000
0100
1000
0010
0202
0000
0000
0303
,
0001
0010
0001
0100
2020
0000
0000
3030
,
0010
1000
0010
0001
2200
0000
0000
3300
,
0100
0001
0100
1000
0022
0000
0000
0033
,
0001
0010
0001
0100
2020
0000
0000
3030
,
1000
0100
1000
0010
0202
0000
0000
0303
,
1000
0100
0010
0001
1000
0100
0010
0001
,
1000
0100
0010
0001
1000
0100
0010
0001
,
1000
0100
1000
0010
1000
0001
1000
0100
,
0001
0010
0001
0100
0001
1000
0001
0010
,
0100
0001
0100
1000
0100
0010
0100
0001
,
0010
1000
0010
0001
0010
0100
0010
1000
,
0020
0100
0100
0100
,
0230
0010
0010
0010
,
2300
0001
0001
0001
,
3002
1000
1000
1000
,
1003
0100
1000
0010
1000
0001
1000
0100
,
0001
0010
0001
0100
0001
1000
0001
0010
,
0100
0001
0100
1000
0100
0010
0100
0001
,
0010
1000
0010
0001
0010
0100
0010
1000
,
0001
0100
0001
0100
0001
0100
0001
0000
,
1000
0010
1000
0010
1000
0010
1000
0000
,
2002
0000
0000
3003
,
0220
0000
0000
0330
,
1000
0010
0000
0000
0010
1000
0000
0000
0001
0010
0000
0000
0010
0001
0000
0000
,
0100
0000
0010
0000
0100
0000
0001
0000
1000
0100
0010
0001
0010
0100
0010
0000
,
0001
0100
0000
0000
0100
0001
0000
0000
1000
0100
0000
0000
0100
1000
0000
0000
,
0010
0000
0100
0000
0010
0000
1000
0000
0001
0010
0100
1000
0100
0010
0100
0000
,
0010
0001
0000
0000
0001
0010
0000
0000
0100
0001
0000
0000
0001
0100
0000
0000
,
0100
1000
0000
0000
1000
0100
0000
0000
0010
1000
0000
0000
1000
0010
0000
0000
,
2010
0010
3000
0012
0010
0003
2010
0000
,
3020
0000
0100
0100
0030
0000
0110
0000
,
2000
0000
0001
0000
,
3002
0000
1000
0000
,
2003
0000
0001
0000
,
3002
0000
1000
0000
,
0203
0000
0010
0000
,
0320
0000
0100
0000
,
0230
0000
0010
0000
,
0320
0000
0100
0030
,
2002
0000
0000
0000
,
0000
0000
0000
0000
0000
0000
0000
3003
,
1000
0100
1000
0000
0010
0000
0001
0000
,
1000
0100
1000
0010
1000
0100
1000
0100
,
0001
0010
0001
0000
0100
0000
1000
0000
,
0001
0010
0001
0100
0001
0010
0001
0010
,
0100
0001
0100
0000
1000
0000
0010
0000
,
0100
0001
0100
1000
0100
0001
0100
0001
,
0010
1000
0010
0000
0001
0000
0100
0000
,
0010
1000
0010
0001
0010
1000
0010
1000
,
0001
0010
0001
0000
0100
0000
1000
0000
,
0001
0010
0001
0100
0001
0010
0001
0010
,
1000
0100
1000
0000
0010
0000
0001
0000
,
1000
0100
1000
0010
1000
0100
1000
0100
,
0010
1000
0010
0000
0001
0000
0100
0000
,
0010
1000
0010
0001
0010
1000
0010
1000
,
0100
0001
0100
0000
1000
0000
0010
0000
,
0100
0001
0100
1000
0100
0001
0100
0001
,
0010
1000
0010
0000
1000
0010
1000
0000
,
0100
0001
0100
0000
0001
0100
0001
0000
,
1000
0001
1000
0000
0001
1000
0001
0000
,
1000
0001
1000
0001
0010
0100
0010
0000
,
0100
0001
0100
0000
0001
0100
0001
0000
,
0010
1000
0010
0000
1000
0010
1000
0000
,
0001
1000
0001
0000
1000
0001
1000
0000
,
0001
1000
0001
1000
0100
0010
0100
0000
,
0010
1000
0010
0000
1000
0010
1000
0000
,
0100
0001
0100
0000
0001
0100
0001
0000
,
1000
0001
1000
0000
0001
1000
0001
0000
,
1000
0001
1000
0001
0010
0100
0010
0000
,
1000
0100
1000
0100
1000
0010
0001
0000
,
0001
0010
0001
0010
0001
0100
1000
0000
,
1000
0100
0001
1000
0100
0001
0100
0010
,
0200
0010
0010
0300
,
0100
0001
0100
0000
0001
0100
0001
0000
,
0010
1000
0010
0000
1000
0010
1000
0000
,
0001
1000
0001
0000
1000
0001
1000
0000
,
0001
1000
0001
1000
0100
0010
0100
0000
,
0010
1000
0010
0000
1000
0010
1000
0000
,
0100
0001
0100
0000
0001
0100
0001
0000
,
1000
0001
1000
0000
0001
1000
0001
0000
,
1000
0001
1000
0001
0010
0100
0010
0000
,
0100
0001
0100
0000
0001
0100
0001
0000
,
0010
1000
0010
0000
1000
0010
1000
0000
,
0001
1000
0001
0000
1000
0001
1000
0000
,
0001
1000
0001
1000
0100
0010
0100
0000
,
0001
0010
0001
0010
0001
0100
1000
0000
,
1000
0100
1000
0100
1000
0010
0001
0000
,
0001
0010
1000
0001
0010
1000
0010
0100
,
0020
0100
0100
0030
,
1000
0100
0001
1000
0100
0001
0100
0010
,
0200
0010
0020
0000
,
0000
0000
0000
0000
,
0000
0000
0000
0000
,
0000
0000
0000
0000
,
0000
0000
0000
0000
,
0330
0000
0000
0000
;

//---------------dance-single - ----------------
#NOTEDATA:;
#CHARTNAME:;
#STEPSTYPE:dance-single;
#DESCRIPTION:;
#CHARTSTYLE:;
#DIFFICULTY:Hard;
#METER:17;
#RADARVALUES:0.996225,1.465746,0.147980,0.240468,0.212722,1885.000000,1845.000000,40.000000,65.000000,0.000000,0.000000,0.000000,0.000000,0.000000,0.996225,1.465746,0.147980,0.240468,0.212722,1885.000000,1845.000000,40.000000,65.000000,0.000000,0.000000,0.000000,0.000000,0.000000;
#CREDIT:;
#NOTES:
0000
0000
0000
0000
,
0000
0000
0000
0000
,
0000
0000
0000
0000
,
0000
0000
0000
0000
,
0000
0000
0000
0000
,
0000
0000
0000
0000
,
0000
0000
0000
0000
,
0000
0000
0000
0000
,
1000
0000
1000
0000
,
0001
0000
0001
0000
,
1000
0010
0001
0100
,
0100
0100
0010
0010
,
0001
0000
0001
0000
,
1000
0000
1000
0000
,
0001
0100
1000
0010
,
0010
0010
0100
0100
,
0010
0000
0010
0000
,
0100
0000
0100
0000
,
0010
1000
0100
0001
,
0001
0001
1000
1000
,
1010
0010
0011
0001
,
0101
0100
1100
1000
,
1000
0100
0010
0001
1000
0100
0001
0000
,
1010
0000
0000
0110
0000
0000
0011
0000
,
0101
0000
0000
0110
0000
0000
1100
0000
,
0011
0000
0000
1001
0000
0000
0101
0000
,
1000
0100
0010
0100
1000
0001
0010
0000
,
0101
0000
0000
0110
0000
0000
1100
0000
,
1010
0000
0000
0110
0000
0000
0011
0000
,
1000
0100
1000
0010
0100
0001
0100
1000
,
0001
0010
0100
0010
0001
1000
0100
0001
,
0010
1000
0010
1000
0010
1000
0010
0000
,
0100
0001
0100
0001
0100
0001
0100
0000
,
1000
0001
1000
0001
1000
0001
1000
0000
,
1000
0001
1000
0001
0010
0100
0010
0001
,
0100
0001
0100
0001
0100
0001
0100
0000
,
0010
1000
0010
1000
0010
1000
0010
0000
,
0001
1000
0001
1000
0001
1000
0001
0000
,
0001
1000
0001
1000
0100
0010
0100
1000
,
0010
1000
0010
1000
0010
1000
0010
0000
,
0100
0001
0100
0001
0100
0001
0100
0000
,
1000
0001
1000
0001
1000
0001
1000
0000
,
1000
0001
1000
0001
0010
0100
0010
0001
,
1000
0100
1000
0100
1000
0010
0001
0010
,
0001
0010
0001
0010
0001
0100
1000
0100
,
1000
0100
0001
1000
0100
0001
0100
0010
,
0200
0010
0010
0300
,
0100
0001
0100
0001
0100
0001
0100
0000
,
0010
1000
0010
1000
0010
1000
0010
0000
,
0001
1000
0001
1000
0001
1000
0001
0000
,
0001
1000
0001
1000
0100
0010
0100
1000
,
0010
1000
0010
1000
0010
1000
0010
0000
,
0100
0001
0100
0001
0100
0001
0100
0000
,
1000
0001
1000
0001
1000
0001
1000
0000
,
1000
0001
1000
0001
0010
0100
0010
0001
,
0100
0001
0100
0001
0100
0001
0100
0000
,
0010
1000
0010
1000
0010
1000
0010
0000
,
0001
1000
0001
1000
0001
1000
0001
0000
,
0001
1000
0001
1000
0100
0010
0100
1000
,
0001
0010
0001
0010
0001
0100
1000
0100
,
1000
0100
1000
0100
1000
0010
0001
0010
,
0001
0010
1000
0001
0010
1000
0010
0100
,
0020
0100
0100
0030
,
2000
0000
0000
0000
0001
0000
0000
0000
3010
0001
0000
0000
0001
0010
1000
0000
,
0002
0000
0000
0000
1000
0000
0000
0000
0103
1000
0000
0000
1000
0100
0001
0000
,
0020
0000
0000
0000
0100
0000
0000
0000
0031
0100
0000
0000
0100
0001
0010
0000
,
0200
0000
0000
0000
0010
0000
0000
0000
1300
0010
0000
0000
0010
1000
0100
0000
,
0002
0000
0000
0000
1000
0000
0000
0000
0103
1000
0000
0000
1000
0100
0001
0000
,
2000
0000
0000
0000
0001
0000
0000
0000
3010
0001
0000
0000
0001
0010
1000
0000
,
0200
0000
0000
0000
0010
0000
0000
0000
1300
0010
0000
0000
0010
1000
0100
0000
,
0020
0000
0000
0000
0100
0000
0000
0000
0031
0100
0000
0000
0100
0001
0010
0000
,
1000
0010
1000
0000
0010
1000
0000
0000
0001
0010
0001
0000
0010
0001
0000
0000
,
0100
0000
0010
0000
0100
0000
0001
0000
1000
0100
0010
0001
0010
0100
0010
0000
,
0001
0100
0001
0000
0100
0001
0000
0000
1000
0100
1000
0000
0100
1000
0000
0000
,
0010
0000
0100
0000
0010
0000
1000
0000
0001
0010
0100
1000
0100
0010
0100
0000
,
0010
0001
0010
0000
0001
0010
0000
0000
0100
0001
0100
0000
0001
0100
0000
0000
,
0100
1000
0100
0000
1000
0100
0000
0000
0010
1000
0010
0000
1000
0010
0000
0000
,
2010
0010
3010
0012
0010
0013
2010
0010
,
3020
0000
0100
0100
0030
0000
0110
0000
,
1000
0100
1000
0000
0010
0100
0001
0000
,
1000
0100
1000
0010
1000
0100
1000
0100
,
0001
0010
0001
0000
0100
0010
1000
0000
,
0001
0010
0001
0100
0001
0010
0001
0010
,
0100
0001
0100
0000
1000
0001
0010
0000
,
0100
0001
0100
1000
0100
0001
0100
0001
,
0010
1000
0010
0000
0001
1000
0100
0000
,
0010
1000
0010
0001
0010
1000
0010
1000
,
0001
0010
0001
0000
0100
0010
1000
0000
,
0001
0010
0001
0100
0001
0010
0001
0010
,
1000
0100
1000
0000
0010
0100
0001
0000
,
1000
0100
1000
0010
1000
0100
1000
0100
,
0010
1000
0010
0000
0001
1000
0100
0000
,
0010
1000
0010
0001
0010
1000
0010
1000
,
0100
0001
0100
0000
1000
0001
0010
0000
,
0100
0001
0100
1000
0100
0001
0100
0001
,
1000
0100
1000
0000
0010
0100
0001
0000
,
1000
0100
1000
0010
1000
0100
1000
0100
,
0001
0010
0001
0000
0100
0010
1000
0000
,
0001
0010
0001
0100
0001
0010
0001
0010
,
0100
0001
0100
0000
1000
0001
0010
0000
,
0100
0001
0100
1000
0100
0001
0100
0001
,
0010
1000
0010
0000
0001
1000
0100
0000
,
0010
1000
0010
0001
0010
1000
0010
1000
,
0001
0010
0001
0000
0100
0010
1000
0000
,
0001
0010
0001
0100
0001
0010
0001
0010
,
1000
0100
1000
0000
0010
0100
0001
0000
,
1000
0100
1000
0010
1000
0100
1000
0100
,
0010
1000
0010
0000
0001
1000
0100
0000
,
0010
1000
0010
0001
0010
1000
0010
1000
,
0100
0001
0100
0000
1000
0001
0010
0000
,
0100
0001
0100
1000
0100
0001
0100
0001
,
0010
1000
0010
1000
0010
1000
0010
0000
,
0100
0001
0100
0001
0100
0001
0100
0000
,
1000
0001
1000
0001
1000
0001
1000
0000
,
1000
0001
1000
0001
0010
0100
0010
0001
,
0100
0001
0100
0001
0100
0001
0100
0000
,
0010
1000
0010
1000
0010
1000
0010
0000
,
0001
1000
0001
1000
0001
1000
0001
0000
,
0001
1000
0001
1000
0100
0010
0100
1000
,
0010
1000
0010
1000
0010
1000
0010
0000
,
0100
0001
0100
0001
0100
0001
0100
0000
,
1000
0001
1000
0001
1000
0001
1000
0000
,
1000
0001
1000
0001
0010
0100
0010
0001
,
1000
0100
1000
0100
1000
0010
0001
0010
,
0001
0010
0001
0010
0001
0100
1000
0100
,
1000
0100
0001
1000
0100
0001
0100
0010
,
0200
0010
0010
0300
,
2000
0000
0000
0000
0001
0000
0000
0000
3010
0001
0000
0000
0001
0010
1000
0000
,
0002
0000
0000
0000
1000
0000
0000
0000
0103
1000
0000
0000
1000
0100
0001
0000
,
0020
0000
0000
0000
0100
0000
0000
0000
0031
0100
0000
0000
0100
0001
0010
0000
,
0200
0000
0000
0000
0010
0000
0000
0000
1300
0010
0000
0000
0010
1000
0100
0000
,
0002
0000
0000
0000
1000
0000
0000
0000
0103
1000
0000
0000
1000
0100
0001
0000
,
2000
0000
0000
0000
0001
0000
0000
0000
3010
0001
0000
0000
0001
0010
1000
0000
,
0200
0000
0000
0000
0010
0000
0000
0000
1300
0010
0000
0000
0010
1000
0100
0000
,
0020
0000
0000
0000
0100
0000
0000
0000
0031
0100
0000
0000
0100
0001
0010
0000
,
1000
0010
1000
0000
0010
1000
0000
0000
0001
0010
0001
0000
0010
0001
0000
0000
,
0100
0000
0010
0000
0100
0000
0001
0000
1000
0100
0010
0001
0010
0100
0010
0000
,
0001
0100
0001
0000
0100
0001
0000
0000
1000
0100
1000
0000
0100
1000
0000
0000
,
0010
0000
0100
0000
0010
0000
1000
0000
0001
0010
0100
1000
0100
0010
0100
0000
,
0010
0001
0010
0000
0001
0010
0000
0000
0100
0001
0100
0000
0001
0100
0000
0000
,
0100
1000
0100
0000
1000
0100
0000
0000
0010
1000
0010
0000
1000
0010
0000
0000
,
2010
0010
3010
0012
0010
0013
2010
0010
,
3020
0000
0100
0100
0030
0000
0110
0000
,
1000
0100
1000
0000
0010
0100
0001
0000
,
1000
0100
1000
0010
1000
0100
1000
0100
,
0001
0010
0001
0000
0100
0010
1000
0000
,
0001
0010
0001
0100
0001
0010
0001
0010
,
0100
0001
0100
0000
1000
0001
0010
0000
,
0100
0001
0100
1000
0100
0001
0100
0001
,
0010
1000
0010
0000
0001
1000
0100
0000
,
0010
1000
0010
0001
0010
1000
0010
1000
,
0001
0010
0001
0000
0100
0010
1000
0000
,
0001
0010
0001
0100
0001
0010
0001
0010
,
1000
0100
1000
0000
0010
0100
0001
0000
,
1000
0100
1000
0010
1000
0100
1000
0100
,
0010
1000
0010
0000
0001
1000
0100
0000
,
0010
1000
0010
0001
0010
1000
0010
1000
,
0100
0001
0100
0000
1000
0001
0010
0000
,
0100
0001
0100
1000
0100
0001
0100
0001
,
1000
0100
1000
0000
0010
0100
0001
0000
,
1000
0100
1000
0010
1000
0100
1000
0100
,
0001
0010
0001
0000
0100
0010
1000
0000
,
0001
0010
0001
0100
0001
0010
0001
0010
,
0100
0001
0100
0000
1000
0001
0010
0000
,
0100
0001
0100
1000
0100
0001
0100
0001
,
0010
1000
0010
0000
0001
1000
0100
0000
,
0010
1000
0010
0001
0010
1000
0010
1000
,
0001
0010
0001
0000
0100
0010
1000
0000
,
0001
0010
0001
0100
0001
0010
0001
0010
,
1000
0100
1000
0000
0010
0100
0001
0000
,
1000
0100
1000
0010
1000
0100
1000
0100
,
0010
1000
0010
0000
0001
1000
0100
0000
,
0010
1000
0010
0001
0010
1000
0010
1000
,
0100
0001
0100
0000
1000
0001
0010
0000
,
0100
0001
0100
1000
0100
0001
0100
0001
,
0010
0100
0010
0000
0010
0000
0010
0000
0010
0100
0010
0000
0010
0100
0010
0000
,
0100
0010
0100
0000
0100
0000
0100
0000
0100
0010
0100
0000
0100
0010
0100
0000
,
1000
0001
1000
0000
1000
0000
1000
0000
1000
0001
1000
0000
1000
0001
1000
0000
,
0001
1000
0001
1000
0001
1000
0001
1000
0010
0100
0010
0100
0010
0100
0010
0100
,
0010
0100
0001
0010
1000
0010
0100
0010
,
0100
0010
1000
0100
0001
0100
0010
0100
,
0001
1000
0100
0001
0010
0001
1000
0001
,
1000
0001
0010
1000
0100
1000
0001
1000
,
0010
0100
0001
0010
1000
0010
0100
0010
,
0100
0010
1000
0100
0001
0100
0010
0100
,
0001
1000
0100
0001
0010
0001
1000
0100
,
1000
0001
0010
1000
0100
1000
0001
0010
,
1000
0100
1000
0010
0202
0000
0000
0303
,
0001
0010
0001
0100
2020
0000
0000
3030
,
0010
1000
0010
0001
2200
0000
0000
3300
,
0100
0001
0100
1000
0022
0000
0000
0033
,
0001
0010
0001
0100
2020
0000
0000
3030
,
1000
0100
1000
0010
0202
0000
0000
0303
,
1000
0100
0010
0001
1000
0100
0010
0001
,
1000
0100
0010
0001
1000
0100
0010
0001
,
1000
0100
1000
0010
1000
0001
1000
0100
,
0001
0010
0001
0100
0001
1000
0001
0010
,
0100
0001
0100
1000
0100
0010
0100
0001
,
0010
1000
0010
0001
0010
0100
0010
1000
,
0020
0100
0100
0100
,
0230
0010
0010
0010
,
2300
0001
0001
0001
,
3002
1000
1000
1000
,
1003
0100
1000
0010
1000
0001
1000
0100
,
0001
0010
0001
0100
0001
1000
0001
0010
,
0100
0001
0100
1000
0100
0010
0100
0001
,
0010
1000
0010
0001
0010
0100
0010
1000
,
0001
0100
0001
0100
0001
0100
0001
0100
,
1000
0010
1000
0010
1000
0010
1000
0010
,
2002
0000
0000
3003
,
0220
0000
0000
0330
,
1000
0010
1000
0000
0010
1000
0000
0000
0001
0010
0001
0000
0010
0001
0000
0000
,
0100
0000
0010
0000
0100
0000
0001
0000
1000
0100
0010
0001
0010
0100
0010
0000
,
0001
0100
0001
0000
0100
0001
0000
0000
1000
0100
1000
0000
0100
1000
0000
0000
,
0010
0000
0100
0000
0010
0000
1000
0000
0001
0010
0100
1000
0100
0010
0100
0000
,
0010
0001
0010
0000
0001
0010
0000
0000
0100
0001
0100
0000
0001
0100
0000
0000
,
0100
1000
0100
0000
1000
0100
0000
0000
0010
1000
0010
0000
1000
0010
0000
0000
,
2010
0010
3010
0012
0010
0013
2010
0010
,
3020
0000
0100
0100
0030
0000
0110
0000
,
2000
0000
0001
0001
,
3002
0000
1000
1000
,
2003
0000
0001
0001
,
3002
0000
1000
1000
,
0203
0000
0010
0010
,
0320
0000
0100
0100
,
0230
0000
0010
0010
,
0320
0000
0100
0130
,
2002
0000
0000
0000
,
0000
0000
0000
0000
0000
0000
0000
3003
,
1000
0100
1000
0000
0010
0100
0001
0000
,
1000
0100
1000
0010
1000
0100
1000
0100
,
0001
0010
0001
0000
0100
0010
1000
0000
,
0001
0010
0001
0100
0001
0010
0001
0010
,
0100
0001
0100
0000
1000
0001
0010
0000
,
0100
0001
0100
1000
0100
0001
0100
0001
,
0010
1000
0010
0000
0001
1000
0100
0000
,
0010
1000
0010
0001
0010
1000
0010
1000
,
0001
0010
0001
0000
0100
0010
1000
0000
,
0001
0010
0001
0100
0001
0010
0001
0010
,
1000
0100
1000
0000
0010
0100
0001
0000
,
1000
0100
1000
0010
1000
0100
1000
0100
,
0010
1000
0010
0000
0001
1000
0100
0000
,
0010
1000
0010
0001
0010
1000
0010
1000
,
0100
0001
0100
0000
1000
0001
0010
0000
,
0100
0001
0100
1000
0100
0001
0100
0001
,
0010
1000
0010
1000
0010
1000
0010
0000
,
0100
0001
0100
0001
0100
0001
0100
0000
,
1000
0001
1000
0001
1000
0001
1000
0000
,
1000
0001
1000
0001
0010
0100
0010
0001
,
0100
0001
0100
0001
0100
0001
0100
0000
,
0010
1000
0010
1000
0010
1000
0010
0000
,
0001
1000
0001
1000
0001
1000
0001
0000
,
0001
1000
0001
1000
0100
0010
0100
1000
,
0010
1000
0010
1000
0010
1000
0010
0000
,
0100
0001
0100
0001
0100
0001
0100
0000
,
1000
0001
1000
0001
1000
0001
1000
0000
,
1000
0001
1000
0001
0010
0100
0010
0001
,
1000
0100
1000
0100
1000
0010
0001
0010
,
0001
0010
0001
0010
0001
0100
1000
0100
,
1000
0100
0001
1000
0100
0001
0100
0010
,
0200
0010
0010
0300
,
0100
0001
0100
0001
0100
0001
0100
0000
,
0010
1000
0010
1000
0010
1000
0010
0000
,
0001
1000
0001
1000
0001
1000
0001
0000
,
0001
1000
0001
1000
0100
0010
0100
1000
,
0010
1000
0010
1000
0010
1000
0010
0000
,
0100
0001
0100
0001
0100
0001
0100
0000
,
1000
0001
1000
0001
1000
0001
1000
0000
,
1000
0001
1000
0001
0010
0100
0010
0001
,
0100
0001
0100
0001
0100
0001
0100
0000
,
0010
1000
0010
1000
0010
1000
0010
0000
,
0001
1000
0001
1000
0001
1000
0001
0000
,
0001
1000
0001
1000
0100
0010
0100
0000
,
0001
0010
0001
0010
0001
0100
1000
0100
,
1000
0100
1000
0100
1000
0010
0001
0010
,
0001
0010
1000
0001
0010
1000
0010
0100
,
0020
0100
0100
0030
,
1000
0100
0001
1000
0100
0001
0100
0010
,
0200
0010
0020
0000
,
0000
0000
0000
0000
,
0000
0000
0000
0000
,
0000
0000
0000
0000
,
0000
0000
0000
0000
,
0330
0000
0000
0000
;

//---------------dance-single - ----------------
#NOTEDATA:;
#CHARTNAME:;
#STEPSTYPE:dance-single;
#DESCRIPTION:;
#CHARTSTYLE:;
#DIFFICULTY:Challenge;
#METER:18;
#RADARVALUES:1.092941,1.518094,0.147980,0.240468,0.340355,2068.000000,2028.000000,40.000000,65.000000,0.000000,0.000000,0.000000,0.000000,0.000000,1.092941,1.518094,0.147980,0.240468,0.340355,2068.000000,2028.000000,40.000000,65.000000,0.000000,0.000000,0.000000,0.000000,0.000000;
#CREDIT:;
#NOTES:
0000
0000
0000
0000
,
0000
0000
0000
0000
,
0000
0000
0000
0000
,
0000
0000
0000
0000
,
0000
0000
0000
0000
,
0000
0000
0000
0000
,
0000
0000
0000
0000
,
0000
0000
0000
0000
,
1000
0000
1000
0000
,
0001
0000
0001
0000
,
1000
0010
0001
0100
,
0100
0001
0010
1000
,
0001
0000
0001
0000
,
1000
0000
1000
0000
,
0001
0100
1000
0010
,
0010
1000
0100
0001
,
0010
0000
0010
0000
,
0100
0000
0100
0000
,
0010
1000
0100
0001
,
0001
0100
1000
0010
,
1010
0010
0011
0001
,
0101
0100
1100
1000
,
1000
0100
0010
0001
1000
0100
0010
0001
,
1010
0000
0000
0110
0000
0000
0011
0000
,
0101
0000
0000
0110
0000
0000
1100
0000
,
0011
0000
0000
1001
0000
0000
0101
0000
,
1000
0100
0010
0100
1000
0001
0010
0000
,
0101
0000
0000
0110
0000
0000
1100
0000
,
1010
0000
0000
0110
0000
0000
0011
0000
,
1000
0100
1000
0010
0100
0001
0100
1000
,
0001
0010
0100
0010
0001
1000
0100
0001
,
0010
1000
0010
1000
0010
1000
0010
1000
,
0100
0001
0100
0001
0100
0001
0100
0001
,
1000
0001
1000
0001
1000
0001
1000
0001
,
1000
0001
1000
0001
0010
0100
0010
0001
,
0100
0001
0100
0001
0100
0001
0100
0001
,
0010
1000
0010
1000
0010
1000
0010
1000
,
0001
1000
0001
1000
0001
1000
0001
1000
,
0001
1000
0001
1000
0100
0010
0100
1000
,
0010
1000
0010
1000
0010
1000
0010
1000
,
0100
0001
0100
0001
0100
0001
0100
0001
,
1000
0001
1000
0001
1000
0001
1000
0001
,
1000
0001
1000
0001
0010
0100
0010
0001
,
1000
0100
1000
0100
1000
0010
0001
0010
,
0001
0010
0001
0010
0001
0100
1000
0100
,
1000
0100
0001
1000
0100
0001
0100
0010
,
0200
0010
0010
0310
,
0100
0001
0100
0001
0100
0001
0100
0001
,
0010
1000
0010
1000
0010
1000
0010
1000
,
0001
1000
0001
1000
0001
1000
0001
1000
,
0001
1000
0001
1000
0100
0010
0100
1000
,
0010
1000
0010
1000
0010
1000
0010
1000
,
0100
0001
0100
0001
0100
0001
0100
0001
,
1000
0001
1000
0001
1000
0001
1000
0001
,
1000
0001
1000
0001
0010
0100
0010
0001
,
0100
0001
0100
0001
0100
0001
0100
0001
,
0010
1000
0010
1000
0010
1000
0010
1000
,
0001
1000
0001
1000
0001
1000
0001
1000
,
0001
1000
0001
1000
0100
0010
0100
1000
,
0001
0010
0001
0010
0001
0100
1000
0100
,
1000
0100
1000
0100
1000
0010
0001
0010
,
0001
0010
1000
0001
0010
1000
0010
0100
,
0020
0100
0100
0130
,
2000
0000
0000
0000
0001
0000
0000
0000
3010
0001
1000
0000
0001
0010
1000
0000
,
0002
0000
0000
0000
1000
0000
0000
0000
0103
1000
0001
0000
1000
0100
0001
0000
,
0020
0000
0000
0000
0100
0000
0000
0000
0031
0100
0010
0000
0100
0001
0010
0000
,
0200
0000
0000
0000
0010
0000
0000
0000
1300
0010
0100
0000
0010
1000
0100
0000
,
0002
0000
0000
0000
1000
0000
0000
0000
0103
1000
0001
0000
1000
0100
0001
0000
,
2000
0000
0000
0000
0001
0000
0000
0000
3010
0001
1000
0000
0001
0010
1000
0000
,
0200
0000
0000
0000
0010
0000
0000
0000
1300
0010
0100
0000
0010
1000
0100
0000
,
0020
0000
0000
0000
0100
0000
0000
0000
0031
0100
0010
0000
0100
0001
0010
0000
,
1000
0010
1000
0000
0010
1000
0010
0000
0001
0010
0001
0000
0010
0001
0010
0000
,
0100
0000
0010
0000
0100
0000
0001
0000
1000
0100
0010
0001
0010
0100
0010
1000
,
0001
0100
0001
0000
0100
0001
0100
0000
1000
0100
1000
0000
0100
1000
0100
0000
,
0010
0000
0100
0000
0010
0000
1000
0000
0001
0010
0100
1000
0100
0010
0100
0001
,
0010
0001
0010
0000
0001
0010
0001
0000
0100
0001
0100
0000
0001
0100
0001
0000
,
0100
1000
0100
0000
1000
0100
1000
0000
0010
1000
0010
0000
1000
0010
1000
0000
,
2010
0010
3010
0012
0010
0013
2010
0010
,
3020
0000
0100
0100
0030
0000
0110
0000
,
1000
0100
1000
0001
0010
0100
0001
0000
,
1000
0100
1000
0010
1000
0100
1000
0100
,
0001
0010
0001
1000
0100
0010
1000
0000
,
0001
0010
0001
0100
0001
0010
0001
0010
,
0100
0001
0100
0010
1000
0001
0010
0000
,
0100
0001
0100
1000
0100
0001
0100
0001
,
0010
1000
0010
0100
0001
1000
0100
0000
,
0010
1000
0010
0001
0010
1000
0010
1000
,
0001
0010
0001
1000
0100
0010
1000
0000
,
0001
0010
0001
0100
0001
0010
0001
0010
,
1000
0100
1000
0001
0010
0100
0001
0000
,
1000
0100
1000
0010
1000
0100
1000
0100
,
0010
1000
0010
0100
0001
1000
0100
0000
,
0010
1000
0010
0001
0010
1000
0010
1000
,
0100
0001
0100
0010
1000
0001
0010
0000
,
0100
0001
0100
1000
0100
0001
0100
0001
,
1000
0100
1000
0001
0010
0100
0001
0000
,
1000
0100
1000
0010
1000
0100
1000
0100
,
0001
0010
0001
1000
0100
0010
1000
0000
,
0001
0010
0001
0100
0001
0010
0001
0010
,
0100
0001
0100
0010
1000
0001
0010
0000
,
0100
0001
0100
1000
0100
0001
0100
0001
,
0010
1000
0010
0100
0001
1000
0100
0000
,
0010
1000
0010
0001
0010
1000
0010
1000
,
0001
0010
0001
1000
0100
0010
1000
0000
,
0001
0010
0001
0100
0001
0010
0001
0010
,
1000
0100
1000
0001
0010
0100
0001
0000
,
1000
0100
1000
0010
1000
0100
1000
0100
,
0010
1000
0010
0100
0001
1000
0100
0000
,
0010
1000
0010
0001
0010
1000
0010
1000
,
0100
0001
0100
0010
1000
0001
0010
0000
,
0100
0001
0100
1000
0100
0001
0100
0001
,
0010
1000
0010
1000
0010
1000
0010
1000
,
0100
0001
0100
0001
0100
0001
0100
0001
,
1000
0001
1000
0001
1000
0001
1000
0001
,
1000
0001
1000
0001
0010
0100
0010
0001
,
0100
0001
0100
0001
0100
0001
0100
0001
,
0010
1000
0010
1000
0010
1000
0010
1000
,
0001
1000
0001
1000
0001
1000
0001
1000
,
0001
1000
0001
1000
0100
0010
0100
1000
,
0010
1000
0010
1000
0010
1000
0010
1000
,
0100
0001
0100
0001
0100
0001
0100
0001
,
1000
0001
1000
0001
1000
0001
1000
0001
,
1000
0001
1000
0001
0010
0100
0010
0001
,
1000
0100
1000
0100
1000
0010
0001
0010
,
0001
0010
0001
0010
0001
0100
1000
0100
,
1000
0100
0001
1000
0100
0001
0100
0010
,
0200
0010
0010
0310
,
2000
0000
0000
0000
0001
0000
0000
0000
3010
0001
1000
0000
0001
0010
1000
0000
,
0002
0000
0000
0000
1000
0000
0000
0000
0103
1000
0001
0000
1000
0100
0001
0000
,
0020
0000
0000
0000
0100
0000
0000
0000
0031
0100
0010
0000
0100
0001
0010
0000
,
0200
0000
0000
0000
0010
0000
0000
0000
1300
0010
0100
0000
0010
1000
0100
0000
,
0002
0000
0000
0000
1000
0000
0000
0000
0103
1000
0001
0000
1000
0100
0001
0000
,
2000
0000
0000
0000
0001
0000
0000
0000
3010
0001
1000
0000
0001
0010
1000
0000
,
0200
0000
0000
0000
0010
0000
0000
0000
1300
0010
0100
0000
0010
1000
0100
0000
,
0020
0000
0000
0000
0100
0000
0000
0000
0031
0100
0010
0000
0100
0001
0010
0000
,
1000
0010
1000
0000
0010
1000
0010
0000
0001
0010
0001
0000
0010
0001
0010
0000
,
0100
0000
0010
0000
0100
0000
0001
0000
1000
0100
0010
0001
0010
0100
0010
1000
,
0001
0100
0001
0000
0100
0001
0100
0000
1000
0100
1000
0000
0100
1000
0100
0000
,
0010
0000
0100
0000
0010
0000
1000
0000
0001
0010
0100
1000
0100
0010
0100
0001
,
0010
0001
0010
0000
0001
0010
0001
0000
0100
0001
0100
0000
0001
0100
0001
0000
,
0100
1000
0100
0000
1000
0100
1000
0000
0010
1000
0010
0000
1000
0010
1000
0000
,
2010
0010
3010
0012
0010
0013
2010
0010
,
3020
0000
0100
0100
0030
0000
0110
0000
,
1000
0100
1000
0001
0010
0100
0001
0000
,
1000
0100
1000
0010
1000
0100
1000
0100
,
0001
0010
0001
1000
0100
0010
1000
0000
,
0001
0010
0001
0100
0001
0010
0001
0010
,
0100
0001
0100
0010
1000
0001
0010
0000
,
0100
0001
0100
1000
0100
0001
0100
0001
,
0010
1000
0010
0100
0001
1000
0100
0000
,
0010
1000
0010
0001
0010
1000
0010
1000
,
0001
0010
0001
1000
0100
0010
1000
0000
,
0001
0010
0001
0100
0001
0010
0001
0010
,
1000
0100
1000
0001
0010
0100
0001
0000
,
1000
0100
1000
0010
1000
0100
1000
0100
,
0010
1000
0010
0100
0001
1000
0100
0000
,
0010
1000
0010
0001
0010
1000
0010
1000
,
0100
0001
0100
0010
1000
0001
0010
0000
,
0100
0001
0100
1000
0100
0001
0100
0001
,
1000
0100
1000
0001
0010
0100
0001
0000
,
1000
0100
1000
0010
1000
0100
1000
0100
,
0001
0010
0001
1000
0100
0010
1000
0000
,
0001
0010
0001
0100
0001
0010
0001
0010
,
0100
0001
0100
0010
1000
0001
0010
0000
,
0100
0001
0100
1000
0100
0001
0100
0001
,
0010
1000
0010
0100
0001
1000
0100
0000
,
0010
1000
0010
0001
0010
1000
0010
1000
,
0001
0010
0001
1000
0100
0010
1000
0000
,
0001
0010
0001
0100
0001
0010
0001
0010
,
1000
0100
1000
0001
0010
0100
0001
0000
,
1000
0100
1000
0010
1000
0100
1000
0100
,
0010
1000
0010
0100
0001
1000
0100
0000
,
0010
1000
0010
0001
0010
1000
0010
1000
,
0100
0001
0100
0010
1000
0001
0010
0000
,
0100
0001
0100
1000
0100
0001
0100
0001
,
0010
0100
0010
0000
0010
0100
0010
0000
0010
0100
0010
0000
0010
0100
0010
0000
,
0100
0010
0100
0000
0100
0010
0100
0000
0100
0010
0100
0000
0100
0010
0100
0000
,
1000
0001
1000
0000
1000
0001
1000
0000
1000
0001
1000
0000
1000
0001
1000
0000
,
0001
1000
0001
1000
0001
1000
0001
1000
0010
0100
0010
0100
0010
0100
0010
0100
,
0010
0000
0001
0000
0100
0000
0001
0000
0000
0010
0000
0000
1000
0000
0000
0010
0000
0000
0100
0000
0000
0010
0000
0000
,
0100
0000
1000
0000
0010
0000
1000
0000
0000
0100
0000
0000
0001
0000
0000
0100
0000
0000
0010
0000
0000
0100
0000
0000
,
0001
0000
0100
0000
1000
0000
0100
0000
0000
0001
0000
0000
0010
0000
0000
0001
0000
0000
1000
0000
0000
0001
0000
0000
,
1000
0000
0010
0000
0001
0000
0010
0000
0000
1000
0000
0000
0100
0000
0000
1000
0000
0000
0001
0000
0000
1000
0000
0000
,
0010
0000
0001
0000
0100
0000
0001
0000
0000
0010
0000
0000
1000
0000
0000
0010
0000
0000
0100
0000
0000
0010
0000
0000
,
0100
0000
1000
0000
0010
0000
1000
0000
0000
0100
0000
0000
0001
0000
0000
0100
0000
0000
0010
0000
0000
0100
0000
0000
,
0001
0000
0100
0000
1000
0000
0100
0000
0000
0001
0000
0000
0010
0000
0000
0001
0000
0000
1000
0000
0000
0100
0000
0000
,
1000
0000
0010
0000
0001
0000
0010
0000
0000
1000
0000
0000
0100
0000
0000
1000
0000
0000
0001
0000
0000
0010
0000
0000
,
1000
0000
0100
0000
1000
0000
0100
0000
0000
0010
0000
0000
0202
0000
0000
0000
0000
0000
0000
0000
0000
0303
0000
0000
,
0001
0000
0010
0000
0001
0000
0010
0000
0000
0100
0000
0000
2020
0000
0000
0000
0000
0000
0000
0000
0000
3030
0000
0000
,
0010
0000
1000
0000
0010
0000
1000
0000
0000
0001
0000
0000
2200
0000
0000
0000
0000
0000
0000
0000
0000
3300
0000
0000
,
0100
0000
0001
0000
0100
0000
0001
0000
0000
1000
0000
0000
0022
0000
0000
0000
0000
0000
0000
0000
0000
0033
0000
0000
,
0001
0000
0010
0000
0001
0000
0010
0000
0000
0100
0000
0000
2020
0000
0000
0000
0000
0000
0000
0000
0000
3030
0000
0000
,
1000
0000
0100
0000
1000
0000
0100
0000
0000
0010
0000
0000
0202
0000
0000
0000
0000
0000
0000
0000
0000
0303
0000
0000
,
1000
0100
0010
0001
1000
0100
0010
0001
,
1000
0100
0010
0001
1000
0100
0010
0001
1000
0100
0010
0001
,
1000
0000
0000
0100
0000
0000
1000
0000
0000
0010
0000
0000
1000
0000
0000
0001
0000
0000
1000
0000
0100
0000
1000
0000
,
0001
0000
0000
0010
0000
0000
0001
0000
0000
0100
0000
0000
0001
0000
0000
1000
0000
0000
0001
0000
0010
0000
0001
0000
,
0100
0000
0000
0001
0000
0000
0100
0000
0000
1000
0000
0000
0100
0000
0000
0010
0000
0000
0100
0000
0001
0000
1000
0000
,
0010
0000
0000
1000
0000
0000
0010
0000
0000
0001
0000
0000
0010
0000
0000
0100
0000
0000
0010
0000
1000
0000
0001
0000
,
0020
1000
0100
0000
0100
0000
0100
0000
,
0230
0001
0010
0000
0010
0000
0010
0000
,
2300
0010
0001
0000
0001
0000
0001
0000
,
3002
0100
1000
0000
1000
0000
1000
0000
,
1003
0000
0000
0100
0000
0000
1000
0000
0000
0010
0000
0000
1000
0000
0000
0001
0000
0000
1000
0000
0100
0000
1000
0000
,
0001
0000
0000
0010
0000
0000
0001
0000
0000
0100
0000
0000
0001
0000
0000
1000
0000
0000
0001
0000
0010
0000
0001
0000
,
0100
0000
0000
0001
0000
0000
0100
0000
0000
1000
0000
0000
0100
0000
0000
0010
0000
0000
0100
0000
0001
0000
0100
0000
,
0010
0000
0000
1000
0000
0000
0010
0000
0000
0001
0000
0000
0010
0000
0000
0100
0000
0000
0010
0000
1000
0000
0010
0000
,
0001
0000
0000
0100
0000
0000
0001
0000
0000
0100
0000
0000
0001
0000
0100
0000
0001
0000
0100
0000
0001
0000
0100
0000
,
1000
0000
0000
0010
0000
0000
1000
0000
0000
0010
0000
0000
1000
0000
0010
0000
1000
0000
0010
0000
1000
0000
0010
0000
,
2002
0000
0000
3003
,
0220
0000
0000
0330
,
1000
0010
1000
0000
0010
1000
0010
0000
0001
0010
0001
0000
0010
0001
0010
0000
,
0100
0000
0010
0000
0100
0000
0001
0000
1000
0100
0010
0001
0010
0100
0010
1000
,
0001
0100
0001
0000
0100
0001
0100
0000
1000
0100
1000
0000
0100
1000
0100
0000
,
0010
0000
0100
0000
0010
0000
1000
0000
0001
0010
0100
1000
0100
0010
0100
0001
,
0010
0001
0010
0000
0001
0010
0001
0000
0100
0001
0100
0000
0001
0100
0001
0000
,
0100
1000
0100
0000
1000
0100
1000
0000
0010
1000
0010
0000
1000
0010
1000
0000
,
2010
0010
3010
0012
0010
0013
2010
0010
,
3020
0000
0100
0100
0030
0000
0110
0000
,
2000
0000
0000
0000
0001
0100
0001
0000
,
3002
0000
0000
0000
1000
0010
1000
0000
,
2003
0000
0000
0000
0001
0100
0001
0000
,
3002
0000
0000
0000
1000
0010
1000
0000
,
0203
0000
0000
0000
0010
0001
0010
0000
,
0320
0000
0000
0000
0100
1000
0100
0000
,
0230
0000
0000
0000
0010
0001
0010
0000
,
0320
0000
0000
0000
0100
1000
0130
0000
,
2002
0000
0000
0000
,
0000
0000
0000
0000
0000
0000
0000
3003
,
1000
0100
1000
0001
0010
0100
0001
0000
,
1000
0100
1000
0010
1000
0100
1000
0100
,
0001
0010
0001
1000
0100
0010
1000
0000
,
0001
0010
0001
0100
0001
0010
0001
0010
,
0100
0001
0100
0010
1000
0001
0010
0000
,
0100
0001
0100
1000
0100
0001
0100
0001
,
0010
1000
0010
0100
0001
1000
0100
0000
,
0010
1000
0010
0001
0010
1000
0010
1000
,
0001
0010
0001
1000
0100
0010
1000
0000
,
0001
0010
0001
0100
0001
0010
0001
0010
,
1000
0100
1000
0001
0010
0100
0001
0000
,
1000
0100
1000
0010
1000
0100
1000
0100
,
0010
1000
0010
0100
0001
1000
0100
0000
,
0010
1000
0010
0001
0010
1000
0010
1000
,
0100
0001
0100
0010
1000
0001
0010
0000
,
0100
0001
0100
1000
0100
0001
0100
0001
,
0010
1000
0010
1000
0010
1000
0010
1000
,
0100
0001
0100
0001
0100
0001
0100
0001
,
1000
0001
1000
0001
1000
0001
1000
0001
,
1000
0001
1000
0001
0010
0100
0010
0001
,
0100
0001
0100
0001
0100
0001
0100
0001
,
0010
1000
0010
1000
0010
1000
0010
1000
,
0001
1000
0001
1000
0001
1000
0001
1000
,
0001
1000
0001
1000
0100
0010
0100
1000
,
0010
1000
0010
1000
0010
1000
0010
1000
,
0100
0001
0100
0001
0100
0001
0100
0001
,
1000
0001
1000
0001
1000
0001
1000
0001
,
1000
0001
1000
0001
0010
0100
0010
0001
,
1000
0100
1000
0100
1000
0010
0001
0010
,
0001
0010
0001
0010
0001
0100
1000
0100
,
1000
0100
0001
1000
0100
0001
0100
0010
,
0200
0010
0010
0310
,
0100
0001
0100
0001
0100
0001
0100
0001
,
0010
1000
0010
1000
0010
1000
0010
1000
,
0001
1000
0001
1000
0001
1000
0001
1000
,
0001
1000
0001
1000
0100
0010
0100
1000
,
0010
1000
0010
1000
0010
1000
0010
1000
,
0100
0001
0100
0001
0100
0001
0100
0001
,
1000
0001
1000
0001
1000
0001
1000
0001
,
1000
0001
1000
0001
0010
0100
0010
0001
,
0100
0001
0100
0001
0100
0001
0100
0001
,
0010
1000
0010
1000
0010
1000
0010
1000
,
0001
1000
0001
1000
0001
1000
0001
1000
,
0001
1000
0001
1000
0100
0010
0100
0000
,
0001
0010
0001
0010
0001
0100
1000
0100
,
1000
0100
1000
0100
1000
0010
0001
0010
,
0001
0010
1000
0001
0010
1000
0010
0100
,
0020
0100
0100
0130
,
1000
0100
0001
1000
0100
0001
0100
0010
,
0200
0010
0010
0020
,
0000
0000
0000
0000
,
0000
0000
0000
0000
,
0000
0000
0000
0000
,
0000
0000
0000
0000
,
0330
0000
0000
0000
;
