#TITLE:世界一幸せなひとりぼっち;
#SUBTITLE:;
#ARTIST:majiko;
#TITLETRANSLIT:The Happiest Loner in the World;
#SUBTITLETRANSLIT:;
#ARTISTTRANSLIT:;
#GENRE:;
#CREDIT:;
#BANNER:;
#BACKGROUND:;
#LYRICSPATH:;
#CDTITLE:;
#MUSIC:Sekaiichi Shiawasena Hitoribocchi.ogg;
#OFFSET:-0.512000;
#SAMPLESTART:81.137001;
#SAMPLELENGTH:15.000000;
#SELECTABLE:YES;
#DISPLAYBPM:*;
#BPMS:0.000000=64.000000
;
#STOPS:83.000000=2.813000,
156.000000=2.813000
;
#BGCHANGES:;
#KEYSOUNDS:;
#ATTACKS:;

//---------------dance-single - ----------------
#NOTES:
     dance-single:
     :
     Beginner:
     1:
     0.035064,0.062999,0.000000,0.071999,0.000000,75.000000,75.000000,0.000000,22.000000,0.000000,0.000000,0.035064,0.062999,0.000000,0.071999,0.000000,75.000000,75.000000,0.000000,22.000000,0.000000,0.000000:
0000
0000
0000
0000
,
0000
0000
0000
0000
,
0002
0000
0000
0003
,
2000
0000
0000
3000
,
2000
0000
0000
3000
,
0002
0000
0000
0003
,
0001
0000
0000
0000
,
1000
0000
0000
0000
0002
0000
0000
0003
,
0200
0000
0000
0300
,
0020
0000
0000
0030
,
0010
0000
0000
0000
,
0000
0000
0000
0000
,
0100
0000
0000
0000
,
0000
0000
0000
0000
,
1000
0000
0000
0000
,
0000
0000
0000
0000
,
0001
0000
0000
0000
,
0000
0000
0010
0000
,
0020
0000
0000
0000
,
0000
0000
0000
0030
,
0200
0000
0000
0000
0000
0000
0000
0300
,
0001
0000
0000
0000
,
1000
0000
0000
0000
,
0001
0000
0000
0000
,
1000
0000
0000
0000
,
0001
0000
0000
0000
,
1000
0000
0000
0000
,
0001
0000
0000
0000
,
1000
0000
0000
0000
,
0001
0000
0000
0000
,
1000
0000
0000
0000
0002
0000
0000
0003
,
0200
0000
0000
0300
,
0020
0000
0000
0030
,
0010
0000
0000
0000
,
0000
0000
0000
0000
,
0100
0000
0000
0000
,
0000
0000
0000
0000
,
0020
0000
0000
0000
,
0000
0000
0000
0030
,
0200
0000
0000
0300
,
0001
0000
0000
0000
,
1000
0000
0000
0000
,
0010
0000
0000
0000
,
0100
0000
0000
0000
,
0001
0000
0000
0000
,
1000
0000
0000
0000
,
0010
0000
0000
0000
,
0100
0000
0000
0000
,
0001
0000
0000
0000
,
1000
0000
0000
0000
,
0010
0000
0000
0000
,
0100
0000
0000
0000
,
0020
0000
0000
0030
,
1000
0000
0010
0000
,
0001
0000
0100
0000
,
1000
0000
0010
0000
,
0001
0000
0100
0000
,
0001
0000
0000
0000
,
1000
0000
0000
0000
,
0010
0000
0000
0000
,
0100
0000
0000
0000
,
0001
0000
0000
0000
,
1000
0000
0000
0000
,
0010
0000
0000
0000
,
0100
0000
0000
0000
,
0001
0000
0000
0000
,
1000
0000
0000
0000
,
0001
0000
0000
0000
,
1000
0000
0000
0000
0002
0000
0000
0003
,
0200
0000
0000
0300
,
0020
0000
0000
0030
,
0001
0000
0000
0000
2000
0000
0000
3000
,
0020
0000
0000
0030
,
0020
0000
0000
0030
,
0010
0000
0000
0000
,
0020
0000
0000
0000
,
0000
0000
0000
0000
,
0030
0000
0000
0000
;

//---------------dance-single - ----------------
#NOTES:
     dance-single:
     :
     Easy:
     1:
     0.043947,0.088199,0.016363,0.052363,0.000000,94.000000,89.000000,5.000000,16.000000,0.000000,0.000000,0.043947,0.088199,0.016363,0.052363,0.000000,94.000000,89.000000,5.000000,16.000000,0.000000,0.000000:
0000
0000
0000
0000
,
0000
0000
0000
0000
,
0002
0000
0000
0003
,
1000
0000
1000
0000
,
2000
0000
0000
3000
,
0001
0000
0001
0000
,
0001
0000
0000
0000
,
1000
0000
0000
0000
0002
0000
0000
0003
,
0200
0000
0000
0300
,
0010
0000
1001
0000
,
0010
0000
0000
0000
,
0010
0000
0000
0000
,
0100
0000
0000
0000
,
0100
0000
0000
0000
,
1000
0000
0000
0000
,
1000
0000
0000
0000
,
0001
0000
0000
0000
,
0001
0000
1000
0000
,
0020
0000
0000
0000
,
0100
0000
0000
0030
,
0200
0000
0000
0000
0000
0000
0000
0300
,
0001
0000
0000
0000
,
1000
0000
0000
0000
,
0010
0000
0000
0000
,
0100
0000
0000
0000
,
0001
0000
0000
0000
,
1000
0000
0000
0000
,
0010
0000
0000
0000
,
0100
0000
0000
0000
,
0001
0000
0000
0000
,
1000
0000
0000
0000
0002
0000
0000
0003
,
0200
0000
0000
0300
,
0010
0000
1001
0000
,
0010
0000
0000
0000
,
0010
0000
0000
0000
,
0100
0000
0000
0000
,
0100
0000
0000
0000
,
0020
0000
0000
0000
,
0100
0000
0000
0030
,
0200
0000
0000
0300
,
0001
0000
0000
0000
,
1000
0000
0000
0000
,
0010
0000
0000
0000
,
0100
0000
0000
0000
,
0001
0000
0000
0000
,
1000
0000
0000
0000
,
0010
0000
0000
0000
,
0100
0000
0000
0000
,
0001
0000
0000
0000
,
1000
0000
0000
0000
,
0010
0000
0000
0000
,
0100
0000
0000
0000
,
0020
0000
0000
0030
,
1001
0000
0010
0000
,
0001
0000
0100
0000
,
1001
0000
0010
0000
,
1000
0000
0100
0000
,
0001
0000
0000
0000
,
1000
0000
0000
0000
,
0010
0000
0000
0000
,
0100
0000
0000
0000
,
0001
0000
0000
0000
,
1000
0000
0000
0000
,
0010
0000
0000
0000
,
0100
0000
0000
0000
,
0001
0000
0000
0000
,
1000
0000
0000
0000
,
0001
0000
0000
0000
,
1000
0000
0000
0000
0002
0000
0000
0003
,
0200
0000
0000
0300
,
0010
0000
1001
0000
,
0001
0000
0000
0000
2000
0000
0000
3000
,
0020
0000
0000
0030
,
0010
0000
0010
0000
,
0010
0000
0000
0000
,
0020
0000
0000
0000
,
0000
0000
0000
0000
,
0030
0000
0000
0000
;

//---------------dance-single - ----------------
#NOTES:
     dance-single:
     :
     Medium:
     2:
     0.057038,0.100799,0.039272,0.055636,0.000000,122.000000,110.000000,12.000000,17.000000,0.000000,0.000000,0.057038,0.100799,0.039272,0.055636,0.000000,122.000000,110.000000,12.000000,17.000000,0.000000,0.000000:
0000
0000
0000
0000
,
0000
0000
0000
0000
,
0002
0000
0000
0003
,
1001
0000
1000
0000
,
2000
0000
0000
3000
,
1001
0000
0001
0000
,
0001
0000
0001
0000
,
1000
0000
0000
0000
0002
0000
0000
0003
,
0200
0000
0000
0300
,
0010
0000
1001
0000
,
0010
0000
0000
0000
,
0010
0000
0000
0000
,
0100
0000
0000
0000
,
0100
0000
0001
0000
,
1000
0000
0000
0000
,
1000
0000
0000
0000
,
0001
0000
0000
0000
,
0001
0000
1000
0000
,
0120
0000
0000
0000
,
0100
0000
0000
0030
,
0200
0000
0000
0000
0000
0000
0000
0300
,
0001
0000
0000
0000
,
1000
0000
1000
0000
,
0010
0000
0000
0000
,
0100
0000
0100
0000
,
0001
0000
0000
0000
,
1000
0000
1000
0000
,
0010
0000
0000
0000
,
0100
0000
0100
0000
,
0001
0000
0001
0000
,
1000
0000
0000
0000
0002
0000
0000
0003
,
0200
0000
0000
0300
,
0010
0000
1001
0000
,
0010
0000
0000
0000
,
0010
0000
0000
0000
,
0100
0000
0000
0000
,
0100
0000
0001
0000
,
0120
0000
0000
0000
,
0100
0000
0000
0030
,
0200
0000
0000
0300
,
0001
0000
0000
0000
,
1000
0000
1000
0000
,
0010
0000
0000
0000
,
0100
0000
0100
0000
,
0001
0000
0000
0000
,
1000
0000
1000
0000
,
0010
0000
0000
0000
,
0100
0000
0100
0000
,
0001
0000
0000
0000
,
1000
0000
1000
0000
,
0010
0000
0000
0000
,
0100
0000
0100
0000
,
0020
0000
0000
0030
,
1001
0000
0010
0000
,
1001
0000
0100
0000
,
1001
0000
0010
0000
,
1001
0000
0100
0000
,
0001
0000
0000
0000
,
1000
0000
1000
0000
,
0010
0000
0000
0000
,
0100
0000
0100
0000
,
0001
0000
0000
0000
,
1000
0000
1000
0000
,
0010
0000
0000
0000
,
0100
0000
0100
0000
,
0001
0000
0000
0000
,
1000
0000
1000
0000
,
0001
0000
0001
0000
,
1000
0000
0000
0000
0002
0000
0000
0003
,
0200
0000
0000
0300
,
0010
0000
1001
0000
,
0001
0000
0000
0000
2000
0000
0000
3000
,
0020
0000
0000
0030
,
0010
0000
0010
0000
,
0010
0000
0010
0000
,
0220
0000
0000
0000
,
0000
0000
0000
0000
,
0330
0000
0000
0000
;

//---------------dance-single - ----------------
#NOTES:
     dance-single:
     :
     Hard:
     2:
     0.066856,0.100799,0.042545,0.055636,0.000000,143.000000,130.000000,13.000000,17.000000,0.000000,0.000000,0.066856,0.100799,0.042545,0.055636,0.000000,143.000000,130.000000,13.000000,17.000000,0.000000,0.000000:
0000
0000
0000
0000
,
0000
0000
0000
0000
,
0002
0000
0000
0003
,
1001
0000
1000
0000
,
2000
0000
0000
3000
,
1001
0000
0001
0000
,
0001
0000
0001
0000
,
1000
0000
0000
0000
0002
0000
0000
0003
,
0200
0000
0000
0300
,
0010
0000
1001
0000
,
0010
0000
0000
0000
,
0010
0000
1000
0000
,
0100
0000
0000
0000
,
0100
0000
0001
0000
,
1000
0000
0000
0000
,
1000
0000
0001
0000
,
0001
0000
0000
0000
,
0001
0000
1000
0000
,
0120
0000
0000
0000
,
0100
0000
0000
0030
,
0200
0000
0000
0000
0000
0000
0010
0300
,
0001
0000
0001
0000
,
1000
0000
1000
0000
,
0010
0000
0010
0000
,
0100
0000
0100
0000
,
0001
0000
0001
0000
,
1000
0000
1000
0000
,
0010
0000
0010
0000
,
0100
0000
0100
0000
,
0001
0000
0001
0000
,
1000
0000
0000
0000
0002
0000
0000
0003
,
0200
0000
0000
0300
,
0010
0000
1001
0000
,
0010
0000
0000
0000
,
0010
0000
1000
0000
,
0100
0000
0000
0000
,
0100
0000
0001
0000
,
0120
0000
0000
0000
,
0100
0000
0000
0030
,
0210
0000
0000
0300
,
0001
0000
0001
0000
,
1000
0000
1000
0000
,
0010
0000
0010
0000
,
0100
0000
0100
0000
,
0001
0000
0001
0000
,
1000
0000
1000
0000
,
0010
0000
0010
0000
,
0100
0000
0100
0000
,
0001
0000
0001
0000
,
1000
0000
1000
0000
,
0010
0000
0010
0000
,
0100
0000
0100
0000
,
0020
0000
0000
0030
,
1001
0000
0010
0000
,
1001
0000
0100
0000
,
1001
0000
0010
0000
,
1001
0000
0100
0000
,
0001
0000
0001
0000
,
1000
0000
1000
0000
,
0010
0000
0010
0000
,
0100
0000
0100
0000
,
0001
0000
0001
0000
,
1000
0000
1000
0000
,
0010
0000
0010
0000
,
0100
0000
0100
0000
,
0001
0000
0001
0000
,
1000
0000
1000
0000
,
0001
0000
0001
0000
,
1000
0000
0000
0000
0002
0000
0000
0003
,
0200
0000
0000
0300
,
0010
0000
1001
0000
,
0001
0000
0000
0000
2000
0000
0000
3000
,
0020
0000
0000
0030
,
0010
0000
0010
0000
,
0010
0000
0010
0010
,
0220
0000
0000
0000
,
0000
0000
0000
0000
,
0330
0000
0000
0000
;

//---------------dance-single - ----------------
#NOTES:
     dance-single:
     :
     Challenge:
     2:
     0.071531,0.113398,0.071999,0.055636,0.000000,153.000000,131.000000,22.000000,17.000000,0.000000,0.000000,0.071531,0.113398,0.071999,0.055636,0.000000,153.000000,131.000000,22.000000,17.000000,0.000000,0.000000:
// measure 0
0000
0000
0000
0000
,  // measure 1
0000
0000
0000
0000
,  // measure 2
1002
0000
0000
0003
,  // measure 3
1001
0000
1000
0000
,  // measure 4
2001
0000
0000
3000
,  // measure 5
1001
0000
0001
0000
,  // measure 6
0001
0000
0001
0000
,  // measure 7
1000
0000
0000
0000
0002
0000
0000
0003
,  // measure 8
0210
0000
0000
0300
,  // measure 9
0010
0000
1001
0000
,  // measure 10
0010
0000
0000
0000
,  // measure 11
0010
0000
1000
0000
,  // measure 12
0100
0000
0000
0000
,  // measure 13
0100
0000
0001
0000
,  // measure 14
1000
0000
0000
0000
,  // measure 15
1000
0000
0001
0000
,  // measure 16
0001
0000
0000
0000
,  // measure 17
0001
0000
1000
0000
,  // measure 18
0120
0000
0000
0000
,  // measure 19
0100
0000
0000
0030
,  // measure 20
0210
0000
0000
0000
0000
0000
0010
0300
,  // measure 21
0001
0000
0001
0000
,  // measure 22
1000
0000
1000
0000
,  // measure 23
0010
0000
0010
0000
,  // measure 24
0100
0000
0100
0000
,  // measure 25
0001
0000
0001
0000
,  // measure 26
1000
0000
1000
0000
,  // measure 27
0010
0000
0010
0000
,  // measure 28
0100
0000
0100
0000
,  // measure 29
0001
0000
0001
0000
,  // measure 30
1000
0000
0000
0000
0002
0000
0000
0003
,  // measure 31
0210
0000
0000
0300
,  // measure 32
0010
0000
1001
0000
,  // measure 33
0010
0000
0000
0000
,  // measure 34
0010
0000
1000
0000
,  // measure 35
0100
0000
0000
0000
,  // measure 36
0100
0000
0001
0000
,  // measure 37
0120
0000
0000
0000
,  // measure 38
0100
0000
0000
0030
,  // measure 39
0210
0000
0000
0300
,  // measure 40
0001
0000
0001
0000
,  // measure 41
1000
0000
1000
0000
,  // measure 42
0010
0000
0010
0000
,  // measure 43
0100
0000
0100
0000
,  // measure 44
0001
0000
0001
0000
,  // measure 45
1000
0000
1000
0000
,  // measure 46
0010
0000
0010
0000
,  // measure 47
0100
0000
0100
0000
,  // measure 48
0001
0000
0001
0000
,  // measure 49
1000
0000
1000
0000
,  // measure 50
0010
0000
0010
0000
,  // measure 51
0100
0000
0100
0000
,  // measure 52
0120
0000
0000
0030
,  // measure 53
1001
0000
0010
0000
,  // measure 54
1001
0000
0100
0000
,  // measure 55
1001
0000
0010
0000
,  // measure 56
1001
0000
0100
0000
,  // measure 57
0001
0000
0001
0000
,  // measure 58
1000
0000
1000
0000
,  // measure 59
0010
0000
0010
0000
,  // measure 60
0100
0000
0100
0000
,  // measure 61
0001
0000
0001
0000
,  // measure 62
1000
0000
1000
0000
,  // measure 63
0010
0000
0010
0000
,  // measure 64
0100
0000
0100
0000
,  // measure 65
0001
0000
0001
0000
,  // measure 66
1000
0000
1000
0000
,  // measure 67
0001
0000
0001
0000
,  // measure 68
1000
0000
0000
0000
0002
0000
0000
0003
,  // measure 69
0210
0000
0000
0300
,  // measure 70
0010
0000
1001
0000
,  // measure 71
0001
0000
0000
0000
2000
0000
0000
3000
,  // measure 72
0120
0000
0000
0030
,  // measure 73
0110
0000
0010
0000
,  // measure 74
0010
0010
0010
0010
,  // measure 75
0220
0000
0000
0000
,  // measure 76
0000
0000
0000
0000
,  // measure 77
0330
0000
0000
0000
;
