#VERSION:0.83;
#TITLE:RPG;
#SUBTITLE:;
#ARTIST:SEKAI NO OWARI;
#TITLETRANSLIT:;
#SUBTITLETRANSLIT:;
#ARTISTTRANSLIT:END OF THE WORLD;
#GENRE:;
#ORIGIN:;
#CREDIT:;
#BANNER:;
#BACKGROUND:;
#PREVIEWVID:;
#JACKET:;
#CDIMAGE:;
#DISCIMAGE:;
#LYRICSPATH:;
#CDTITLE:;
#MUSIC:RPG.ogg;
#OFFSET:-0.535000;
#SAMPLESTART:68.985001;
#SAMPLELENGTH:15.000000;
#SELECTABLE:YES;
#DISPLAYBPM:128.000000:135.000000;
#BPMS:0.000=135.000,
220.000=127.500,
280.000=135.000;
#STOPS:;
#DELAYS:;
#WARPS:;
#TIMESIGNATURES:0.000=4=4;
#TICKCOUNTS:0.000=4;
#COMBOS:0.000=1;
#SPEEDS:0.000=1.000=0.000=0;
#SCROLLS:0.000=1.000;
#FAKES:;
#LABELS:0.000=Song Start;
#BGCHANGES:;
#KEYSOUNDS:;
#ATTACKS:
;

//---------------dance-single - ----------------
#NOTEDATA:;
#CHARTNAME:;
#STEPSTYPE:dance-single;
#DESCRIPTION:;
#CHARTSTYLE:;
#DIFFICULTY:Beginner;
#METER:4;
#RADARVALUES:0.159964,0.219066,0.101161,0.139532,0.000000,321.000000,292.000000,29.000000,40.000000,0.000000,0.000000,0.000000,0.000000,0.000000,0.159964,0.219066,0.101161,0.139532,0.000000,321.000000,292.000000,29.000000,40.000000,0.000000,0.000000,0.000000,0.000000,0.000000;
#CREDIT:;
#DISPLAYBPM:128.000000:135.000000;
#NOTES:
0000
0000
0000
0000
,
0000
0000
0000
0000
,
0000
0000
0000
0000
,
0000
0000
0000
0000
,
0001
0000
0001
0000
,
0100
0000
0100
0000
,
1000
0000
1000
0000
,
0010
0000
0010
0000
,
0001
0000
0001
0000
,
0100
0000
0100
0000
,
1000
0000
1000
0000
,
2002
0000
0000
0000
,
0000
0000
0000
3003
,
0001
0000
0010
0000
,
1000
0000
1000
0000
,
1000
0000
0100
0000
,
0001
0000
0001
0000
,
0100
0000
0001
0000
,
0010
0000
0010
0000
,
0010
0000
1000
0000
,
0100
0000
0100
0000
,
0001
0000
0010
0000
,
1000
0000
1000
0000
,
1000
0000
0100
0000
,
0001
0000
0001
0000
,
0100
0000
0001
0000
,
0010
0000
0010
0000
,
0010
0000
1000
0000
,
0100
0000
0100
0000
,
0020
0000
0000
0030
,
0002
0000
0000
0003
,
2000
0000
0000
3000
,
0200
0000
0000
0300
,
1001
0000
0000
0000
,
1001
0000
0000
0000
,
1001
0000
0000
0000
,
1001
0000
0000
0000
,
0000
2002
0000
0000
,
0000
0000
0000
3003
,
1000
0000
0001
0001
,
0001
0000
1000
1000
,
0010
0000
0100
0100
,
0100
0000
0010
0010
,
1000
0000
0001
0001
,
0001
0000
1000
1000
,
0010
0000
0100
0100
,
0100
0000
0010
0010
,
1000
0000
0001
0001
,
0001
0000
1000
1000
,
0010
0000
0100
0100
,
0100
0000
0010
0010
,
1000
0000
0001
0001
,
0001
0000
1000
1000
,
0010
0000
0100
0100
,
0100
0000
0010
0010
,
2002
0000
0000
0000
,
0000
0000
0000
3003
,
1001
0000
0000
0000
,
1001
0000
0000
0000
,
2002
0000
0000
0000
,
0000
0000
0000
3003
,
1001
0000
0000
0000
,
1001
0000
0000
0000
,
0220
0000
0000
0000
,
0000
0000
0000
0330
,
0110
0000
0000
0000
,
0110
0000
0000
0000
,
0220
0000
0000
0000
,
0000
0000
0000
0330
,
0110
0000
0000
0000
,
0001
0000
0010
0000
,
1000
0000
1000
0000
,
1000
0000
0100
0000
,
0001
0000
0001
0000
,
0100
0000
0001
0000
,
0010
0000
0010
0000
,
0010
0000
1000
0000
,
0100
0000
0100
0000
,
0001
0000
0010
0000
,
1000
0000
1000
0000
,
1000
0000
0100
0000
,
0001
0000
0001
0000
,
0100
0000
0001
0000
,
0010
0000
0010
0000
,
0010
0000
1000
0000
,
0100
0000
0100
0000
,
0020
0000
0000
0030
,
0002
0000
0000
0003
,
2000
0000
0000
3000
,
0200
0000
0000
0300
,
1001
0000
0000
0000
,
1001
0000
0000
0000
,
1001
0000
0000
0000
,
1001
0000
0000
0000
,
0000
2002
0000
0000
,
0000
0000
0000
3003
,
1000
0000
0001
0001
,
0001
0000
1000
1000
,
0010
0000
0100
0100
,
0100
0000
0010
0010
,
1000
0000
0001
0001
,
0001
0000
1000
1000
,
0010
0000
0100
0100
,
0100
0000
0010
0010
,
1000
0000
0001
0001
,
0001
0000
1000
1000
,
0010
0000
0100
0100
,
0100
0000
0010
0010
,
1000
0000
0001
0001
,
0001
0000
1000
1000
,
0010
0000
0100
0100
,
0100
0000
0010
0010
,
0002
0000
0000
0003
,
2000
0000
0000
3000
,
0200
0000
0000
0300
,
0020
0000
0000
0030
,
0002
0000
0000
0003
,
2000
0000
0000
3000
,
0200
0000
0000
0300
,
0020
0000
0000
0030
,
0020
0000
0000
0030
,
0002
0000
0000
0003
,
2000
0000
0000
3000
,
0200
0000
0000
0300
,
1001
0000
0000
0000
,
1001
0000
0000
0000
,
1001
0000
0000
0000
,
1001
0000
0000
0000
,
0000
2002
0000
0000
,
0000
0000
0000
3003
,
1000
0000
0001
0001
,
0001
0000
1000
1000
,
0010
0000
0100
0100
,
0100
0000
0010
0010
,
1000
0000
0001
0001
,
0001
0000
1000
1000
,
0010
0000
0100
0100
,
0100
0000
0010
0010
,
1000
0000
0001
0001
,
0001
0000
1000
1000
,
0010
0000
0100
0100
,
0100
0000
0010
0010
,
1000
0000
0001
0001
,
0001
0000
1000
1000
,
0010
0000
0100
0100
,
0100
0000
0010
0010
,
2002
0000
0000
3003
,
1000
0000
0001
0001
,
0001
0000
1000
1000
,
0010
0000
0100
0100
,
0100
0000
0010
0010
,
1000
0000
0001
0001
,
0001
0000
1000
1000
,
0010
0000
0100
0100
,
2002
0000
0000
0000
,
0000
0000
0000
0000
,
0000
0000
0000
0000
,
3003
0000
0000
0000
;

//---------------dance-single - ----------------
#NOTEDATA:;
#CHARTNAME:;
#STEPSTYPE:dance-single;
#DESCRIPTION:;
#CHARTSTYLE:;
#DIFFICULTY:Easy;
#METER:5;
#RADARVALUES:0.206308,0.273832,0.184880,0.139532,0.000000,414.000000,361.000000,53.000000,40.000000,0.000000,0.000000,0.000000,0.000000,0.000000,0.206308,0.273832,0.184880,0.139532,0.000000,414.000000,361.000000,53.000000,40.000000,0.000000,0.000000,0.000000,0.000000,0.000000;
#CREDIT:;
#DISPLAYBPM:128.000000:135.000000;
#NOTES:
// measure 0
0000
0000
0000
0000
,  // measure 1
0000
0000
0000
0000
,  // measure 2
0000
0000
0000
0000
,  // measure 3
0000
0000
0000
0000
,  // measure 4
0001
0001
0001
0000
,  // measure 5
0100
0100
0100
0000
,  // measure 6
1000
1000
1000
0000
,  // measure 7
0010
0010
0010
0000
,  // measure 8
0001
0001
0001
0000
,  // measure 9
0100
0100
0100
0000
,  // measure 10
1000
1000
1000
0000
,  // measure 11
2002
0000
0000
0000
,  // measure 12
0000
0000
0000
3003
,  // measure 13
1001
0000
0010
0000
,  // measure 14
1000
0000
1000
0000
,  // measure 15
1001
0000
0100
0000
,  // measure 16
0001
0000
0001
0000
,  // measure 17
0110
0000
0001
0000
,  // measure 18
0010
0000
0010
0000
,  // measure 19
0110
0000
1000
0000
,  // measure 20
0100
0000
0100
0000
,  // measure 21
1001
0000
0010
0000
,  // measure 22
1000
0000
1000
0000
,  // measure 23
1001
0000
0100
0000
,  // measure 24
0001
0000
0001
0000
,  // measure 25
0110
0000
0001
0000
,  // measure 26
0010
0000
0010
0000
,  // measure 27
0110
0000
1000
0000
,  // measure 28
0100
0000
0100
0000
,  // measure 29
0020
0000
0000
0030
,  // measure 30
0002
0000
0000
0003
,  // measure 31
2000
0000
0000
3000
,  // measure 32
0200
0000
0000
0300
,  // measure 33
1001
0000
0000
0000
,  // measure 34
1001
0000
0000
0000
,  // measure 35
1001
0000
0000
0000
,  // measure 36
1001
0000
0000
0000
,  // measure 37
0000
2002
0000
0000
,  // measure 38
0000
0000
0000
3003
,  // measure 39
1000
0100
0001
0001
,  // measure 40
0001
0010
1000
1000
,  // measure 41
0010
1000
0100
0100
,  // measure 42
0100
0001
0010
0010
,  // measure 43
1000
0100
0001
0001
,  // measure 44
0001
0010
1000
1000
,  // measure 45
0010
1000
0100
0100
,  // measure 46
0100
0001
0010
0010
,  // measure 47
1000
0100
0001
0001
,  // measure 48
0001
0010
1000
1000
,  // measure 49
0010
1000
0100
0100
,  // measure 50
0100
0001
0010
0010
,  // measure 51
1000
0100
0001
0001
,  // measure 52
0001
0010
1000
1000
,  // measure 53
0010
1000
0100
0100
,  // measure 54
0100
0001
0010
0010
,  // measure 55
2002
0000
0000
0000
,  // measure 56
0000
0000
0000
3003
,  // measure 57
1001
0000
0001
0000
,  // measure 58
1001
0000
1000
0000
,  // measure 59
2002
0000
0000
0000
,  // measure 60
0000
0000
0000
3003
,  // measure 61
1001
0000
1000
0000
,  // measure 62
1001
0000
0001
0000
,  // measure 63
0220
0000
0000
0000
,  // measure 64
0000
0000
0000
0330
,  // measure 65
0110
0000
0100
0000
,  // measure 66
0110
0000
0010
0000
,  // measure 67
0220
0000
0000
0000
,  // measure 68
0000
0000
0000
0330
,  // measure 69
0110
0000
0010
0000
,  // measure 70
1001
0000
0010
0000
,  // measure 71
1000
0000
1000
0000
,  // measure 72
1001
0000
0100
0000
,  // measure 73
0001
0000
0001
0000
,  // measure 74
0110
0000
0001
0000
,  // measure 75
0010
0000
0010
0000
,  // measure 76
0110
0000
1000
0000
,  // measure 77
0100
0000
0100
0000
,  // measure 78
1001
0000
0010
0000
,  // measure 79
1000
0000
1000
0000
,  // measure 80
1001
0000
0100
0000
,  // measure 81
0001
0000
0001
0000
,  // measure 82
0110
0000
0001
0000
,  // measure 83
0010
0000
0010
0000
,  // measure 84
0110
0000
1000
0000
,  // measure 85
0100
0000
0100
0000
,  // measure 86
0020
0000
0000
0030
,  // measure 87
0002
0000
0000
0003
,  // measure 88
2000
0000
0000
3000
,  // measure 89
0200
0000
0000
0300
,  // measure 90
1001
0000
0000
0000
,  // measure 91
1001
0000
0000
0000
,  // measure 92
1001
0000
0000
0000
,  // measure 93
1001
0000
0000
0000
,  // measure 94
0000
2002
0000
0000
,  // measure 95
0000
0000
0000
3003
,  // measure 96
1000
0100
0001
0001
,  // measure 97
0001
0010
1000
1000
,  // measure 98
0010
1000
0100
0100
,  // measure 99
0100
0001
0010
0010
,  // measure 100
1000
0100
0001
0001
,  // measure 101
0001
0010
1000
1000
,  // measure 102
0010
1000
0100
0100
,  // measure 103
0100
0001
0010
0010
,  // measure 104
1000
0100
0001
0001
,  // measure 105
0001
0010
1000
1000
,  // measure 106
0010
1000
0100
0100
,  // measure 107
0100
0001
0010
0010
,  // measure 108
1000
0100
0001
0001
,  // measure 109
0001
0010
1000
1000
,  // measure 110
0010
1000
0100
0100
,  // measure 111
0100
0001
0010
0010
,  // measure 112
1002
0000
0000
0003
,  // measure 113
2001
0000
0000
3000
,  // measure 114
0210
0000
0000
0300
,  // measure 115
0120
0000
0000
0030
,  // measure 116
1002
0000
0000
0003
,  // measure 117
2001
0000
0000
3000
,  // measure 118
0210
0000
0000
0300
,  // measure 119
0120
0000
0000
0030
,  // measure 120
0020
0000
0000
0030
,  // measure 121
0002
0000
0000
0003
,  // measure 122
2000
0000
0000
3000
,  // measure 123
0200
0000
0000
0300
,  // measure 124
1001
0000
0000
0000
,  // measure 125
1001
0000
0000
0000
,  // measure 126
1001
0000
0000
0000
,  // measure 127
1001
0000
0000
0000
,  // measure 128
0000
2002
0000
0000
,  // measure 129
0000
0000
0000
3003
,  // measure 130
1000
0100
0001
0001
,  // measure 131
0001
0010
1000
1000
,  // measure 132
0010
1000
0100
0100
,  // measure 133
0100
0001
0010
0010
,  // measure 134
1000
0100
0001
0001
,  // measure 135
0001
0010
1000
1000
,  // measure 136
0010
1000
0100
0100
,  // measure 137
0100
0001
0010
0010
,  // measure 138
1000
0100
0001
0001
,  // measure 139
0001
0010
1000
1000
,  // measure 140
0010
1000
0100
0100
,  // measure 141
0100
0001
0010
0010
,  // measure 142
1000
0100
0001
0001
,  // measure 143
0001
0010
1000
1000
,  // measure 144
0010
1000
0100
0100
,  // measure 145
0100
0001
0010
0010
,  // measure 146
2002
0000
0000
3003
,  // measure 147
1000
0100
0001
0001
,  // measure 148
0001
0010
1000
1000
,  // measure 149
0010
1000
0100
0100
,  // measure 150
0100
0001
0010
0010
,  // measure 151
1000
0100
0001
0001
,  // measure 152
0001
0010
1000
1000
,  // measure 153
0010
1000
0100
0100
,  // measure 154
2002
0000
0000
0000
,  // measure 155
0000
0000
0000
0000
,  // measure 156
0000
0000
0000
0000
,  // measure 157
3003
0000
0000
0000
;

//---------------dance-single - ----------------
#NOTEDATA:;
#CHARTNAME:;
#STEPSTYPE:dance-single;
#DESCRIPTION:;
#CHARTSTYLE:;
#DIFFICULTY:Medium;
#METER:6;
#RADARVALUES:0.235212,0.273832,0.244181,0.139532,0.000000,472.000000,402.000000,70.000000,40.000000,0.000000,0.000000,0.000000,0.000000,0.000000,0.235212,0.273832,0.244181,0.139532,0.000000,472.000000,402.000000,70.000000,40.000000,0.000000,0.000000,0.000000,0.000000,0.000000;
#CREDIT:;
#DISPLAYBPM:128.000000:135.000000;
#NOTES:
// measure 0
0000
0000
0000
0000
,  // measure 1
0000
0000
0000
0000
,  // measure 2
0000
0000
0000
0000
,  // measure 3
0000
0000
0000
0000
,  // measure 4
0001
0001
0001
0001
,  // measure 5
0100
0100
0100
0100
,  // measure 6
1000
1000
1000
1000
,  // measure 7
0010
0010
0010
0010
,  // measure 8
0001
0001
0001
0001
,  // measure 9
0100
0100
0100
0100
,  // measure 10
1000
1000
1000
1000
,  // measure 11
2002
0000
0000
0000
,  // measure 12
0000
0000
0000
3003
,  // measure 13
1001
0000
0010
0010
,  // measure 14
1000
0000
1000
0000
,  // measure 15
1001
0000
0100
0100
,  // measure 16
0001
0000
0001
0000
,  // measure 17
0110
0000
0001
0001
,  // measure 18
0010
0000
0010
0000
,  // measure 19
0110
0000
1000
1000
,  // measure 20
0100
0000
0100
0000
,  // measure 21
1001
0000
0010
0010
,  // measure 22
1000
0000
1000
0000
,  // measure 23
1001
0000
0100
0100
,  // measure 24
0001
0000
0001
0000
,  // measure 25
0110
0000
0001
0001
,  // measure 26
0010
0000
0010
0000
,  // measure 27
0110
0000
1000
1000
,  // measure 28
0100
0000
0100
0000
,  // measure 29
0020
0000
0000
0030
,  // measure 30
0002
0000
0000
0003
,  // measure 31
2000
0000
0000
3000
,  // measure 32
0200
0000
0000
0300
,  // measure 33
1001
0000
0000
0000
,  // measure 34
1001
0000
0000
0000
,  // measure 35
1001
0000
0000
0000
,  // measure 36
1001
0000
0000
0000
,  // measure 37
1001
2002
0000
0000
,  // measure 38
0000
0000
0000
3003
,  // measure 39
1001
0100
0001
0001
,  // measure 40
0001
0010
1000
1000
,  // measure 41
0010
1000
0100
0100
,  // measure 42
0100
0001
0010
0010
,  // measure 43
1001
0100
0001
0001
,  // measure 44
0001
0010
1000
1000
,  // measure 45
0010
1000
0100
0100
,  // measure 46
0100
0001
0010
0010
,  // measure 47
1001
0100
0001
0001
,  // measure 48
0001
0010
1000
1000
,  // measure 49
0010
1000
0100
0100
,  // measure 50
0100
0001
0010
0010
,  // measure 51
1001
0100
0001
0001
,  // measure 52
0001
0010
1000
1000
,  // measure 53
0010
1000
0100
0100
,  // measure 54
0100
0001
0010
0010
,  // measure 55
2002
0000
0000
0000
,  // measure 56
0000
0000
0000
3003
,  // measure 57
1001
0000
0001
0001
,  // measure 58
1001
0000
1000
1000
,  // measure 59
2002
0000
0000
0000
,  // measure 60
0000
0000
0000
3003
,  // measure 61
1001
0000
1000
1000
,  // measure 62
1001
0000
0001
0001
,  // measure 63
0220
0000
0000
0000
,  // measure 64
0000
0000
0000
0330
,  // measure 65
0110
0000
0100
0100
,  // measure 66
0110
0000
0010
0010
,  // measure 67
0220
0000
0000
0000
,  // measure 68
0000
0000
0000
0330
,  // measure 69
0110
0000
0010
0010
,  // measure 70
1001
0000
0010
0010
,  // measure 71
1000
0000
1000
0000
,  // measure 72
1001
0000
0100
0100
,  // measure 73
0001
0000
0001
0000
,  // measure 74
0110
0000
0001
0001
,  // measure 75
0010
0000
0010
0000
,  // measure 76
0110
0000
1000
1000
,  // measure 77
0100
0000
0100
0000
,  // measure 78
1001
0000
0010
0010
,  // measure 79
1000
0000
1000
0000
,  // measure 80
1001
0000
0100
0100
,  // measure 81
0001
0000
0001
0000
,  // measure 82
0110
0000
0001
0001
,  // measure 83
0010
0000
0010
0000
,  // measure 84
0110
0000
1000
1000
,  // measure 85
0100
0000
0100
0000
,  // measure 86
0020
0000
0000
0030
,  // measure 87
0002
0000
0000
0003
,  // measure 88
2000
0000
0000
3000
,  // measure 89
0200
0000
0000
0300
,  // measure 90
1001
0000
0000
0000
,  // measure 91
1001
0000
0000
0000
,  // measure 92
1001
0000
0000
0000
,  // measure 93
1001
0000
0000
0000
,  // measure 94
1001
2002
0000
0000
,  // measure 95
0000
0000
0000
3003
,  // measure 96
1001
0100
0001
0001
,  // measure 97
0001
0010
1000
1000
,  // measure 98
0010
1000
0100
0100
,  // measure 99
0100
0001
0010
0010
,  // measure 100
1001
0100
0001
0001
,  // measure 101
0001
0010
1000
1000
,  // measure 102
0010
1000
0100
0100
,  // measure 103
0100
0001
0010
0010
,  // measure 104
1001
0100
0001
0001
,  // measure 105
0001
0010
1000
1000
,  // measure 106
0010
1000
0100
0100
,  // measure 107
0100
0001
0010
0010
,  // measure 108
1001
0100
0001
0001
,  // measure 109
0001
0010
1000
1000
,  // measure 110
0010
1000
0100
0100
,  // measure 111
0100
0001
0010
0010
,  // measure 112
1002
0000
1000
0003
,  // measure 113
2001
0000
0001
3000
,  // measure 114
0210
0000
0010
0300
,  // measure 115
0120
0000
0100
0030
,  // measure 116
1002
0000
1000
0003
,  // measure 117
2001
0000
0001
3000
,  // measure 118
0210
0000
0010
0300
,  // measure 119
0120
0000
0100
0030
,  // measure 120
0020
0000
0000
0030
,  // measure 121
0002
0000
0000
0003
,  // measure 122
2000
0000
0000
3000
,  // measure 123
0200
0000
0000
0300
,  // measure 124
1001
0000
0000
0000
,  // measure 125
1001
0000
0000
0000
,  // measure 126
1001
0000
0000
0000
,  // measure 127
1001
0000
0000
0000
,  // measure 128
1001
2002
0000
0000
,  // measure 129
0000
0000
0000
3003
,  // measure 130
1001
0100
0001
0001
,  // measure 131
0001
0010
1000
1000
,  // measure 132
0010
1000
0100
0100
,  // measure 133
0100
0001
0010
0010
,  // measure 134
1001
0100
0001
0001
,  // measure 135
0001
0010
1000
1000
,  // measure 136
0010
1000
0100
0100
,  // measure 137
0100
0001
0010
0010
,  // measure 138
1001
0100
0001
0001
,  // measure 139
0001
0010
1000
1000
,  // measure 140
0010
1000
0100
0100
,  // measure 141
0100
0001
0010
0010
,  // measure 142
1001
0100
0001
0001
,  // measure 143
0001
0010
1000
1000
,  // measure 144
0010
1000
0100
0100
,  // measure 145
0100
0001
0010
0010
,  // measure 146
2002
0000
0000
3003
,  // measure 147
1001
0100
0001
0001
,  // measure 148
0001
0010
1000
1000
,  // measure 149
0010
1000
0100
0100
,  // measure 150
0100
0001
0010
0010
,  // measure 151
1001
0100
0001
0001
,  // measure 152
0001
0010
1000
1000
,  // measure 153
0010
1000
0100
0100
,  // measure 154
2002
0000
0000
0000
,  // measure 155
0000
0000
0000
0000
,  // measure 156
0000
0000
0000
0000
,  // measure 157
3003
0000
0000
0000
;

//---------------dance-single - ----------------
#NOTEDATA:;
#CHARTNAME:;
#STEPSTYPE:dance-single;
#DESCRIPTION:;
#CHARTSTYLE:;
#DIFFICULTY:Hard;
#METER:7;
#RADARVALUES:0.262620,0.328599,0.331389,0.139532,0.000000,527.000000,432.000000,95.000000,40.000000,0.000000,0.000000,0.000000,0.000000,0.000000,0.262620,0.328599,0.331389,0.139532,0.000000,527.000000,432.000000,95.000000,40.000000,0.000000,0.000000,0.000000,0.000000,0.000000;
#CREDIT:;
#DISPLAYBPM:128.000000:135.000000;
#NOTES:
// measure 0
0000
0000
0000
0000
,  // measure 1
0000
0000
0000
0000
,  // measure 2
0000
0000
0000
0000
,  // measure 3
0000
0000
0000
0000
,  // measure 4
1001
0001
0001
0001
,  // measure 5
0100
0100
0100
0100
,  // measure 6
1001
1000
1000
1000
,  // measure 7
0010
0010
0010
0010
,  // measure 8
1001
0001
0001
0001
,  // measure 9
0110
0100
0100
0100
,  // measure 10
1001
1000
1000
1000
,  // measure 11
2002
0000
0000
0000
,  // measure 12
0000
0000
0000
3003
,  // measure 13
1001
0000
0010
0010
,  // measure 14
1000
0000
1000
1000
,  // measure 15
1001
0000
0100
0100
,  // measure 16
0001
0000
0001
0001
,  // measure 17
0110
0000
0001
0001
,  // measure 18
0010
0000
0010
0010
,  // measure 19
0110
0000
1000
1000
,  // measure 20
0100
0000
0100
0100
,  // measure 21
1001
0000
0010
0010
,  // measure 22
1000
0000
1000
1000
,  // measure 23
1001
0000
0100
0100
,  // measure 24
0001
0000
0001
0001
,  // measure 25
0110
0000
0001
0001
,  // measure 26
0010
0000
0010
0010
,  // measure 27
0110
0000
1000
1000
,  // measure 28
0100
0000
0100
0100
,  // measure 29
0120
0000
0000
0030
,  // measure 30
0002
0000
0000
0003
,  // measure 31
2001
0000
0000
3000
,  // measure 32
0200
0000
0000
0300
,  // measure 33
1001
0000
0001
0000
,  // measure 34
1001
0000
1000
0000
,  // measure 35
1001
0000
0000
0000
,  // measure 36
1001
0000
0000
0000
,  // measure 37
1001
2002
0000
0000
,  // measure 38
0000
0000
0000
3003
,  // measure 39
1001
0100
0001
0001
,  // measure 40
0001
0010
1000
1000
,  // measure 41
0110
1000
0100
0100
,  // measure 42
0100
0001
0010
0010
,  // measure 43
1001
0100
0001
0001
,  // measure 44
0001
0010
1000
1000
,  // measure 45
0110
1000
0100
0100
,  // measure 46
0100
0001
0010
0010
,  // measure 47
1001
0100
0001
0001
,  // measure 48
0001
0010
1000
1000
,  // measure 49
0110
1000
0100
0100
,  // measure 50
0100
0001
0010
0010
,  // measure 51
1001
0100
0001
0001
,  // measure 52
0001
0010
1000
1000
,  // measure 53
0110
1000
0100
0100
,  // measure 54
0100
0001
0010
0010
,  // measure 55
2002
0000
0000
0000
,  // measure 56
0000
0000
0000
3003
,  // measure 57
1001
0000
0001
1000
,  // measure 58
1001
0000
1000
0001
,  // measure 59
2002
0000
0000
0000
,  // measure 60
0000
0000
0000
3003
,  // measure 61
1001
0000
1000
0001
,  // measure 62
1001
0000
0001
1000
,  // measure 63
0220
0000
0000
0000
,  // measure 64
0000
0000
0000
0330
,  // measure 65
0110
0000
0100
0010
,  // measure 66
0110
0000
0010
0100
,  // measure 67
0220
0000
0000
0000
,  // measure 68
0000
0000
0000
0330
,  // measure 69
0110
0000
0010
0100
,  // measure 70
1001
0000
0010
0010
,  // measure 71
1000
0000
1000
1000
,  // measure 72
1001
0000
0100
0100
,  // measure 73
0001
0000
0001
0001
,  // measure 74
0110
0000
0001
0001
,  // measure 75
0010
0000
0010
0010
,  // measure 76
0110
0000
1000
1000
,  // measure 77
0100
0000
0100
0100
,  // measure 78
1001
0000
0010
0010
,  // measure 79
1000
0000
1000
1000
,  // measure 80
1001
0000
0100
0100
,  // measure 81
0001
0000
0001
0001
,  // measure 82
0110
0000
0001
0001
,  // measure 83
0010
0000
0010
0010
,  // measure 84
0110
0000
1000
1000
,  // measure 85
0100
0000
0100
0100
,  // measure 86
0120
0000
0000
0030
,  // measure 87
0002
0000
0000
0003
,  // measure 88
2001
0000
0000
3000
,  // measure 89
0200
0000
0000
0300
,  // measure 90
1001
0000
0001
0000
,  // measure 91
1001
0000
1000
0000
,  // measure 92
1001
0000
0000
0000
,  // measure 93
1001
0000
0000
0000
,  // measure 94
1001
2002
0000
0000
,  // measure 95
0000
0000
0000
3003
,  // measure 96
1001
0100
0001
0001
,  // measure 97
0001
0010
1000
1000
,  // measure 98
0110
1000
0100
0100
,  // measure 99
0100
0001
0010
0010
,  // measure 100
1001
0100
0001
0001
,  // measure 101
0001
0010
1000
1000
,  // measure 102
0110
1000
0100
0100
,  // measure 103
0100
0001
0010
0010
,  // measure 104
1001
0100
0001
0001
,  // measure 105
0001
0010
1000
1000
,  // measure 106
0110
1000
0100
0100
,  // measure 107
0100
0001
0010
0010
,  // measure 108
1001
0100
0001
0001
,  // measure 109
0001
0010
1000
1000
,  // measure 110
0110
1000
0100
0100
,  // measure 111
0100
0001
0010
0010
,  // measure 112
1002
1000
1000
0003
,  // measure 113
2001
0001
0001
3000
,  // measure 114
0210
0010
0010
0300
,  // measure 115
0120
0100
0100
0030
,  // measure 116
1002
1000
1000
0003
,  // measure 117
2001
0001
0001
3000
,  // measure 118
0210
0010
0010
0300
,  // measure 119
0120
0100
0100
0030
,  // measure 120
0120
0000
0000
0030
,  // measure 121
0002
0000
0000
0003
,  // measure 122
2001
0000
0000
3000
,  // measure 123
0200
0000
0000
0300
,  // measure 124
1001
0000
0001
0000
,  // measure 125
1001
0000
1000
0000
,  // measure 126
1001
0000
0000
0000
,  // measure 127
1001
0000
0000
0000
,  // measure 128
1001
2002
0000
0000
,  // measure 129
0000
0000
0000
3003
,  // measure 130
1001
0100
0001
0001
,  // measure 131
0001
0010
1000
1000
,  // measure 132
0110
1000
0100
0100
,  // measure 133
0100
0001
0010
0010
,  // measure 134
1001
0100
0001
0001
,  // measure 135
0001
0010
1000
1000
,  // measure 136
0110
1000
0100
0100
,  // measure 137
0100
0001
0010
0010
,  // measure 138
1001
0100
0001
0001
,  // measure 139
0001
0010
1000
1000
,  // measure 140
0110
1000
0100
0100
,  // measure 141
0100
0001
0010
0010
,  // measure 142
1001
0100
0001
0001
,  // measure 143
0001
0010
1000
1000
,  // measure 144
0110
1000
0100
0100
,  // measure 145
0100
0001
0010
0010
,  // measure 146
2002
0000
0000
3003
,  // measure 147
1001
0100
0001
0001
,  // measure 148
0001
0010
1000
1000
,  // measure 149
0110
1000
0100
0100
,  // measure 150
0100
0001
0010
0010
,  // measure 151
1001
0100
0001
0001
,  // measure 152
0001
0010
1000
1000
,  // measure 153
0110
1000
0100
0100
,  // measure 154
2002
0000
0000
0000
,  // measure 155
0000
0000
0000
0000
,  // measure 156
0000
0000
0000
0000
,  // measure 157
3003
0000
0000
0000
;

//---------------dance-single - ----------------
#NOTEDATA:;
#CHARTNAME:;
#STEPSTYPE:dance-single;
#DESCRIPTION:;
#CHARTSTYLE:;
#DIFFICULTY:Challenge;
#METER:7;
#RADARVALUES:0.281556,0.328599,0.369761,0.139532,0.000000,565.000000,459.000000,106.000000,40.000000,0.000000,0.000000,0.000000,0.000000,0.000000,0.281556,0.328599,0.369761,0.139532,0.000000,565.000000,459.000000,106.000000,40.000000,0.000000,0.000000,0.000000,0.000000,0.000000;
#CREDIT:;
#DISPLAYBPM:128.000000:135.000000;
#NOTES:
// measure 0
0000
0000
0000
0000
,  // measure 1
0000
0000
0000
0000
,  // measure 2
0000
0000
0000
0000
,  // measure 3
0000
0000
0000
0000
,  // measure 4
1001
0001
0001
0001
,  // measure 5
0110
0100
0100
0100
,  // measure 6
1001
1000
1000
1000
,  // measure 7
0110
0010
0010
0010
,  // measure 8
1001
0001
0001
0001
,  // measure 9
0110
0100
0100
0100
,  // measure 10
1001
1000
1000
1000
,  // measure 11
2002
0000
0000
0000
,  // measure 12
0000
0000
0000
3003
,  // measure 13
1001
0010
0010
0010
,  // measure 14
1000
0000
1000
1000
,  // measure 15
1001
0100
0100
0100
,  // measure 16
0001
0000
0001
0001
,  // measure 17
0110
0001
0001
0001
,  // measure 18
0010
0000
0010
0010
,  // measure 19
0110
1000
1000
1000
,  // measure 20
0100
0000
0100
0100
,  // measure 21
1001
0010
0010
0010
,  // measure 22
1000
0000
1000
1000
,  // measure 23
1001
0100
0100
0100
,  // measure 24
0001
0000
0001
0001
,  // measure 25
0110
0001
0001
0001
,  // measure 26
0010
0000
0010
0010
,  // measure 27
0110
1000
1000
1000
,  // measure 28
0100
0000
0100
0100
,  // measure 29
0120
0000
0000
0030
,  // measure 30
1002
0000
0000
0003
,  // measure 31
2001
0000
0000
3000
,  // measure 32
0210
0000
0000
0300
,  // measure 33
1001
0000
0001
0000
,  // measure 34
1001
0000
1000
0000
,  // measure 35
1001
0000
0000
0000
,  // measure 36
1001
0000
1001
0000
,  // measure 37
1001
2002
0000
0000
,  // measure 38
0000
0000
0000
3003
,  // measure 39
1001
0100
0001
0001
,  // measure 40
0001
0010
1000
1000
,  // measure 41
0110
1000
0100
0100
,  // measure 42
0100
0001
0010
0010
,  // measure 43
1001
0100
0001
0001
,  // measure 44
0001
0010
1000
1000
,  // measure 45
0110
1000
0100
0100
,  // measure 46
0100
0001
0010
0010
,  // measure 47
1001
0100
0001
0001
,  // measure 48
0001
0010
1000
1000
,  // measure 49
0110
1000
0100
0100
,  // measure 50
0100
0001
0010
0010
,  // measure 51
1001
0100
0001
0001
,  // measure 52
0001
0010
1000
1000
,  // measure 53
0110
1000
0100
0100
,  // measure 54
0100
0001
0010
0010
,  // measure 55
2002
0000
0000
0000
,  // measure 56
0000
0000
0000
3003
,  // measure 57
1001
0000
0001
1000
,  // measure 58
1001
0000
1000
0001
,  // measure 59
2002
0000
0000
0000
,  // measure 60
0000
0000
0000
3003
,  // measure 61
1001
0000
1000
0001
,  // measure 62
1001
0000
0001
1000
,  // measure 63
0220
0000
0000
0000
,  // measure 64
0000
0000
0000
0330
,  // measure 65
0110
0000
0100
0010
,  // measure 66
0110
0000
0010
0100
,  // measure 67
0220
0000
0000
0000
,  // measure 68
0000
0000
0000
0330
,  // measure 69
0110
0000
0010
0100
,  // measure 70
1001
0010
0010
0010
,  // measure 71
1000
0000
1000
1000
,  // measure 72
1001
0100
0100
0100
,  // measure 73
0001
0000
0001
0001
,  // measure 74
0110
0001
0001
0001
,  // measure 75
0010
0000
0010
0010
,  // measure 76
0110
1000
1000
1000
,  // measure 77
0100
0000
0100
0100
,  // measure 78
1001
0010
0010
0010
,  // measure 79
1000
0000
1000
1000
,  // measure 80
1001
0100
0100
0100
,  // measure 81
0001
0000
0001
0001
,  // measure 82
0110
0001
0001
0001
,  // measure 83
0010
0000
0010
0010
,  // measure 84
0110
1000
1000
1000
,  // measure 85
0100
0000
0100
0100
,  // measure 86
0120
0000
0000
0030
,  // measure 87
1002
0000
0000
0003
,  // measure 88
2001
0000
0000
3000
,  // measure 89
0210
0000
0000
0300
,  // measure 90
1001
0000
0001
0000
,  // measure 91
1001
0000
1000
0000
,  // measure 92
1001
0000
0000
0000
,  // measure 93
1001
0000
1001
0000
,  // measure 94
1001
2002
0000
0000
,  // measure 95
0000
0000
0000
3003
,  // measure 96
1001
0100
0001
0001
,  // measure 97
0001
0010
1000
1000
,  // measure 98
0110
1000
0100
0100
,  // measure 99
0100
0001
0010
0010
,  // measure 100
1001
0100
0001
0001
,  // measure 101
0001
0010
1000
1000
,  // measure 102
0110
1000
0100
0100
,  // measure 103
0100
0001
0010
0010
,  // measure 104
1001
0100
0001
0001
,  // measure 105
0001
0010
1000
1000
,  // measure 106
0110
1000
0100
0100
,  // measure 107
0100
0001
0010
0010
,  // measure 108
1001
0100
0001
0001
,  // measure 109
0001
0010
1000
1000
,  // measure 110
0110
1000
0100
0100
,  // measure 111
0100
0001
0010
0010
,  // measure 112
1002
1000
1000
1003
,  // measure 113
2001
0001
0001
3001
,  // measure 114
0210
0010
0010
0310
,  // measure 115
0120
0100
0100
0130
,  // measure 116
1002
1000
1000
1003
,  // measure 117
2001
0001
0001
3001
,  // measure 118
0210
0010
0010
0310
,  // measure 119
0120
0100
0100
0130
,  // measure 120
0120
0000
0000
0030
,  // measure 121
1002
0000
0000
0003
,  // measure 122
2001
0000
0000
3000
,  // measure 123
0210
0000
0000
0300
,  // measure 124
1001
0000
0001
0000
,  // measure 125
1001
0000
1000
0000
,  // measure 126
1001
0000
0000
0000
,  // measure 127
1001
0000
1001
0000
,  // measure 128
1001
2002
0000
0000
,  // measure 129
0000
0000
0000
3003
,  // measure 130
1001
0100
0001
0001
,  // measure 131
0001
0010
1000
1000
,  // measure 132
0110
1000
0100
0100
,  // measure 133
0100
0001
0010
0010
,  // measure 134
1001
0100
0001
0001
,  // measure 135
0001
0010
1000
1000
,  // measure 136
0110
1000
0100
0100
,  // measure 137
0100
0001
0010
0010
,  // measure 138
1001
0100
0001
0001
,  // measure 139
0001
0010
1000
1000
,  // measure 140
0110
1000
0100
0100
,  // measure 141
0100
0001
0010
0010
,  // measure 142
1001
0100
0001
0001
,  // measure 143
0001
0010
1000
1000
,  // measure 144
0110
1000
0100
0100
,  // measure 145
0100
0001
0010
0010
,  // measure 146
2002
0000
0000
3003
,  // measure 147
1001
0100
0001
0001
,  // measure 148
0001
0010
1000
1000
,  // measure 149
0110
1000
0100
0100
,  // measure 150
0100
0001
0010
0010
,  // measure 151
1001
0100
0001
0001
,  // measure 152
0001
0010
1000
1000
,  // measure 153
0110
1000
0100
0100
,  // measure 154
2002
0000
0000
0000
,  // measure 155
0000
0000
0000
0000
,  // measure 156
0000
0000
0000
0000
,  // measure 157
3003
0000
0000
0000
;
